<?xml version="1.0" standalone="no"?>
<!DOCTYPE svg PUBLIC "-//W3C//DTD SVG 1.1//EN" "http://www.w3.org/Graphics/SVG/1.1/DTD/svg11.dtd" >
<svg xmlns="http://www.w3.org/2000/svg">
<metadata></metadata>
<defs>
<font id="dosismedium" horiz-adv-x="1144" >
<font-face units-per-em="2048" ascent="1638" descent="-410" />
<missing-glyph horiz-adv-x="409" />
<glyph unicode="&#xfb01;" horiz-adv-x="1073" d="M123 59v1090q0 78 29.5 151.5t87 130t140.5 91t191 34.5q59 0 116.5 -10t104 -28.5t75 -43t28.5 -51.5q0 -10 -4 -26.5t-12.5 -31.5t-20.5 -26.5t-27 -11.5q-16 0 -34.5 12.5t-47 27.5t-71 27.5t-103.5 12.5q-76 0 -130 -22.5t-87.5 -58.5t-49 -81t-15.5 -90v-184h246 q25 0 39 -20.5t14 -47.5t-14.5 -46t-38.5 -19h-246v-779q0 -27 -26.5 -43t-61.5 -16t-58.5 16.5t-23.5 42.5zM782 61v850q0 27 23.5 43.5t58.5 16.5q37 0 62.5 -16.5t25.5 -43.5v-850q0 -23 -25.5 -42t-62.5 -19q-35 0 -58.5 19.5t-23.5 41.5z" />
<glyph unicode="&#xfb02;" horiz-adv-x="1091" d="M123 59v1090q0 96 39 172t104.5 128t150.5 79.5t175 27.5q47 0 98 -8t99.5 -24.5t90.5 -42t72 -60.5v-1360q0 -23 -24.5 -42t-61.5 -19q-35 0 -59.5 19.5t-24.5 41.5v1287q-37 35 -90 52t-106 17q-55 0 -107.5 -17.5t-94.5 -51t-66.5 -82.5t-24.5 -111v-184h246 q25 0 39 -20.5t14 -47.5t-14.5 -46t-38.5 -19h-246v-779q0 -27 -26.5 -43t-61.5 -16t-58.5 16.5t-23.5 42.5z" />
<glyph horiz-adv-x="0" />
<glyph unicode="&#xd;" horiz-adv-x="0" />
<glyph unicode=" "  horiz-adv-x="409" />
<glyph unicode="&#x09;" horiz-adv-x="409" />
<glyph unicode="&#xa0;" horiz-adv-x="409" />
<glyph unicode="!" horiz-adv-x="428" d="M106 94q0 45 31 77t78 32q43 0 73.5 -32t30.5 -77q0 -41 -30.5 -73.5t-73.5 -32.5q-47 0 -78 32.5t-31 73.5zM121 1430q0 43 25.5 65.5t66.5 22.5q37 0 64.5 -22.5t27.5 -65.5q0 -119 -4 -248t-8 -259t-8 -260.5t-4 -248.5q0 -29 -24 -42.5t-44 -13.5q-27 0 -47.5 13.5 t-20.5 42.5q0 119 -4 249l-8 260t-8 259t-4 248z" />
<glyph unicode="&#x22;" horiz-adv-x="571" d="M72 1522q0 23 22 37t51 14q27 0 51.5 -14.5t24.5 -36.5l-20 -297q0 -20 -13.5 -37t-42.5 -17t-41 16.5t-12 37.5zM350 1522q0 23 22.5 37t51.5 14q27 0 51.5 -14.5t24.5 -36.5l-21 -297q0 -20 -13 -37t-42 -17t-41 16.5t-12 37.5z" />
<glyph unicode="#" horiz-adv-x="1247" d="M49 563q0 29 14.5 48.5t36.5 19.5h217l50 305h-187q-57 0 -57 65q0 29 13.5 47.5t35.5 18.5h219l60 354q4 18 23 28.5t44 10.5q35 0 57.5 -18.5t22.5 -52.5l-53 -322h252l57 354q4 18 24.5 28.5t43.5 10.5q35 0 58.5 -18.5t23.5 -52.5l-54 -322h189q23 0 41 -18.5 t18 -47.5t-16.5 -47t-36.5 -18h-217l-51 -305h188q23 0 41 -18.5t18 -49.5q0 -29 -16 -46t-37 -17h-219l-61 -387q-4 -20 -26 -32.5t-44 -12.5q-33 0 -58.5 17t-25.5 52l59 363h-247l-64 -385q-4 -23 -29.5 -35t-38.5 -12q-33 0 -57 17t-24 52l55 363h-185q-57 0 -57 63z M473 631h248l49 305h-248z" />
<glyph unicode="$" horiz-adv-x="1036" d="M72 236q0 31 23.5 62.5t51.5 31.5q20 0 44 -24.5t61 -54.5t92 -55.5t143 -29.5v545q-68 25 -136 52.5t-121.5 70.5t-87 107.5t-33.5 162.5q0 96 32.5 162.5t87 109.5t122 64.5t136.5 27.5v62q0 16 15.5 29.5t38.5 13.5q20 0 36.5 -13.5t16.5 -29.5v-57q55 -2 112.5 -12.5 t104.5 -27t77 -41t30 -55.5q0 -25 -19.5 -59.5t-54.5 -34.5q-16 0 -36 10.5t-49.5 24.5t-69.5 25.5t-95 15.5v-467q66 -25 130 -55.5t115.5 -78.5t83 -120t31.5 -176q0 -188 -100 -288.5t-260 -123.5v-73q0 -16 -16.5 -29.5t-36.5 -13.5q-23 0 -38.5 13t-15.5 30v67 q-96 2 -172.5 25.5t-131 59.5t-83 75t-28.5 72zM272 1120q0 -53 17.5 -90t48.5 -62.5t72 -45t86 -35.5v430q-47 -4 -87 -17.5t-71 -37t-48.5 -58.5t-17.5 -84zM586 170q98 16 151.5 75t53.5 161q0 57 -16.5 100t-44.5 73.5t-64.5 52t-79.5 40.5v-502z" />
<glyph unicode="%" horiz-adv-x="1566" d="M74 948v307q0 131 75.5 186.5t188.5 55.5q55 0 103 -13.5t84 -42t56.5 -74.5t20.5 -112v-307q0 -66 -20.5 -111.5t-56.5 -74.5t-84 -42t-103 -13t-104.5 13t-84 42t-55 75t-20.5 111zM197 948q0 -68 37.5 -100.5t103.5 -32.5t103.5 33t37.5 100v307q0 68 -38 101t-103 33 q-66 0 -103.5 -33t-37.5 -101v-307zM342 0q0 14 6 27l768 1519q8 16 21.5 23.5t29.5 7.5q25 0 47.5 -19.5t22.5 -48.5q0 -14 -6 -28l-766 -1510q-8 -16 -23.5 -24t-33.5 -8q-29 0 -47.5 18t-18.5 43zM965 236v307q0 131 75.5 186t188.5 55q55 0 103 -13t84 -42t56.5 -75 t20.5 -111v-307q0 -66 -20.5 -112t-56.5 -75t-84 -42t-103 -13t-104.5 13t-84 42t-55 75t-20.5 112zM1087 236q0 -68 38 -101t104 -33t103.5 33t37.5 101v307q0 68 -38 100.5t-103 32.5q-66 0 -104 -33t-38 -100v-307z" />
<glyph unicode="&#x26;" horiz-adv-x="1265" d="M61 420q0 76 22.5 139.5t61.5 115.5t87.5 91t101.5 63q-31 37 -59.5 75t-51 80t-36 90t-13.5 104q0 84 31 150.5t83 111.5t122.5 68.5t150.5 23.5q86 0 151.5 -23.5t110.5 -56.5t67.5 -68.5t22.5 -60.5q0 -33 -23.5 -56.5t-55.5 -23.5q-25 0 -44.5 22.5t-46 50 t-68.5 51.5t-110 24q-100 0 -160.5 -59.5t-60.5 -164.5q0 -51 17.5 -97t46 -89t63.5 -83t70 -77l391 -426q20 47 32.5 94.5t18.5 92.5t9 86t3 73q2 33 17.5 47.5t58.5 14.5t58.5 -21.5t15.5 -64.5q0 -33 -4 -82t-16.5 -107.5t-33 -121t-53.5 -121.5l170 -183q27 -27 27 -47 q0 -29 -25.5 -50t-54.5 -21q-23 0 -45 22l-156 164q-68 -86 -169 -138t-242 -52q-113 0 -202 35.5t-151.5 96t-95.5 140.5t-33 168zM236 434q0 -61 21.5 -115.5t63 -95.5t103 -65.5t141.5 -24.5q104 0 173 40t112 106l-420 446q-33 -20 -66.5 -46t-62.5 -60.5t-47 -79.5 t-18 -105z" />
<glyph unicode="'" horiz-adv-x="292" d="M72 1522q0 23 22 37t51 14q27 0 51.5 -14.5t24.5 -36.5l-20 -297q0 -20 -13.5 -37t-42.5 -17t-41 16.5t-12 37.5z" />
<glyph unicode="(" horiz-adv-x="634" d="M117 317v869q0 82 32.5 152.5t88 122.5t127 82t149.5 30q47 0 65.5 -22.5t18.5 -53.5q0 -35 -16.5 -56.5t-42.5 -21.5q-59 0 -106.5 -20.5t-79 -54t-48 -74.5t-16.5 -84v-869q0 -63 23.5 -103t60.5 -62.5t81 -30.5t85 -8q35 0 47 -25t12 -53q0 -35 -18.5 -55.5 t-69.5 -20.5q-78 0 -149.5 22.5t-126 66.5t-86 111.5t-31.5 157.5z" />
<glyph unicode=")" horiz-adv-x="634" d="M37 35q0 29 11 53.5t48 24.5q41 0 85 8t81 30.5t60.5 62.5t23.5 103v869q0 43 -16.5 84t-48 74.5t-78.5 54t-107 20.5q-27 0 -43 21.5t-16 56.5q0 31 18.5 53.5t65.5 22.5q78 0 149.5 -30t127 -82t88 -122.5t32.5 -152.5v-869q0 -90 -32.5 -157.5t-87 -111.5t-126 -66.5 t-149.5 -22.5q-51 0 -68.5 20.5t-17.5 55.5z" />
<glyph unicode="*" horiz-adv-x="897" d="M57 1200q0 27 19.5 48.5t48.5 21.5q10 0 18 -2l250 -86l-10 256q2 29 21.5 44t44.5 15q27 0 46 -15.5t21 -43.5l-10 -260l250 90q6 2 20 2q27 0 45.5 -23.5t18.5 -50.5q0 -45 -43 -57l-248 -68l162 -219q10 -14 10 -35q0 -31 -23.5 -49t-50.5 -18q-10 0 -23.5 4t-23.5 20 l-151 223l-152 -225q-8 -14 -19.5 -18t-23.5 -4q-23 0 -49.5 17t-26.5 46q0 25 15 41l157 211l-250 74q-23 6 -33 22.5t-10 38.5z" />
<glyph unicode="+" horiz-adv-x="882" d="M53 492q0 31 16.5 52t43.5 21h254v254q0 23 21.5 42.5t53.5 19.5q33 0 52.5 -19.5t19.5 -42.5v-254h254q23 0 42 -21.5t19 -51.5q0 -33 -19 -52.5t-42 -19.5h-254v-256q0 -27 -19.5 -43.5t-52.5 -16.5t-54 16.5t-21 43.5v256h-254q-27 0 -43.5 19.5t-16.5 52.5z" />
<glyph unicode="," horiz-adv-x="360" d="M74 94q0 45 29.5 77t74.5 32q41 0 74 -30t33 -79q0 -6 -2 -16t-10.5 -36t-26 -72t-49.5 -124q-12 -29 -45 -28q-20 0 -40 13t-20 36q0 14 4 22l43 107q-29 12 -47 38.5t-18 59.5z" />
<glyph unicode="-" horiz-adv-x="845" d="M96 492q0 31 15.5 52t44.5 21h532q23 0 42.5 -21.5t19.5 -51.5q0 -33 -19.5 -52.5t-42.5 -19.5h-532q-29 0 -44.5 19.5t-15.5 52.5z" />
<glyph unicode="." horiz-adv-x="360" d="M76 94q0 45 29.5 77t76.5 32q43 0 74 -32t31 -77q0 -41 -31 -73.5t-74 -32.5q-47 0 -76.5 32.5t-29.5 73.5z" />
<glyph unicode="/" horiz-adv-x="972" d="M39 0q0 6 1 13t5 14l768 1519q14 31 49 31q25 0 48.5 -19.5t23.5 -48.5q0 -14 -8 -28l-764 -1510q-8 -16 -24.5 -24t-33.5 -8q-29 0 -47 18t-18 43z" />
<glyph unicode="0" horiz-adv-x="1107" d="M113 434v617q0 123 33.5 207.5t93 138t140.5 77t173 23.5t173 -23.5t141.5 -77t94 -138t33.5 -207.5v-617q0 -123 -33.5 -208t-94 -138t-141.5 -76.5t-173 -23.5t-173 23.5t-140.5 76.5t-93 138t-33.5 208zM285 434q0 -150 70.5 -220.5t197.5 -70.5t198.5 71t71.5 220 v617q0 150 -71.5 220t-198.5 70t-197.5 -70.5t-70.5 -219.5v-617zM473 741q0 35 22.5 57.5t59.5 22.5q35 0 57.5 -22.5t22.5 -57.5t-22.5 -58.5t-57.5 -23.5q-37 0 -59.5 24t-22.5 58z" />
<glyph unicode="1" horiz-adv-x="507" d="M18 1178q0 18 11.5 39.5t25.5 31.5l189 224q10 10 22.5 18t30.5 8q29 0 52.5 -16.5t23.5 -44.5v-1377q0 -31 -27 -46t-59 -15q-33 0 -59.5 15.5t-26.5 45.5v1180l-76 -113q-20 -23 -43 -22q-29 0 -46.5 21.5t-17.5 50.5z" />
<glyph unicode="2" horiz-adv-x="991" d="M66 61v199q0 84 50 154.5t125.5 135t165 125t165 125t126 136.5t50.5 156q0 43 -15.5 87t-46.5 79.5t-78 57t-110 21.5q-98 0 -165 -54t-67 -169q0 -27 -23.5 -47t-66.5 -20q-37 0 -57.5 21.5t-20.5 78.5q0 78 32 142.5t86 110.5t127 71.5t155 25.5q88 0 165.5 -29.5 t134 -83t89.5 -127t33 -159.5q0 -111 -50.5 -198t-125 -158.5t-162.5 -132t-163 -117t-125 -112.5t-50 -120v-104h628q25 0 42.5 -22.5t17.5 -55.5q0 -29 -17.5 -53.5t-42.5 -24.5h-729q-25 0 -51 16.5t-26 44.5z" />
<glyph unicode="3" horiz-adv-x="1017" d="M53 336q0 47 18.5 63.5t61.5 16.5q53 0 70.5 -17.5t17.5 -50.5t14.5 -68.5t46 -66.5t82.5 -50.5t125 -19.5q135 0 205 68t70 215v39q0 135 -75 192.5t-200 57.5q-33 0 -46 21.5t-13 49.5q0 27 13.5 49.5t45.5 22.5q55 0 99.5 10.5t75 38t47 75.5t16.5 122 q0 125 -56.5 182t-172.5 57q-72 0 -119 -18t-73.5 -47t-37 -63.5t-10.5 -67.5q0 -35 -18.5 -55.5t-63.5 -20.5q-55 0 -72.5 18.5t-17.5 69.5q0 45 18.5 104.5t65.5 110.5t127 87t205 36q86 0 157.5 -19.5t124 -62.5t81 -111.5t28.5 -168.5q0 -135 -47 -222.5t-119 -121.5 q90 -37 149.5 -115t59.5 -211v-39q0 -121 -35 -204t-96.5 -135t-142 -75.5t-173.5 -23.5q-115 0 -196.5 32.5t-135 83t-79 111.5t-25.5 121z" />
<glyph unicode="4" horiz-adv-x="942" d="M10 412q0 23 10 39l506 997q27 49 78 49q25 0 54.5 -18.5t29.5 -48.5q0 -14 -8 -29l-449 -893h355v344q0 31 26.5 45t59.5 14t59.5 -14t26.5 -45v-344h108q31 0 46.5 -25.5t15.5 -56.5t-17.5 -56.5t-44.5 -25.5h-108v-283q0 -31 -26.5 -46t-59.5 -15t-59.5 15.5 t-26.5 45.5v283h-512q-29 0 -46.5 18.5t-17.5 49.5z" />
<glyph unicode="5" horiz-adv-x="993" d="M51 342q0 47 23.5 64.5t62.5 17.5q49 0 67.5 -19.5t18.5 -50.5q0 -102 78 -156.5t191 -54.5q127 0 198.5 70t71.5 217v39q0 143 -72 212t-196 69h-291q-47 0 -63.5 19t-16.5 48q0 8 1 21.5t3 23.5l43 574q2 29 13.5 45t31.5 16h590q29 0 42 -24.5t13 -53.5t-13 -53.5 t-42 -24.5h-486l-30 -448h205q92 0 173 -22.5t140 -74t93 -131t34 -196.5v-39q0 -121 -34 -205t-94.5 -137t-140 -76.5t-171.5 -23.5q-106 0 -188.5 28.5t-138.5 77.5t-86 112.5t-30 135.5z" />
<glyph unicode="6" horiz-adv-x="1077" d="M113 434v617q0 123 34.5 207.5t94 138t141.5 77t178 23.5q109 0 189.5 -30.5t135 -81t82 -115t27.5 -129.5q0 -43 -20.5 -59.5t-59.5 -16.5q-35 0 -62.5 14.5t-27.5 53.5q0 49 -21.5 86.5t-57 65.5t-85 42t-104.5 14q-129 0 -200.5 -70.5t-71.5 -219.5v-287 q53 68 130 97.5t169 29.5q86 0 160.5 -20.5t131 -68.5t88 -127t31.5 -198v-43q0 -123 -33.5 -208t-93 -138t-140.5 -76.5t-173 -23.5t-173 23.5t-141.5 76.5t-94 138t-33.5 208zM285 426q0 -152 71.5 -221.5t198.5 -69.5t197.5 69.5t70.5 221.5v43q0 152 -70.5 215.5 t-197.5 63.5q-123 0 -196.5 -59.5t-73.5 -201.5v-61z" />
<glyph unicode="7" horiz-adv-x="962" d="M49 1126v310q0 23 24.5 42t53.5 19h727q27 0 52.5 -19.5t25.5 -41.5v-191q0 -18 -8.5 -41.5t-20.5 -46.5l-581 -1132q-14 -29 -56 -29q-41 0 -72.5 22.5t-31.5 59.5q0 18 8 35l590 1112v116h-539v-215q0 -27 -25.5 -44t-60.5 -17t-60.5 17.5t-25.5 43.5z" />
<glyph unicode="8" horiz-adv-x="1046" d="M82 410v24q0 160 62.5 251t166.5 132q-86 35 -136 112t-50 208q0 100 29.5 168.5t84 111.5t127 61.5t158.5 18.5t159 -18.5t126 -61.5t83 -111.5t30 -168.5q0 -131 -50.5 -208t-134.5 -112q102 -41 165 -132t63 -251v-24q0 -115 -34 -195t-93.5 -131t-140.5 -73.5 t-173 -22.5q-94 0 -175 22.5t-140 73.5t-93 131t-34 195zM254 426q0 -152 71.5 -221.5t198.5 -69.5t198 72t71 219v33q0 147 -72 214.5t-197 67.5q-127 0 -198.5 -67.5t-71.5 -214.5v-33zM293 1120q0 -123 60.5 -177t170.5 -54q109 0 170.5 54t61.5 177t-61.5 176.5 t-170.5 53.5q-111 0 -171 -53.5t-60 -176.5z" />
<glyph unicode="9" horiz-adv-x="1077" d="M82 344q0 43 20.5 59.5t61.5 16.5q35 0 62.5 -14.5t27.5 -53.5q0 -49 21.5 -87t57.5 -65.5t84 -42t103 -14.5q129 0 201 71t72 220v287q-51 -68 -129 -97.5t-170 -29.5q-86 0 -161 20.5t-130.5 68.5t-88 127t-32.5 198v43q0 123 34 207.5t93 138t140 77t173 23.5 q94 0 175 -23.5t140.5 -77t93.5 -138t34 -207.5v-617q0 -123 -35 -208t-94.5 -138t-142.5 -76.5t-177 -23.5q-109 0 -189.5 30.5t-135 81t-82 115t-27.5 129.5zM254 1016q0 -152 70.5 -215.5t199.5 -63.5q123 0 196 59.5t73 200.5v62q0 152 -71 221.5t-200 69.5 q-127 0 -197.5 -70t-70.5 -221v-43z" />
<glyph unicode=":" horiz-adv-x="428" d="M109 94q0 45 29.5 77t76.5 32q43 0 73.5 -32t30.5 -77q0 -41 -30.5 -73.5t-73.5 -32.5q-47 0 -76.5 32.5t-29.5 73.5zM109 756q0 45 29.5 76.5t76.5 31.5q43 0 73.5 -31.5t30.5 -76.5q0 -41 -30.5 -74t-73.5 -33q-47 0 -76.5 33t-29.5 74z" />
<glyph unicode=";" horiz-adv-x="440" d="M113 94q0 45 29.5 77t74.5 32q41 0 74 -30t33 -79q0 -6 -2.5 -16t-10.5 -36t-25.5 -72t-49.5 -124q-12 -29 -46 -28q-20 0 -39.5 13t-19.5 36q0 14 4 22l43 107q-29 12 -47 38.5t-18 59.5zM119 756q0 45 29.5 76.5t76.5 31.5q43 0 74 -31.5t31 -76.5q0 -41 -31 -74 t-74 -33q-47 0 -76.5 33t-29.5 74z" />
<glyph unicode="&#x3c;" horiz-adv-x="825" d="M45 567q0 18 10.5 38t26.5 32l547 358q10 8 26 9q27 0 53.5 -24t26.5 -58q0 -35 -26 -50l-461 -305l461 -303q10 -8 18 -21.5t8 -29.5q0 -35 -26.5 -57.5t-53.5 -22.5q-16 0 -26 8l-547 359q-18 12 -27.5 30.5t-9.5 36.5z" />
<glyph unicode="=" horiz-adv-x="897" d="M129 328q0 31 15.5 52t43.5 21h521q23 0 42 -21.5t19 -51.5q0 -35 -19.5 -54.5t-41.5 -19.5h-521q-29 0 -44 19.5t-15 54.5zM129 743q0 31 15.5 52.5t43.5 21.5h521q23 0 42 -21.5t19 -52.5q0 -35 -19.5 -54t-41.5 -19h-521q-29 0 -44 19t-15 54z" />
<glyph unicode="&#x3e;" horiz-adv-x="825" d="M90 213q0 16 8 29.5t19 21.5l461 303l-461 305q-27 14 -27 50q0 35 26.5 58.5t53.5 23.5q16 0 27 -9l546 -358q16 -12 26.5 -32t10.5 -38t-9 -36.5t-28 -30.5l-546 -359q-10 -8 -27 -8q-27 0 -53.5 22.5t-26.5 57.5z" />
<glyph unicode="?" horiz-adv-x="835" d="M45 1337q0 27 23.5 58.5t67.5 59.5t105.5 45.5t135.5 17.5q96 0 171 -28t125 -76t75.5 -113.5t25.5 -141.5q0 -92 -31.5 -161.5t-74.5 -123t-88 -92.5t-72 -69q-29 -29 -44 -58.5t-23.5 -65.5t-9.5 -79t-1 -96q0 -23 -16.5 -39.5t-53.5 -16.5q-33 0 -49 16.5t-16 59.5 q0 82 8 138.5t21.5 96.5t31 65.5t37.5 45.5q31 31 72 65t77 77t60.5 97t24.5 126q0 113 -67.5 175t-190.5 62q-70 0 -110 -17t-65.5 -38.5t-42 -39t-40.5 -17.5q-23 0 -44.5 16.5t-21.5 50.5zM254 94q0 45 31.5 77t74.5 32q45 0 76 -32t31 -77q0 -41 -29.5 -73.5 t-77.5 -32.5q-45 0 -75.5 32.5t-30.5 73.5z" />
<glyph unicode="@" horiz-adv-x="1478" d="M100 438q0 147 38 277.5t119 226.5t206 151.5t297 55.5q311 0 478 -173t167 -493q0 -84 -14.5 -161.5t-46 -137t-82 -95.5t-121.5 -36q-80 0 -135.5 41t-67.5 96q-53 -57 -108.5 -88.5t-143.5 -31.5q-51 0 -98 12t-82 38.5t-56.5 71t-21.5 105.5q0 70 28.5 116t82 73.5 t128 38t167.5 10.5h81v36q0 84 -46 124t-146 40q-49 0 -81 -8t-53.5 -17.5t-34.5 -17.5t-26 -8q-23 0 -37 26t-14 44q0 23 24.5 43t62.5 34.5t86 22.5t95 8q135 0 219.5 -67.5t84.5 -196.5v-342q6 -49 35.5 -74.5t66.5 -25.5q43 0 68.5 30.5t40 76.5t19.5 99.5t5 100.5 q0 270 -129 420.5t-397 150.5q-154 0 -257.5 -49t-165 -131t-88 -189.5t-26.5 -224.5q0 -109 23.5 -209t79 -178t145.5 -124t225 -46q66 0 113 9.5t80 21.5t54.5 21.5t37.5 9.5q23 0 36 -19.5t13 -34.5q0 -25 -33.5 -46t-86 -37.5t-115 -25.5t-117.5 -9q-113 0 -216.5 40 t-183 120.5t-128 206.5t-48.5 298zM571 297q0 -66 39 -94.5t99 -28.5q47 0 86 15.5t66.5 40t43 54t15.5 58.5v100h-74q-61 0 -111.5 -6t-86.5 -21.5t-56.5 -44t-20.5 -73.5z" />
<glyph unicode="A" horiz-adv-x="1126" d="M35 72q0 4 4 16l418 1362q10 31 40.5 45t65.5 14t65.5 -15t41.5 -44l417 -1362q0 -4 1.5 -7t1.5 -7q0 -31 -35 -52.5t-72 -21.5q-23 0 -39 9t-22 30l-91 305h-538l-90 -305q-13 -39 -64 -39q-35 0 -69.5 19.5t-34.5 52.5zM332 485h459l-228 770z" />
<glyph unicode="B" horiz-adv-x="1116" d="M145 59v1377q0 31 25 46t53 15h352q84 0 160 -14.5t132.5 -53t90 -107.5t33.5 -175q0 -129 -47 -215t-127 -121q47 -18 86 -46t66.5 -69t43 -98t15.5 -135v-37q0 -117 -31.5 -199t-86 -132t-128 -72.5t-159.5 -22.5h-400q-35 0 -56.5 18.5t-21.5 40.5zM317 156h277 q123 0 192.5 66.5t69.5 213.5v35q0 147 -69.5 207.5t-192.5 60.5h-277v-583zM317 883h256q125 0 185.5 55t60.5 184q0 61 -18.5 103.5t-51 68t-79.5 36.5t-103 11h-250v-458z" />
<glyph unicode="C" horiz-adv-x="1087" d="M131 434v617q0 123 35 207.5t95.5 138t140 77t169.5 23.5q102 0 184.5 -27.5t139.5 -75.5t88 -112.5t31 -140.5q0 -59 -21.5 -76.5t-64.5 -17.5q-82 0 -86 59q-2 31 -11.5 72t-37 76.5t-79.5 61t-139 25.5q-133 0 -202.5 -70.5t-69.5 -219.5v-617q0 -150 70.5 -220.5 t208.5 -70.5q86 0 135 25t75.5 61.5t36 78.5t13.5 79q6 59 86 59q43 0 64.5 -18t21.5 -78q0 -76 -31 -142.5t-88 -115.5t-140 -76.5t-186 -27.5q-90 0 -170 23.5t-139 76.5t-94 138t-35 208z" />
<glyph unicode="D" horiz-adv-x="1159" d="M145 59v1379q0 23 21.5 41t56.5 18h363q92 0 173 -23.5t141.5 -77t94 -138t33.5 -207.5v-605q0 -123 -33.5 -207.5t-94 -138t-141.5 -77t-173 -23.5h-363q-35 0 -56.5 18.5t-21.5 40.5zM317 156h269q127 0 198.5 70.5t71.5 219.5v605q0 150 -71.5 220t-198.5 70h-269 v-1185z" />
<glyph unicode="E" horiz-adv-x="1052" d="M145 61v1375q0 31 25 46t53 15h729q31 0 45.5 -23.5t14.5 -52.5q0 -33 -15.5 -56.5t-44.5 -23.5h-635v-520h320q29 0 44 -22.5t15 -50.5q0 -25 -14 -47.5t-45 -22.5h-320v-522h635q29 0 44.5 -23.5t15.5 -56.5q0 -29 -14.5 -52.5t-45.5 -23.5h-729q-29 0 -53.5 15.5 t-24.5 45.5z" />
<glyph unicode="F" horiz-adv-x="1017" d="M145 59v1377q0 31 25 46t53 15h721q31 0 45.5 -23.5t14.5 -52.5q0 -33 -15.5 -56.5t-44.5 -23.5h-627v-520h320q29 0 44 -22.5t15 -50.5q0 -25 -14 -47.5t-45 -22.5h-320v-619q0 -31 -26.5 -45t-59.5 -14t-59.5 14.5t-26.5 44.5z" />
<glyph unicode="G" horiz-adv-x="1122" d="M131 434v617q0 123 34 207.5t93 138t139 77t170 23.5q100 0 183.5 -26.5t141.5 -74.5t90 -116t32 -150q0 -49 -22.5 -66t-63.5 -17q-35 0 -59.5 13t-26.5 46q-12 106 -74.5 170.5t-196.5 64.5q-127 0 -197.5 -70.5t-70.5 -219.5v-617q0 -150 70.5 -220.5t197.5 -70.5 t199 71t72 220v209h-244q-29 0 -44 21.5t-15 50.5q0 27 15 49t44 22h356q29 0 44.5 -19t15.5 -44v-289q0 -123 -34 -208t-94.5 -138t-141 -76.5t-173.5 -23.5q-92 0 -173 23.5t-140 76.5t-93 138t-34 208z" />
<glyph unicode="H" horiz-adv-x="1189" d="M145 61v1377q0 31 27 45t59 14q33 0 59.5 -14.5t26.5 -44.5v-590h555v590q0 31 27 45t59 14q33 0 59.5 -14.5t26.5 -44.5v-1377q0 -31 -26.5 -46t-59.5 -15t-59.5 15.5t-26.5 45.5v644h-555v-644q0 -31 -26.5 -46t-59.5 -15t-59.5 15.5t-26.5 45.5z" />
<glyph unicode="I" horiz-adv-x="462" d="M145 61v1377q0 31 27 45t59 14q33 0 59.5 -14.5t26.5 -44.5v-1377q0 -31 -26.5 -46t-59.5 -15t-59.5 15.5t-26.5 45.5z" />
<glyph unicode="J" horiz-adv-x="1062" d="M41 362q0 49 22.5 66.5t63.5 17.5q33 0 59.5 -12t26.5 -47q0 -106 68.5 -175t199.5 -69q129 0 200 71t71 220v907h-267q-29 0 -44 24t-15 56q0 29 13.5 52.5t45.5 23.5h361q29 0 53.5 -15.5t24.5 -45.5v-1002q0 -123 -34 -208t-93.5 -138t-139 -76.5t-170.5 -23.5 q-100 0 -183 27.5t-141.5 76.5t-90 118t-31.5 152z" />
<glyph unicode="K" horiz-adv-x="1083" d="M145 61v1377q0 31 27 45t59 14q33 0 59.5 -14.5t26.5 -44.5v-678l549 713q17 24 49 24h3q33 0 65.5 -27.5t32.5 -60.5q0 -20 -15 -37l-417 -522l487 -737q10 -16 10 -31q0 -35 -31.5 -60.5t-68.5 -25.5q-41 0 -63 35l-449 674l-152 -191v-453q0 -31 -26.5 -46t-59.5 -15 t-59.5 15.5t-26.5 45.5z" />
<glyph unicode="L" horiz-adv-x="958" d="M145 61v1377q0 31 27 45t59 14q33 0 59.5 -14.5t26.5 -44.5v-1282h560q29 0 42 -25t13 -53q0 -29 -13.5 -53.5t-41.5 -24.5h-654q-29 0 -53.5 15.5t-24.5 45.5z" />
<glyph unicode="M" horiz-adv-x="1382" d="M145 61v1352q0 47 26 65.5t60 18.5q47 0 78 -27.5t60 -80.5l321 -617l324 617q29 53 59.5 80.5t77.5 27.5q35 0 60.5 -18.5t25.5 -65.5v-1352q0 -31 -26.5 -46t-59.5 -15t-59.5 15.5t-26.5 45.5v1076l-309 -582q-14 -27 -31.5 -37t-36.5 -10q-16 0 -32.5 10t-30.5 37 l-308 590v-1084q0 -31 -26.5 -46t-59.5 -15t-59.5 15.5t-26.5 45.5z" />
<glyph unicode="N" horiz-adv-x="1189" d="M145 61v1377q0 33 26 46t60 13q47 0 75 -27.5t56 -80.5l510 -998v1047q0 31 27 45t59 14q33 0 59.5 -14.5t26.5 -44.5v-1377q0 -31 -26.5 -46t-59.5 -15q-35 0 -62.5 21.5t-45.5 56.5l-533 1030v-1047q0 -31 -26.5 -46t-59.5 -15t-59.5 15.5t-26.5 45.5z" />
<glyph unicode="O" d="M131 434v617q0 123 34 207.5t93 138t140 77t173 23.5t173 -23.5t141.5 -77t94.5 -138t34 -207.5v-617q0 -123 -34 -208t-94.5 -138t-141.5 -76.5t-173 -23.5t-173 23.5t-140 76.5t-93 138t-34 208zM303 434q0 -150 70.5 -220.5t197.5 -70.5t199 71t72 220v617 q0 150 -72 220t-199 70t-197.5 -70.5t-70.5 -219.5v-617z" />
<glyph unicode="P" horiz-adv-x="1095" d="M145 61v1377q0 23 18.5 41t51.5 18h387q90 0 170 -23.5t138.5 -75.5t92 -137t33.5 -206v-19q0 -121 -33.5 -204.5t-94 -137t-141.5 -78t-173 -24.5h-277v-531q0 -31 -26.5 -46t-59.5 -15t-59.5 15.5t-26.5 45.5zM317 735h277q127 0 198.5 72t71.5 219v25q0 150 -71.5 220 t-198.5 70h-277v-606z" />
<glyph unicode="Q" d="M131 434v617q0 123 34 207.5t93 138t140 77t173 23.5t173 -23.5t141.5 -77t94.5 -138t34 -207.5v-617q0 -113 -29 -193.5t-80 -134t-119.5 -81t-150.5 -33.5v-154q0 -31 -19.5 -46t-42.5 -15t-42 15t-19 46v154q-82 6 -151.5 33.5t-121 81t-80 134.5t-28.5 193zM303 434 q0 -129 54.5 -197.5t154.5 -84.5v139q0 31 19.5 45t41.5 14q23 0 42.5 -14t19.5 -45v-137q98 14 152.5 82.5t54.5 197.5v617q0 150 -72 220t-199 70t-197.5 -70.5t-70.5 -219.5v-617z" />
<glyph unicode="R" horiz-adv-x="1112" d="M145 61v1377q0 23 16.5 40t45.5 19h375q92 0 175 -20.5t145.5 -67.5t98 -126t35.5 -196q0 -94 -23.5 -162.5t-64.5 -116.5t-97 -78t-120 -42l303 -575q8 -14 8 -29q0 -35 -32.5 -61.5t-69.5 -26.5q-27 0 -45 20.5t-33 46.5l-309 601h-236v-603q0 -31 -26.5 -46t-59.5 -15 t-59.5 15.5t-26.5 45.5zM317 807h265q127 0 204.5 61.5t77.5 206.5q0 143 -77.5 204.5t-204.5 61.5h-265v-534z" />
<glyph unicode="S" horiz-adv-x="1028" d="M68 215q0 31 23.5 62.5t51.5 31.5q23 0 46.5 -25.5t61.5 -57t95.5 -57.5t147.5 -26q129 0 206.5 62.5t77.5 191.5q0 102 -50 161.5t-125 98.5t-162 70t-161.5 77t-125 118.5t-50.5 197.5q0 113 42 186.5t107.5 116.5t145.5 60.5t156 17.5q55 0 117.5 -8t116 -24.5t89 -42 t35.5 -60.5q0 -25 -19.5 -59.5t-53.5 -34.5q-18 0 -40 12t-53.5 26.5t-77.5 27t-114 12.5q-57 0 -107.5 -11.5t-88 -36t-60.5 -65.5t-23 -100q0 -86 50.5 -135.5t125 -83t161.5 -64.5t162 -82t125 -135t50 -223q0 -111 -33.5 -192t-93 -134t-141.5 -78.5t-180 -25.5 t-179 23.5t-137.5 59t-87 75.5t-30.5 73z" />
<glyph unicode="T" horiz-adv-x="1011" d="M27 1419q0 29 15 53.5t46 24.5h834q31 0 46 -24.5t15 -53.5q0 -31 -15.5 -56.5t-45.5 -25.5h-330v-1276q0 -31 -26.5 -46t-59.5 -15t-59.5 15.5t-26.5 45.5v1276h-332q-29 0 -45 24.5t-16 57.5z" />
<glyph unicode="U" horiz-adv-x="1173" d="M139 434v1004q0 31 27 45t59 14q33 0 59.5 -14.5t26.5 -44.5v-1004q0 -150 73 -220.5t202 -70.5t202.5 71t73.5 220v1004q0 31 25.5 45t60.5 14q31 0 58.5 -14.5t27.5 -44.5v-1004q0 -123 -34.5 -208t-95 -138t-142.5 -76.5t-176 -23.5t-176 23.5t-141.5 76.5t-94.5 138 t-35 208z" />
<glyph unicode="V" horiz-adv-x="1124" d="M35 1425q0 33 34.5 52.5t69.5 19.5q51 0 64 -39l360 -1216l359 1216q14 39 61 39q37 0 72 -21.5t35 -52.5q0 -4 -1.5 -7t-1.5 -7l-415 -1362q-10 -29 -41 -44t-68 -15q-35 0 -64.5 14t-39.5 45l-420 1362q-4 12 -4 16z" />
<glyph unicode="W" horiz-adv-x="1665" d="M35 1427q0 31 34.5 50.5t69.5 19.5q23 0 40.5 -9t23.5 -30l346 -1216l194 749q8 29 34 41t57 12q29 0 53 -12t33 -41l196 -749l344 1216q6 20 24.5 29.5t41.5 9.5q35 0 68.5 -19.5t33.5 -50.5q0 -12 -2 -18l-403 -1362q-10 -29 -41 -44t-66 -15t-66.5 14t-39.5 45 l-176 676l-179 -676q-8 -29 -38.5 -44t-65.5 -15q-37 0 -66.5 14t-40.5 45l-405 1362q-2 4 -3 8t-1 10z" />
<glyph unicode="X" horiz-adv-x="1034" d="M41 80q0 18 12 37l353 633l-345 628q-14 23 -14 45q0 35 33 56.5t72 21.5q27 0 45 -20.5t30 -44.5l289 -545l291 545q12 25 30.5 45t45.5 20q39 0 71.5 -21.5t32.5 -56.5q0 -23 -14 -45l-346 -628l354 -633q12 -18 12 -37q0 -35 -36.5 -59.5t-71.5 -24.5 q-23 0 -39.5 18.5t-26.5 38.5l-303 559l-301 -559q-10 -20 -26.5 -38.5t-38.5 -18.5q-35 0 -72 24.5t-37 59.5z" />
<glyph unicode="Y" horiz-adv-x="1116" d="M35 1425q0 33 34.5 52.5t67.5 19.5q23 0 36 -11t26 -34l360 -702l359 702q25 45 61 45q35 0 68.5 -19.5t33.5 -52.5q0 -16 -8 -34l-424 -791q-4 -6 -4 -20v-519q0 -31 -26.5 -46t-59.5 -15t-59.5 15.5t-26.5 45.5v519q0 10 -6 20l-424 791q-8 18 -8 34z" />
<glyph unicode="Z" horiz-adv-x="1013" d="M43 55q0 27 16 60l662 1226h-590q-29 0 -44 24t-15 54q0 29 14 53.5t45 24.5h754q59 0 59 -51q0 -29 -20 -66l-660 -1224h647q29 0 45.5 -25t16.5 -53q0 -29 -16.5 -53.5t-45.5 -24.5h-809q-29 0 -44 15.5t-15 39.5z" />
<glyph unicode="[" horiz-adv-x="643" d="M133 16v1497q0 29 24.5 44.5t53.5 15.5h336q29 0 44 -23.5t15 -52.5q0 -33 -15.5 -55.5t-43.5 -22.5h-242v-1308h242q29 0 44 -22.5t15 -55.5q0 -29 -15.5 -52.5t-43.5 -23.5h-336q-29 0 -53.5 15.5t-24.5 43.5z" />
<glyph unicode="\" horiz-adv-x="718" d="M43 1481q0 27 20.5 45t49.5 18q16 0 31.5 -8t21.5 -27l506 -1429q4 -6 4 -19q0 -25 -19.5 -43t-48.5 -18q-18 0 -34.5 10t-22.5 31l-504 1417q-4 8 -4 23z" />
<glyph unicode="]" horiz-adv-x="643" d="M37 33q0 33 15.5 55.5t43.5 22.5h242v1308h-242q-29 0 -44 22.5t-15 55.5q0 29 15.5 52.5t43.5 23.5h336q29 0 53.5 -15.5t24.5 -44.5v-1497q0 -29 -24.5 -44t-53.5 -15h-336q-29 0 -44 23.5t-15 52.5z" />
<glyph unicode="^" horiz-adv-x="559" d="M0 1264q0 16 7 30.5t24 22.5l213 115q20 10 35 10q18 0 34 -10l213 -113q33 -18 33 -57q0 -23 -13.5 -40.5t-33.5 -17.5q-4 0 -9 2t-11 4l-213 115l-213 -115q-10 -6 -19 -6q-18 0 -32.5 18.5t-14.5 41.5z" />
<glyph unicode="_" horiz-adv-x="675" d="M-49 -74q0 31 15.5 52.5t43.5 21.5h656q23 0 42 -21.5t19 -52.5q0 -33 -19.5 -52t-41.5 -19h-656q-29 0 -44 19t-15 52z" />
<glyph unicode="`" horiz-adv-x="344" d="M0 1372q0 25 16.5 47.5t40.5 22.5q8 0 21 -4l239 -127q27 -14 27 -45q0 -25 -17.5 -47.5t-43.5 -22.5q-6 0 -23 8l-231 119q-16 8 -22.5 21.5t-6.5 27.5z" />
<glyph unicode="a" horiz-adv-x="917" d="M57 256q0 86 35 140.5t98.5 87t151.5 45t195 12.5h98v43q0 45 -12.5 90t-39 82t-69.5 59.5t-104 22.5q-53 0 -90 -9.5t-62 -20.5t-41 -20.5t-31 -9.5q-31 0 -47 29t-16 57q0 25 26.5 46.5t68.5 38t93.5 25.5t102.5 9q106 0 181 -34t122 -89t67.5 -126.5t20.5 -147.5v-525 q0 -27 -23.5 -44t-60.5 -17q-35 0 -56.5 17.5t-21.5 43.5v82q-53 -61 -129 -110t-180 -49q-57 0 -107.5 16t-88.5 50t-59.5 85t-21.5 121zM229 274q0 -80 45 -116.5t113 -36.5q43 0 88 19.5t80 50t57.5 67.5t22.5 72v106h-72q-66 0 -126 -5t-106 -21.5t-74 -48t-28 -87.5z " />
<glyph unicode="b" horiz-adv-x="1011" d="M123 61v1436q0 27 23.5 43t60.5 16q35 0 60.5 -16t25.5 -43v-670q35 59 102.5 107.5t165.5 48.5q76 0 142.5 -30.5t116.5 -85t79 -126t29 -151.5v-209q0 -78 -30 -149.5t-79 -127t-114.5 -88t-137.5 -32.5q-98 0 -174 48t-108 111v-82q0 -23 -22.5 -42t-55.5 -19 q-37 0 -60.5 19.5t-23.5 41.5zM293 326q0 -20 17.5 -52t49 -63t74.5 -52.5t92 -21.5q47 0 89 20.5t74 55.5t50.5 78t18.5 90v209q0 45 -18.5 88t-50.5 76.5t-74 54t-91 20.5q-43 0 -85 -16t-73.5 -47t-52 -76t-20.5 -100v-264z" />
<glyph unicode="c" horiz-adv-x="854" d="M86 381v205q0 82 24.5 154.5t75 127t127 85t181.5 30.5q68 0 123 -13.5t95 -34t61.5 -46t21.5 -47.5q0 -27 -20.5 -55.5t-51.5 -28.5q-16 0 -31.5 11t-39 24.5t-58.5 24.5t-88 11q-127 0 -188.5 -64.5t-61.5 -178.5v-205q0 -115 61.5 -179.5t190.5 -64.5q55 0 91 11.5 t59.5 25.5t40 25.5t32.5 11.5q35 0 55.5 -27.5t20.5 -54.5q0 -25 -22.5 -50.5t-63.5 -47t-98 -34.5t-127 -13q-106 0 -183 30.5t-127.5 84t-75 126t-24.5 156.5z" />
<glyph unicode="d" horiz-adv-x="1011" d="M84 381v209q0 80 28.5 151.5t79 126t117 85t142.5 30.5q98 0 165.5 -48t102.5 -108v670q0 27 25.5 43t60.5 16q37 0 60.5 -16t23.5 -43v-1436q0 -23 -23.5 -42t-60.5 -19q-33 0 -55.5 19.5t-22.5 41.5v82q-33 -63 -108.5 -111t-174.5 -48q-72 0 -137 32.5t-114.5 88 t-79 127t-29.5 149.5zM254 381q0 -47 18.5 -90t50 -78t73.5 -55.5t89 -20.5q49 0 92.5 21.5t75 52.5t49 62.5t17.5 52.5v264q0 55 -20.5 100t-52.5 76t-74 47t-85 16q-49 0 -91 -20.5t-73.5 -54t-50 -76.5t-18.5 -88v-209z" />
<glyph unicode="e" horiz-adv-x="952" d="M84 381v215q0 78 31.5 148.5t87 124t130.5 84t159 30.5q78 0 149.5 -27.5t125.5 -78t86 -120t32 -151.5q0 -61 -15.5 -95t-41 -51.5t-58.5 -20.5t-68 -3h-448v-61q0 -115 81 -181.5t210 -66.5q57 0 96 12.5t66.5 27.5t47 27.5t38.5 12.5q31 0 50 -27.5t19 -50.5 q0 -20 -22.5 -45t-64.5 -47.5t-102.5 -37.5t-133.5 -15q-100 0 -183.5 28.5t-143.5 80.5t-94 125t-34 163zM254 551h379q53 0 71.5 12t18.5 53q0 45 -17.5 87t-48 74t-73.5 51.5t-95 19.5q-49 0 -91 -17.5t-74.5 -47t-51 -70.5t-18.5 -88v-74z" />
<glyph unicode="f" horiz-adv-x="645" d="M123 59v1115q0 80 28.5 149.5t79 121.5t116 81.5t138.5 29.5h72q35 0 52.5 -23.5t17.5 -51.5q0 -29 -17.5 -51.5t-52.5 -22.5h-43q-47 0 -88 -17.5t-69.5 -47t-46 -69.5t-17.5 -85v-217h280q25 0 39.5 -20.5t14.5 -47.5t-14.5 -46t-39.5 -19h-280v-779q0 -27 -26.5 -43 t-61.5 -16t-58.5 16.5t-23.5 42.5z" />
<glyph unicode="g" horiz-adv-x="935" d="M45 -193q0 86 50 140.5t116 83.5q-47 16 -76 47t-29 90q0 57 28 91t75 60q-55 45 -86 112t-31 147v67q0 74 26.5 136.5t74 107.5t115 69.5t149.5 24.5q72 0 132 -21.5t107 -58.5q31 68 68 100.5t72 32.5t54 -20.5t19 -42.5q0 -16 -10 -28.5t-25 -18.5q-23 -6 -53 -24.5 t-57 -61.5q33 -39 48 -89.5t15 -105.5v-67q0 -74 -27.5 -135.5t-76.5 -107.5t-116.5 -71.5t-149.5 -25.5q-84 0 -152 30q-20 -12 -35.5 -27.5t-15.5 -41.5q0 -43 47 -60.5t116.5 -27t151.5 -19.5t152 -36.5t117 -79t47 -146.5q0 -76 -32 -132t-88 -93t-132 -55.5t-164 -18.5 q-90 0 -168 19.5t-134 54.5t-89 86t-33 116zM207 -174q0 -80 70.5 -128t189.5 -48q117 0 184.5 48t67.5 128q0 57 -37 89t-90 47t-113.5 20.5t-109.5 11.5q-66 -23 -114 -63t-48 -105zM258 580q0 -96 52 -161t151 -65q92 0 146.5 62.5t54.5 161.5v67q0 92 -53.5 156.5 t-149.5 64.5q-98 0 -149.5 -64.5t-51.5 -156.5v-65z" />
<glyph unicode="h" horiz-adv-x="1032" d="M123 61v1436q0 27 23.5 43t60.5 16q35 0 60.5 -16t25.5 -43v-670q31 59 98.5 107.5t167.5 48.5q74 0 139.5 -30.5t114.5 -85t78 -126t29 -151.5v-529q0 -31 -27 -46t-59 -15q-29 0 -56.5 15.5t-27.5 45.5v529q0 45 -18.5 88t-50.5 76.5t-75 54t-90 20.5q-41 0 -81 -16 t-71.5 -47t-51 -76t-19.5 -100v-529q0 -23 -25.5 -42t-60.5 -19q-37 0 -60.5 19.5t-23.5 41.5z" />
<glyph unicode="i" horiz-adv-x="411" d="M98 1335q0 39 31 68t76 29q43 0 73.5 -29t30.5 -68t-30.5 -68.5t-73.5 -29.5q-45 0 -76 29.5t-31 68.5zM121 61v850q0 27 24.5 43.5t59.5 16.5t60.5 -16.5t25.5 -43.5v-850q0 -23 -25.5 -42t-60.5 -19t-59.5 19.5t-24.5 41.5z" />
<glyph unicode="j" horiz-adv-x="415" d="M-76 -395q0 35 20.5 55.5t49.5 20.5q43 0 68.5 17t39 49t17.5 76t4 95v993q0 27 23.5 43.5t60.5 16.5q35 0 60.5 -16.5t25.5 -43.5v-993q0 -86 -16.5 -156.5t-50 -122t-87 -80t-127.5 -28.5q-49 0 -68.5 22.5t-19.5 51.5zM100 1335q0 39 31 68t76 29q43 0 73.5 -29 t30.5 -68t-30.5 -68.5t-73.5 -29.5q-45 0 -76 29.5t-31 68.5z" />
<glyph unicode="k" horiz-adv-x="956" d="M123 61v1436q0 27 23.5 43t60.5 16q35 0 60.5 -16t25.5 -43v-958l467 422q18 14 37 14q29 0 57.5 -24.5t28.5 -55.5q0 -25 -19 -41l-284 -252l340 -493q10 -16 10 -31q0 -31 -31 -58.5t-63 -27.5q-29 0 -48 26l-325 478l-170 -152v-283q0 -23 -25.5 -42t-60.5 -19 q-37 0 -60.5 19.5t-23.5 41.5z" />
<glyph unicode="l" horiz-adv-x="448" d="M139 61v1436q0 27 23.5 43t60.5 16q35 0 60.5 -16t25.5 -43v-1436q0 -23 -25.5 -42t-60.5 -19q-37 0 -60.5 19.5t-23.5 41.5z" />
<glyph unicode="m" horiz-adv-x="1609" d="M121 61v850q0 27 23.5 43.5t60.5 16.5q33 0 55.5 -16.5t22.5 -43.5v-84q35 59 102.5 107.5t169.5 48.5q98 0 172 -56.5t109 -148.5q53 104 137 154.5t174 50.5q68 0 131 -26.5t111.5 -77t78 -123t29.5 -166.5v-529q0 -23 -25.5 -42t-60.5 -19t-59.5 19.5t-24.5 41.5v529 q0 59 -18.5 104t-49 75t-69.5 45t-78 15q-41 0 -80 -16t-69.5 -47t-50 -74t-19.5 -96v-537q0 -31 -26.5 -45t-59.5 -14q-29 0 -56.5 14.5t-27.5 44.5v535q0 51 -17.5 95t-46 75t-67.5 48t-82 17q-41 0 -80 -15t-69.5 -46t-50 -76t-19.5 -102v-529q0 -23 -25.5 -42t-60.5 -19 q-37 0 -60.5 19.5t-23.5 41.5z" />
<glyph unicode="n" horiz-adv-x="1030" d="M121 61v850q0 27 23.5 43.5t60.5 16.5q31 0 54.5 -16.5t23.5 -43.5v-84q31 59 100.5 107.5t173.5 48.5q74 0 139.5 -30.5t114.5 -85t78 -126t29 -151.5v-529q0 -31 -27 -46t-60 -15q-31 0 -57 15.5t-26 45.5v529q0 45 -18.5 88t-50.5 76.5t-75 54t-90 20.5q-41 0 -81 -16 t-71.5 -47t-51 -76t-19.5 -100v-529q0 -23 -25.5 -42t-60.5 -19q-37 0 -60.5 19.5t-23.5 41.5z" />
<glyph unicode="o" horiz-adv-x="976" d="M84 381v209q0 78 31.5 149.5t87 126t128 86t156.5 31.5q82 0 156 -30.5t129 -85t88 -126t33 -151.5v-209q0 -78 -33 -149.5t-88 -127t-129 -88t-156 -32.5t-154.5 32.5t-127.5 88t-88 127t-33 149.5zM254 381q0 -47 18.5 -91t50 -78t73.5 -54.5t91 -20.5t91.5 20.5 t75 54.5t51 78t18.5 91v209q0 45 -18.5 88t-50 76.5t-74.5 54t-93 20.5q-49 0 -92 -20.5t-73.5 -54t-49 -76.5t-18.5 -88v-209z" />
<glyph unicode="p" horiz-adv-x="1011" d="M123 -408v1319q0 27 23.5 43.5t58.5 16.5t57.5 -16.5t22.5 -43.5v-84q35 59 104.5 107.5t169.5 48.5q76 0 143.5 -30.5t117.5 -85t79 -126t29 -151.5v-209q0 -78 -30 -149.5t-79 -127t-114.5 -88t-137.5 -32.5q-94 0 -167.5 48t-106.5 111v-551q0 -23 -25.5 -42 t-60.5 -19q-37 0 -60.5 19.5t-23.5 41.5zM293 326q0 -20 17.5 -52t48 -63t73.5 -52.5t92 -21.5q47 0 89 20.5t75 55.5t51.5 78t18.5 90v209q0 45 -18.5 88t-51.5 76.5t-76 54t-92 20.5q-43 0 -83 -16t-72.5 -47t-52 -76t-19.5 -100v-264z" />
<glyph unicode="q" horiz-adv-x="1011" d="M84 381v209q0 80 28.5 151.5t79 126t117 85t144.5 30.5q100 0 169.5 -48t104.5 -108v84q0 27 22.5 43.5t57.5 16.5t58.5 -16.5t23.5 -43.5v-1319q0 -23 -23.5 -42t-60.5 -19q-35 0 -60.5 19.5t-25.5 41.5v551q-33 -63 -106.5 -111t-168.5 -48q-72 0 -137 32.5t-114.5 88 t-79 127t-29.5 149.5zM254 381q0 -47 18.5 -90t51 -78t74.5 -55.5t89 -20.5q49 0 92.5 21.5t74 52.5t48 62.5t17.5 52.5v264q0 55 -19.5 100t-52.5 76t-72.5 47t-82.5 16q-49 0 -92.5 -20.5t-76 -54t-51 -76.5t-18.5 -88v-209z" />
<glyph unicode="r" horiz-adv-x="704" d="M121 61v850q0 27 23.5 43.5t60.5 16.5q33 0 55.5 -16.5t22.5 -43.5v-96q35 63 103.5 115.5t164.5 52.5h70q27 0 46 -23.5t19 -54.5t-19.5 -53.5t-45.5 -22.5h-70q-49 0 -96 -20.5t-83 -59t-58.5 -95t-22.5 -126.5v-467q0 -23 -25.5 -42t-60.5 -19q-37 0 -60.5 19.5 t-23.5 41.5z" />
<glyph unicode="s" horiz-adv-x="802" d="M61 139q0 23 16.5 50.5t43.5 27.5q18 0 36.5 -15.5t48.5 -32.5t73.5 -32.5t111.5 -15.5q111 0 153 40t42 89q0 61 -37 95t-92.5 55.5t-121 38t-120.5 46t-92 77.5t-37 134q0 51 17.5 102.5t57.5 92.5t104.5 66.5t156.5 25.5q53 0 105.5 -9t93.5 -24.5t65.5 -36 t24.5 -41.5q0 -10 -5.5 -24t-13.5 -28.5t-21.5 -24t-27.5 -9.5t-33.5 9.5t-45 20.5t-60.5 20.5t-80 9.5q-51 0 -87 -13.5t-57.5 -35t-31.5 -47t-10 -48.5q0 -53 36.5 -79.5t93 -45t121 -36t121 -50t93 -87t36.5 -146.5q0 -127 -88 -200.5t-254 -73.5q-74 0 -135 14 t-106 36.5t-70 50.5t-25 54z" />
<glyph unicode="t" horiz-adv-x="634" d="M117 309v1055q0 27 27.5 43t56.5 16q33 0 59.5 -16t26.5 -43v-393h258q23 0 37 -20.5t14 -47.5t-14.5 -46t-36.5 -19h-258v-529q0 -88 36.5 -123.5t133.5 -35.5h63q35 0 54.5 -23t19.5 -51q0 -29 -19.5 -52.5t-54.5 -23.5h-63q-166 0 -253 73.5t-87 235.5z" />
<glyph unicode="u" horiz-adv-x="1034" d="M113 377v532q0 23 24.5 42.5t61.5 19.5q33 0 58.5 -19.5t25.5 -42.5v-532q0 -45 18 -88t50 -77t75 -54.5t92 -20.5t91 20.5t74 53.5t50.5 76t18.5 90v534q0 23 25.5 41.5t60.5 18.5q37 0 60.5 -18.5t23.5 -41.5v-534q0 -78 -32 -149.5t-87 -126t-129 -86t-156 -31.5 q-84 0 -157.5 32.5t-129 87t-87 125t-31.5 148.5z" />
<glyph unicode="v" horiz-adv-x="894" d="M25 901q0 14 10 28.5t26.5 24t36 15.5t35.5 6q18 0 33.5 -8.5t21.5 -24.5l261 -696l256 688q8 18 20 29.5t35 11.5q14 0 33.5 -6t36 -15.5t28.5 -24t12 -28.5q0 -16 -8 -33l-336 -850q-8 -16 -30.5 -26t-46.5 -10q-29 0 -50.5 9t-29.5 27l-336 850q-2 4 -5 14.5t-3 18.5z " />
<glyph unicode="w" horiz-adv-x="1382" d="M29 901q0 33 34.5 53.5t69.5 20.5q18 0 33.5 -8.5t21.5 -24.5l248 -688l193 620q8 23 24.5 32t38.5 9q51 0 66 -41l188 -626l250 694q4 16 19.5 24.5t33.5 8.5q33 0 70 -19.5t37 -54.5q0 -16 -8 -33l-320 -850q-8 -20 -26.5 -28t-40.5 -8q-55 0 -70 36l-199 603 l-194 -596q-16 -43 -74 -43q-25 0 -42 9t-28 34l-317 843q-4 10 -6 18.5t-2 14.5z" />
<glyph unicode="x" horiz-adv-x="872" d="M49 68q0 18 10 34l265 390l-254 372q-12 16 -13 33q0 14 10.5 29.5t27 28t36 20.5t35.5 8q10 0 22.5 -5t22.5 -20l225 -352l230 352q8 12 21 18.5t24 6.5q14 0 33.5 -8t35 -20.5t26.5 -28t11 -29.5q0 -18 -10 -33l-258 -372l266 -390q10 -14 10 -34q0 -29 -34.5 -56.5 t-69.5 -27.5q-12 0 -25.5 6t-21.5 18l-238 363l-235 -363q-8 -12 -21.5 -18t-25.5 -6q-14 0 -33 7t-34 19.5t-26.5 28t-11.5 29.5z" />
<glyph unicode="y" horiz-adv-x="894" d="M25 901q0 16 11 31.5t27.5 27t36 17.5t35.5 6q18 0 33.5 -8t21.5 -27l271 -712l244 712q14 35 53 35q14 0 33.5 -6t37 -17.5t28.5 -26.5t11 -34q0 -12 -6 -20l-311 -834q-33 -86 -70 -177t-88 -166t-120.5 -123t-166.5 -48q-35 0 -57 14.5t-22 61.5q0 29 10 51.5t39 22.5 q45 0 91 26.5t86 74.5t71.5 115.5t48.5 151.5l-340 830q-8 12 -8 22z" />
<glyph unicode="z" horiz-adv-x="841" d="M47 63q0 18 8 36t19 32l473 694h-424q-23 0 -40 21.5t-17 50.5t15 51.5t42 22.5h586q25 0 43 -17.5t18 -48.5q0 -35 -25 -65l-475 -695h469q23 0 40.5 -21.5t17.5 -51.5q0 -29 -15.5 -50.5t-42.5 -21.5h-628q-33 0 -48.5 20.5t-15.5 42.5z" />
<glyph unicode="{" horiz-adv-x="665" d="M57 788q0 37 19.5 49.5t42 17.5t42 13.5t19.5 34.5q0 14 -6 58.5t-13 96.5t-13.5 100t-6.5 73q0 68 33 129t87 109.5t126 76t150 27.5q51 0 71.5 -23.5t20.5 -52.5t-15.5 -51.5t-44.5 -22.5q-47 0 -93 -15t-82 -44t-58.5 -68t-22.5 -86q0 -23 6.5 -69.5t13.5 -98 t13 -95.5t6 -60q0 -39 -27.5 -67.5t-45.5 -33.5q18 -4 45.5 -30.5t27.5 -67.5q0 -18 -6 -73.5t-13 -120t-13.5 -122t-6.5 -81.5q0 -53 29 -89t69 -56.5t84 -28.5t74 -8q35 0 47.5 -26t12.5 -48q0 -37 -25.5 -56.5t-68.5 -19.5q-78 0 -149 23.5t-125 64.5t-87 99.5t-33 129.5 q0 27 6.5 86.5t13.5 123t13 117.5t6 71q0 27 -19.5 34t-42 13t-42 18t-19.5 49z" />
<glyph unicode="|" horiz-adv-x="436" d="M133 16v1497q0 27 24.5 43.5t61.5 16.5q35 0 60.5 -16.5t25.5 -43.5v-1497q0 -23 -25.5 -41t-60.5 -18q-37 0 -61.5 18.5t-24.5 40.5z" />
<glyph unicode="}" horiz-adv-x="665" d="M37 35q0 23 12 48.5t47 25.5q31 0 75 8t84 28.5t68.5 56.5t28.5 89q0 25 -6 82t-13 121.5t-13.5 120t-6.5 73.5q0 41 27 67.5t47 30.5q-18 4 -46 33t-28 68q0 16 6.5 60t13.5 95.5t13 98.5t6 69q0 47 -22.5 86t-58 68t-82 44t-93.5 15q-29 0 -44 22.5t-15 51.5t20.5 52.5 t71.5 23.5q78 0 149.5 -27.5t126 -76t87 -110t32.5 -128.5q0 -25 -6 -73t-13 -100t-13.5 -96t-6.5 -59q0 -27 19.5 -35t42 -13t42 -17.5t19.5 -49.5t-19.5 -49t-42 -18t-42 -13.5t-19.5 -33.5q0 -16 6.5 -70.5t13.5 -118t13 -123t6 -86.5q0 -72 -32.5 -130t-87 -99 t-125 -64.5t-148.5 -23.5q-43 0 -68.5 19.5t-25.5 56.5z" />
<glyph unicode="~" horiz-adv-x="823" d="M84 500q0 33 19.5 57.5t47 38.5t58.5 21.5t53 7.5q41 0 75 -10.5t64.5 -23.5t63.5 -23.5t74 -10.5q33 0 55 8t38.5 19.5t29 19.5t26.5 8q27 0 38 -21.5t11 -35.5q0 -37 -19.5 -60.5t-47 -37t-56 -19.5t-49.5 -6q-45 0 -78.5 10.5t-64.5 23.5t-62.5 23.5t-72.5 10.5 q-33 0 -56.5 -9.5t-41 -20.5t-31 -20.5t-27.5 -9.5q-27 0 -37 21.5t-10 38.5z" />
<glyph unicode="&#xa1;" horiz-adv-x="421" d="M102 1411q0 43 31 75t76 32t75.5 -32t30.5 -75q0 -45 -30.5 -76.5t-75.5 -31.5t-76 31.5t-31 76.5zM119 76q0 119 4 248t8 260t8 259t4 249q0 29 21.5 42t44.5 13q27 0 47 -13.5t20 -41.5q0 -121 4.5 -249t9.5 -259t9 -260t4 -248q0 -43 -26.5 -65.5t-67.5 -22.5 q-37 0 -63.5 22.5t-26.5 65.5z" />
<glyph unicode="&#xa2;" horiz-adv-x="856" d="M66 733v41q0 76 19 142.5t60 117.5t103.5 86t148.5 45v203q0 23 17.5 38t40.5 15t41 -15t18 -38v-201q55 -4 104.5 -16t85 -30.5t56 -41t20.5 -47.5q0 -29 -20.5 -55.5t-50.5 -26.5q-12 0 -26.5 9.5t-36 21.5t-53.5 23.5t-79 15.5v-531q47 2 78 13.5t52.5 24t35.5 22.5 t29 10q35 0 56 -25.5t21 -54.5q0 -25 -22.5 -48t-60 -42.5t-87 -32t-102.5 -16.5v-203q0 -23 -18.5 -39t-40.5 -16q-23 0 -40.5 16.5t-17.5 38.5v205q-86 10 -148.5 44t-103.5 85t-60 117.5t-19 144.5zM219 733q0 -98 43 -159.5t135 -81.5v524q-92 -20 -135 -83t-43 -159 v-41z" />
<glyph unicode="&#xa3;" horiz-adv-x="1028" d="M47 78q0 29 14.5 53.5t44.5 24.5h117l84 596h-145q-25 0 -38 19.5t-13 45.5q0 27 13 47.5t38 20.5h164l41 286q12 84 55 158t106.5 128t143.5 85t166 31h49q31 0 48 -24.5t17 -53.5t-17 -52.5t-48 -23.5h-60q-59 0 -109 -20.5t-87 -54t-61.5 -78.5t-32.5 -95l-41 -286 h288q25 0 38.5 -21.5t13.5 -46.5t-13.5 -45t-38.5 -20h-307l-86 -596h504q29 0 43 -25t14 -53q0 -29 -14 -53.5t-43 -24.5h-789q-31 0 -45 24.5t-14 53.5z" />
<glyph unicode="&#xa4;" horiz-adv-x="962" d="M119 664q0 14 10 24l64 62q-35 47 -53.5 102t-18.5 115q0 59 18.5 114.5t53.5 100.5l-54 53q-12 12 -12 27q0 18 15.5 32.5t31.5 14.5q12 0 27 -11l51 -51q47 41 106 64.5t125 23.5q63 0 121 -21.5t105 -60.5l53 54q14 10 26 10q18 0 33 -14.5t15 -32.5q0 -12 -11 -27 l-57 -53q80 -96 80 -223q0 -61 -21.5 -118.5t-58.5 -105.5l57 -55q10 -14 11 -24q0 -16 -14.5 -32t-33.5 -16q-16 0 -24 11l-55 53q-47 -41 -104.5 -63.5t-121.5 -22.5q-66 0 -125 24.5t-106 65.5l-62 -57q-10 -10 -24 -11q-18 0 -32.5 14.5t-14.5 33.5zM233 967 q0 -49 19.5 -96.5t53.5 -84t79 -58t98 -21.5q51 0 97.5 21.5t81 58t54 84t19.5 96.5t-19.5 95t-53 82t-79.5 57.5t-100 21.5q-53 0 -98 -21.5t-79 -57.5t-53.5 -82t-19.5 -95z" />
<glyph unicode="&#xa5;" horiz-adv-x="1064" d="M47 1430q0 27 32 50t66 23q35 0 56 -43l327 -631l338 631q10 20 22.5 31.5t33.5 11.5q35 0 65.5 -22.5t30.5 -50.5q0 -16 -4 -23l-363 -641h191q23 0 42 -19.5t19 -48.5t-19.5 -46t-41.5 -17h-230v-146h230q23 0 42 -18t19 -47t-19.5 -47.5t-41.5 -18.5h-230v-299 q0 -29 -24.5 -44t-59.5 -15t-60.5 15.5t-25.5 43.5v299h-219q-27 0 -43 17.5t-16 46.5t16.5 48t42.5 19h219v146h-219q-27 0 -43 17t-16 46t16.5 48.5t42.5 19.5h180l-350 641q-6 8 -6 23z" />
<glyph unicode="&#xa6;" horiz-adv-x="436" d="M133 16v545q0 27 23.5 43.5t60.5 16.5q35 0 60.5 -16.5t25.5 -43.5v-545q0 -23 -25.5 -41t-60.5 -18q-37 0 -60.5 18.5t-23.5 40.5zM133 969v544q0 27 23.5 43.5t60.5 16.5q35 0 60.5 -16.5t25.5 -43.5v-544q0 -23 -25.5 -41.5t-60.5 -18.5q-37 0 -60.5 18.5t-23.5 41.5z " />
<glyph unicode="&#xa7;" horiz-adv-x="960" d="M94 203q0 41 20.5 57t55.5 16q41 0 58.5 -16t17.5 -39q0 -29 8 -65.5t31.5 -68.5t65.5 -54.5t110 -22.5q115 0 173 58.5t58 160.5q0 78 -43 122t-106.5 73t-138 55.5t-138 69.5t-106.5 113.5t-43 189.5v244q0 123 35.5 200.5t89 121.5t118 61.5t123.5 17.5 q86 0 149.5 -26.5t106.5 -71.5t64.5 -105.5t21.5 -128.5q0 -47 -20.5 -61t-48.5 -14q-78 0 -78 69q0 27 -8 60.5t-28.5 62.5t-57.5 49.5t-95 20.5q-41 0 -79.5 -12.5t-68.5 -40t-47.5 -70.5t-17.5 -105q0 -78 44.5 -122t109 -73.5t141 -55t141 -68.5t108.5 -113.5t44 -189.5 v-242q0 -111 -33.5 -187.5t-88 -122.5t-124 -66.5t-143.5 -20.5q-90 0 -160.5 28.5t-120 75.5t-75 108.5t-25.5 127.5zM264 827q0 -68 24.5 -111.5t63.5 -72.5t88 -47t99.5 -36.5t97.5 -41t80 -57.5v55q0 68 -24.5 112t-63.5 72.5t-88 47t-99.5 37t-97.5 40t-80 56.5v-54z " />
<glyph unicode="&#xa8;" horiz-adv-x="432" d="M0 1290q0 35 24.5 59.5t59.5 24.5t58.5 -24.5t23.5 -59.5t-23.5 -60.5t-58.5 -25.5t-59.5 25.5t-24.5 60.5zM268 1290q0 35 23.5 59.5t58.5 24.5t58.5 -24.5t23.5 -59.5t-23.5 -60.5t-58.5 -25.5t-58.5 25.5t-23.5 60.5z" />
<glyph unicode="&#xa9;" horiz-adv-x="1454" d="M98 733q0 172 59.5 298t151.5 209t205 123t219 40q109 0 219.5 -41t200.5 -123t146.5 -207t56.5 -291q0 -172 -59.5 -298t-151.5 -208.5t-205 -122.5t-219 -40q-109 0 -219.5 41t-200.5 122.5t-146.5 206.5t-56.5 291zM199 733q0 -123 36.5 -225t105.5 -177t165 -117 t215 -42q117 0 215 41t169 117t110.5 180t39.5 231q0 123 -36.5 225.5t-105.5 177.5t-165 117t-215 42q-117 0 -215 -41t-168.5 -117t-110.5 -180.5t-40 -231.5zM506 596v311q0 68 17.5 116t48 77.5t71.5 43t86 13.5q104 0 165.5 -56.5t61.5 -146.5q0 -35 -13 -47t-42 -12 q-25 0 -40 9.5t-15 29.5q0 14 -4 35.5t-15.5 40t-34 32t-59.5 13.5q-55 0 -86 -36t-31 -112v-311q0 -78 31 -114t86 -36q37 0 58.5 13.5t33 33t15.5 42t6 40.5q2 23 17.5 31t37.5 8q29 0 42 -13t13 -48q0 -92 -62.5 -149.5t-166.5 -57.5q-45 0 -85 13.5t-70.5 43t-48 77.5 t-17.5 116z" />
<glyph unicode="&#xaa;" horiz-adv-x="653" d="M66 1059q0 55 22.5 91t63.5 57.5t97 29.5t126 8h59v25q0 27 -7 54.5t-23.5 49t-42 34.5t-62.5 13t-60.5 -6t-40 -13t-26.5 -13.5t-20 -6.5q-23 0 -34.5 20.5t-11.5 43.5q0 16 18.5 30.5t46.5 25.5t62.5 18.5t67.5 7.5q70 0 119 -21.5t79.5 -57.5t45 -83t14.5 -96v-332 q0 -18 -16.5 -31.5t-44.5 -13.5q-23 0 -40.5 13.5t-17.5 31.5v47q-35 -41 -85 -70.5t-122 -29.5q-70 0 -118.5 43t-48.5 131zM193 1073q0 -47 26.5 -69.5t65.5 -22.5q27 0 53.5 12.5t48 30.5t34.5 42t13 48v57h-53q-37 0 -71 -3t-60.5 -14t-41.5 -30.5t-15 -50.5z" />
<glyph unicode="&#xab;" horiz-adv-x="888" d="M66 567q0 16 8 31.5t20 38.5l172 321q16 27 56 27q41 0 70.5 -28.5t29.5 -57.5q0 -10 -6 -22l-166 -310l166 -309q6 -10 6 -22q0 -29 -31 -56.5t-72 -27.5q-39 0 -53 26l-172 320q-12 23 -20 38t-8 31zM451 567q0 16 8 31.5t20 38.5l172 321q6 12 21.5 19.5t34.5 7.5 q41 0 70.5 -28.5t29.5 -57.5q0 -10 -6 -22l-166 -310l166 -309q6 -10 6 -22q0 -29 -31 -56.5t-71 -27.5q-39 0 -54 26l-172 320q-14 25 -21 39t-7 30z" />
<glyph unicode="&#xac;" horiz-adv-x="995" d="M90 492q0 31 15.5 52t44.5 21h659q23 0 42 -21.5t19 -51.5v-304q0 -23 -24.5 -41t-59.5 -18q-37 0 -61.5 18.5t-24.5 40.5v232h-550q-29 0 -44.5 19.5t-15.5 52.5z" />
<glyph unicode="&#xad;" horiz-adv-x="968" d="M96 492q0 31 15.5 52t44.5 21h655q23 0 42 -21.5t19 -51.5q0 -33 -19 -52.5t-42 -19.5h-655q-29 0 -44.5 19.5t-15.5 52.5z" />
<glyph unicode="&#xae;" horiz-adv-x="1454" d="M98 733q0 172 59.5 298t151.5 209t205 123t219 40q109 0 219.5 -41t200.5 -123t146.5 -207t56.5 -291q0 -172 -59.5 -298t-151.5 -208.5t-205 -122.5t-219 -40q-109 0 -219.5 41t-200.5 122.5t-146.5 206.5t-56.5 291zM199 733q0 -123 36.5 -225t105.5 -177t165 -117 t215 -42q117 0 215 41t169 117t110.5 180t39.5 231q0 123 -36.5 225.5t-105.5 177.5t-165 117t-215 42q-117 0 -215 -41t-168.5 -117t-110.5 -180.5t-40 -231.5zM526 395v709q0 14 10.5 25.5t26.5 11.5h185q45 0 85.5 -11.5t71.5 -37t49.5 -67.5t18.5 -103q0 -96 -39 -145.5 t-98 -65.5l133 -285q2 -6 2 -14q0 -23 -18.5 -40.5t-41.5 -17.5q-14 0 -22 10.5t-17 26.5l-141 303h-98v-299q0 -18 -15.5 -28.5t-35.5 -10.5q-23 0 -39.5 10.5t-16.5 28.5zM633 784h115q53 0 85.5 30t32.5 97q0 74 -32.5 103.5t-85.5 29.5h-115v-260z" />
<glyph unicode="&#xaf;" horiz-adv-x="555" d="M0 1348q0 27 16.5 45t42.5 18h435q23 0 42 -18.5t19 -44.5q0 -29 -19.5 -45.5t-41.5 -16.5h-435q-27 0 -43 16.5t-16 45.5z" />
<glyph unicode="&#xb0;" horiz-adv-x="845" d="M59 1204q0 74 29 140.5t78 117.5t115.5 81t140.5 30t139.5 -28.5t115.5 -79t79.5 -118t29.5 -143.5q0 -74 -29.5 -140.5t-79.5 -118.5t-115.5 -83t-139.5 -31t-139.5 31t-114.5 82t-79 118.5t-30 141.5zM172 1204q0 -49 19.5 -96t53.5 -84t79 -58.5t98 -21.5 q51 0 97 21.5t81 58.5t54.5 84t19.5 96t-19.5 95.5t-53.5 82t-80 57t-99 21.5t-98 -21.5t-79 -57t-53.5 -82t-19.5 -95.5z" />
<glyph unicode="&#xb1;" horiz-adv-x="962" d="M94 174q0 31 16.5 52.5t43.5 21.5h655q23 0 42 -21.5t19 -52.5q0 -33 -19.5 -52.5t-41.5 -19.5h-655q-27 0 -43.5 19.5t-16.5 52.5zM94 731q0 31 16.5 52.5t43.5 21.5h256v246q0 23 21.5 42t51.5 19q33 0 52.5 -19.5t19.5 -41.5v-246h254q23 0 42 -21.5t19 -52.5 q0 -33 -19.5 -52.5t-41.5 -19.5h-254v-247q0 -27 -19.5 -43.5t-52.5 -16.5q-31 0 -52 16.5t-21 43.5v247h-256q-27 0 -43.5 19.5t-16.5 52.5z" />
<glyph unicode="&#xb2;" horiz-adv-x="634" d="M61 754v102q0 43 29 80t72 70.5t93 65.5t93 64.5t72 66.5t29 75q0 37 -31 71.5t-99 34.5q-51 0 -84.5 -24.5t-33.5 -77.5q0 -16 -17.5 -30.5t-48.5 -14.5q-25 0 -40 13.5t-15 52.5q0 45 19.5 80.5t52 61t75.5 39t92 13.5q51 0 97.5 -15.5t80 -43t54 -67.5t20.5 -89 q0 -57 -28.5 -102t-70.5 -82t-91 -68t-91 -58.5t-71 -54t-29 -55.5v-41h347q16 0 28.5 -15t12.5 -38t-12.5 -39t-28.5 -16h-418q-18 0 -38 11t-20 30z" />
<glyph unicode="&#xb3;" horiz-adv-x="649" d="M53 897q0 31 13.5 40t44.5 9q39 0 52 -10t13 -33q0 -35 33.5 -61.5t105.5 -26.5q74 0 109 29.5t35 97.5v19q0 66 -39 89t-105 23q-23 0 -32 15.5t-9 31.5q0 20 9.5 35.5t31.5 15.5q53 0 87 20.5t34 92.5q0 57 -29.5 81t-87.5 24q-72 0 -98 -25t-26 -57q0 -23 -11.5 -35 t-46.5 -12q-41 0 -52 11t-11 42q0 27 11 59.5t39 60t75 46t120 18.5q102 0 170 -43t68 -149q0 -66 -25.5 -113t-68.5 -66q53 -18 86 -58t33 -107v-19q0 -66 -20.5 -110t-57.5 -72.5t-86 -40.5t-105 -12q-68 0 -117 17t-80.5 45t-47 61.5t-15.5 66.5z" />
<glyph unicode="&#xb4;" horiz-adv-x="344" d="M0 1266q0 31 27 45l239 127q12 4 21 4q27 0 42 -22.5t15 -47.5q0 -14 -6 -27.5t-23 -21.5l-231 -119q-6 -4 -11 -6t-12 -2q-27 0 -44 22.5t-17 47.5z" />
<glyph unicode="&#xb5;" horiz-adv-x="1017" d="M135 -410v1319q0 23 24.5 42.5t59.5 19.5t60.5 -19.5t25.5 -42.5v-561q0 -33 19.5 -69.5t52.5 -68.5t75 -52.5t89 -20.5q45 0 86 20.5t71.5 54.5t49 77t18.5 88v532q0 27 25.5 44.5t58.5 17.5q37 0 61.5 -17.5t24.5 -44.5v-532q0 -80 -31 -151.5t-85 -125t-126.5 -85 t-154.5 -31.5t-147.5 35.5t-102.5 82.5v-512q0 -23 -21.5 -41t-50.5 -18q-35 0 -58.5 18.5t-23.5 40.5z" />
<glyph unicode="&#xb6;" horiz-adv-x="1087" d="M59 1051v24q0 115 31 196t85 131t128 72.5t158 22.5h420q23 0 42 -15.5t19 -45.5v-1377q0 -31 -19.5 -45t-41.5 -14q-23 0 -42.5 14.5t-19.5 44.5v1340h-162v-1338q0 -31 -19.5 -46t-41.5 -15q-23 0 -42 15.5t-19 45.5v566h-74q-84 0 -158 22.5t-128 73.5t-85 132 t-31 196z" />
<glyph unicode="&#xb7;" horiz-adv-x="385" d="M82 614q0 41 33 72t80 31q45 0 76.5 -31t31.5 -72t-31.5 -71.5t-76.5 -30.5q-47 0 -80 30.5t-33 71.5z" />
<glyph unicode="&#xb8;" horiz-adv-x="354" d="M0 -379q0 10 9 33.5t28 23.5q14 0 39.5 -14t75.5 -14q55 0 80.5 21.5t25.5 54.5q0 41 -31.5 60t-89.5 24l-88 6l53 202h93l-37 -137q104 -4 150 -48t46 -101q0 -29 -11 -58.5t-33.5 -53t-58.5 -39t-87 -15.5q-23 0 -51.5 3t-53 10t-42 17.5t-17.5 24.5z" />
<glyph unicode="&#xb9;" horiz-adv-x="358" d="M29 1337q0 12 7 25.5t17 19.5l123 105q12 12 33 12q18 0 35.5 -11t17.5 -30v-704q0 -23 -19.5 -32t-41.5 -9q-23 0 -42.5 9t-19.5 32v585l-41 -41q-12 -10 -26 -10q-18 0 -30.5 15.5t-12.5 33.5z" />
<glyph unicode="&#xba;" horiz-adv-x="677" d="M72 1143v127q0 51 20.5 98t57 82t85 56.5t103.5 21.5q53 0 102 -20.5t86 -55.5t58.5 -82t21.5 -100v-127q0 -51 -21.5 -98.5t-58.5 -83t-86 -57t-102 -21.5t-101.5 21.5t-85 57t-58 83t-21.5 98.5zM199 1143q0 -57 40 -102.5t99 -45.5t101 45t42 103v127q0 55 -42 99 t-101 44t-99 -44t-40 -99v-127z" />
<glyph unicode="&#xbb;" horiz-adv-x="888" d="M82 236q0 12 6 22l166 309l-166 310q-6 12 -6 22q0 29 29.5 57.5t70.5 28.5q39 0 56 -27l172 -321q12 -23 20 -38t8 -32q0 -16 -8 -31.5t-20 -37.5l-172 -320q-14 -27 -54 -26q-41 0 -71.5 27.5t-30.5 56.5zM465 236q0 12 6 22l168 309l-168 310q-6 12 -6 22 q0 29 29.5 57.5t70.5 28.5t56 -27l174 -321q12 -23 20 -38t8 -32q0 -16 -8 -31.5t-20 -37.5l-174 -320q-14 -27 -54 -26q-41 0 -71.5 27.5t-30.5 56.5z" />
<glyph unicode="&#xbc;" horiz-adv-x="1267" d="M55 1337q0 12 7.5 25.5t17.5 19.5l123 105q12 12 33 12q18 0 35.5 -11t17.5 -30v-704q0 -23 -19.5 -32t-42.5 -9t-42 9t-19 32v585l-41 -41q-12 -10 -27 -10q-18 0 -30.5 15.5t-12.5 33.5zM145 0q0 14 7 27l768 1519q8 16 21.5 23.5t29.5 7.5q25 0 47 -19.5t22 -48.5 q0 -14 -6 -28l-766 -1510q-8 -16 -23.5 -24t-33.5 -8q-29 0 -47.5 18t-18.5 43zM666 219q0 12 6 25l284 508q20 33 56 32q16 0 38.5 -12t22.5 -35q0 -6 -4 -18l-246 -430h176v135q0 20 18.5 29.5t41.5 9.5q25 0 44 -9.5t19 -29.5v-135h60q20 0 30.5 -17.5t10.5 -40.5 t-12.5 -40t-28.5 -17h-60v-133q0 -23 -19.5 -32t-43.5 -9q-23 0 -41.5 9t-18.5 32v133h-290q-18 0 -30.5 11.5t-12.5 33.5z" />
<glyph unicode="&#xbd;" horiz-adv-x="1280" d="M53 1337q0 12 7.5 25.5t17.5 19.5l123 105q12 12 32 12q18 0 36 -11t18 -30v-704q0 -23 -19.5 -32t-42.5 -9t-42 9t-19 32v585l-41 -41q-12 -10 -27 -10q-18 0 -30.5 15.5t-12.5 33.5zM111 0q0 14 6 27l768 1519q8 16 21.5 23.5t29.5 7.5q25 0 47.5 -19.5t22.5 -48.5 q0 -14 -7 -28l-766 -1510q-8 -16 -23 -24t-34 -8q-29 0 -47 18t-18 43zM705 41v104q0 43 28.5 80t71.5 70t93 64.5t93 64.5t72 66.5t29 74.5q0 37 -31 72t-98 35q-51 0 -85 -24.5t-34 -78.5q0 -16 -17.5 -30.5t-48.5 -14.5q-25 0 -40 13.5t-15 52.5q0 45 19.5 81t52 61.5 t75.5 38.5t93 13q51 0 97 -15t80 -43t54 -68t20 -89q0 -57 -28.5 -102t-70.5 -82t-91 -67.5t-91 -58.5t-70.5 -54.5t-28.5 -54.5v-41h346q16 0 28.5 -15.5t12.5 -38.5t-12.5 -39t-28.5 -16h-418q-18 0 -37.5 11.5t-19.5 29.5z" />
<glyph unicode="&#xbe;" horiz-adv-x="1538" d="M61 897q0 31 13.5 40t44.5 9q39 0 52 -10t13 -33q0 -35 34 -61.5t106 -26.5q74 0 108.5 29.5t34.5 97.5v19q0 66 -39 89t-104 23q-23 0 -32 15.5t-9 31.5q0 20 9 35.5t32 15.5q53 0 86.5 20.5t33.5 92.5q0 57 -29.5 81t-86.5 24q-72 0 -98.5 -25t-26.5 -57 q0 -23 -11.5 -35t-46.5 -12q-41 0 -52 11t-11 42q0 27 11 59.5t39 60t75 46t121 18.5q102 0 169.5 -43t67.5 -149q0 -66 -25.5 -113t-68.5 -66q53 -18 86 -58t33 -107v-19q0 -66 -20.5 -110t-57.5 -72.5t-86 -40.5t-104 -12q-68 0 -117 17t-81 45t-47.5 61.5t-15.5 66.5z M403 0q0 14 7 27l768 1519q8 16 21.5 23.5t29.5 7.5q25 0 47 -19.5t22 -48.5q0 -14 -6 -28l-766 -1510q-8 -16 -23.5 -24t-33.5 -8q-29 0 -47.5 18t-18.5 43zM936 219q0 12 6 25l285 508q20 33 55 32q16 0 38.5 -12t22.5 -35q0 -6 -4 -18l-245 -430h176v135q0 20 18.5 29.5 t40.5 9.5q25 0 44.5 -9.5t19.5 -29.5v-135h59q20 0 30.5 -17.5t10.5 -40.5t-12.5 -40t-28.5 -17h-59v-133q0 -23 -19.5 -32t-44.5 -9q-23 0 -41 9t-18 32v133h-291q-18 0 -30.5 11.5t-12.5 33.5z" />
<glyph unicode="&#xbf;" horiz-adv-x="835" d="M61 346q0 92 31 162t74 123t88 92t72 70q29 29 45 58.5t23 65t9.5 78.5t2.5 99q0 23 15 38t54 15q33 0 49.5 -16.5t16.5 -59.5q0 -82 -8.5 -138t-21.5 -95t-31.5 -66t-37.5 -47q-31 -33 -71.5 -66.5t-76.5 -75.5t-61.5 -95.5t-25.5 -125.5q0 -113 67.5 -175t190.5 -62 q70 0 109.5 17.5t65.5 38t42 38t41 17.5q23 0 45.5 -16.5t22.5 -51.5q0 -29 -24 -59.5t-68 -58t-105.5 -45t-134.5 -17.5q-96 0 -171 27.5t-125 75.5t-76 113.5t-26 141.5zM367 1411q0 43 30.5 75t75.5 32q47 0 77 -32t30 -75q0 -45 -31 -76.5t-76 -31.5q-43 0 -74.5 31.5 t-31.5 76.5z" />
<glyph unicode="&#xc0;" horiz-adv-x="1126" d="M35 72q0 4 4 16l418 1362q10 31 40.5 45t65.5 14t65.5 -15t41.5 -44l417 -1362q0 -4 1.5 -7t1.5 -7q0 -31 -35 -52.5t-72 -21.5q-23 0 -39 9t-22 30l-91 305h-538l-90 -305q-13 -39 -64 -39q-35 0 -69.5 19.5t-34.5 52.5zM332 485h459l-228 770zM377 1886q0 25 16.5 47.5 t40.5 22.5q8 0 21 -4l239 -127q27 -14 27 -45q0 -25 -17.5 -47.5t-44.5 -22.5q-6 0 -22 8l-231 119q-16 8 -22.5 21.5t-6.5 27.5z" />
<glyph unicode="&#xc1;" horiz-adv-x="1126" d="M35 72q0 4 4 16l418 1362q10 31 40.5 45t65.5 14t65.5 -15t41.5 -44l417 -1362q0 -4 1.5 -7t1.5 -7q0 -31 -35 -52.5t-72 -21.5q-23 0 -39 9t-22 30l-91 305h-538l-90 -305q-13 -39 -64 -39q-35 0 -69.5 19.5t-34.5 52.5zM332 485h459l-228 770zM422 1780q0 31 27 45 l239 127q12 4 21 4q27 0 42 -22.5t15 -47.5q0 -14 -6 -27.5t-23 -21.5l-231 -119q-6 -4 -11.5 -6t-11.5 -2q-27 0 -44 22.5t-17 47.5z" />
<glyph unicode="&#xc2;" horiz-adv-x="1126" d="M35 72q0 4 4 16l418 1362q10 31 40.5 45t65.5 14t65.5 -15t41.5 -44l417 -1362q0 -4 1.5 -7t1.5 -7q0 -31 -35 -52.5t-72 -21.5q-23 0 -39 9t-22 30l-91 305h-538l-90 -305q-13 -39 -64 -39q-35 0 -69.5 19.5t-34.5 52.5zM283 1778q0 16 7 30.5t23 22.5l213 115 q20 10 35 10q18 0 35 -10l213 -113q33 -18 33 -57q0 -23 -13.5 -40.5t-33.5 -17.5q-4 0 -9.5 2t-11.5 4l-213 115l-213 -115q-10 -6 -18 -6q-18 0 -32.5 18.5t-14.5 41.5zM332 485h459l-228 770z" />
<glyph unicode="&#xc3;" horiz-adv-x="1126" d="M35 72q0 4 4 16l418 1362q10 31 40.5 45t65.5 14t65.5 -15t41.5 -44l417 -1362q0 -4 1.5 -7t1.5 -7q0 -31 -35 -52.5t-72 -21.5q-23 0 -39 9t-22 30l-91 305h-538l-90 -305q-13 -39 -64 -39q-35 0 -69.5 19.5t-34.5 52.5zM236 1817q0 33 19 57t47 38.5t58.5 22t53.5 7.5 q41 0 74.5 -10.5t64.5 -24t63.5 -23.5t73.5 -10q33 0 55.5 8t39 19.5t28.5 19.5t27 8q27 0 38 -21.5t11 -35.5q0 -37 -19.5 -60.5t-47 -37t-56.5 -19.5t-49 -6q-45 0 -79 10t-64.5 23.5t-62.5 24t-73 10.5q-33 0 -56.5 -9.5t-40.5 -20.5t-30.5 -20.5t-27.5 -9.5 q-27 0 -37 21.5t-10 38.5zM332 485h459l-228 770z" />
<glyph unicode="&#xc4;" horiz-adv-x="1126" d="M35 72q0 4 4 16l418 1362q10 31 40.5 45t65.5 14t65.5 -15t41.5 -44l417 -1362q0 -4 1.5 -7t1.5 -7q0 -31 -35 -52.5t-72 -21.5q-23 0 -39 9t-22 30l-91 305h-538l-90 -305q-13 -39 -64 -39q-35 0 -69.5 19.5t-34.5 52.5zM332 485h459l-228 770zM346 1804q0 35 24.5 59.5 t59.5 24.5t58.5 -24.5t23.5 -59.5t-23.5 -60.5t-58.5 -25.5t-59.5 25.5t-24.5 60.5zM614 1804q0 35 23.5 59.5t58.5 24.5t58.5 -24.5t23.5 -59.5t-23.5 -60.5t-58.5 -25.5t-58.5 25.5t-23.5 60.5z" />
<glyph unicode="&#xc5;" horiz-adv-x="1126" d="M35 72q0 4 4 16l418 1362q10 31 40.5 45t65.5 14t65.5 -15t41.5 -44l417 -1362q0 -4 1.5 -7t1.5 -7q0 -31 -35 -52.5t-72 -21.5q-23 0 -39 9t-22 30l-91 305h-538l-90 -305q-13 -39 -64 -39q-35 0 -69.5 19.5t-34.5 52.5zM332 485h459l-228 770zM369 1892q0 37 14 73 t41 62.5t61.5 43t75.5 16.5q37 0 72 -16.5t61.5 -43t43 -61.5t16.5 -74t-16.5 -74.5t-43 -63.5t-61.5 -44t-72 -16q-41 0 -75.5 16t-60.5 44t-41 63.5t-15 74.5zM446 1892q0 -45 34 -82.5t81 -37.5t80 37.5t33 82.5q0 41 -33 77t-80 36t-81 -36t-34 -77z" />
<glyph unicode="&#xc6;" horiz-adv-x="1505" d="M139 72v979q0 123 34 207.5t92.5 138t138 77t169.5 23.5h828q31 0 45 -23.5t14 -52.5q0 -33 -15 -56.5t-44 -23.5h-477v-520h286q29 0 44.5 -22.5t15.5 -50.5q0 -25 -14.5 -47.5t-45.5 -22.5h-286v-522h477q29 0 44 -23.5t15 -56.5q0 -29 -14 -52.5t-45 -23.5h-572 q-29 0 -53 15.5t-24 45.5v617h-449v-606q0 -31 -13.5 -51.5t-72.5 -20.5q-41 0 -59.5 20.5t-18.5 51.5zM303 821h449v520h-179q-127 0 -198.5 -70.5t-71.5 -219.5v-230z" />
<glyph unicode="&#xc7;" horiz-adv-x="1087" d="M131 434v617q0 123 35 207.5t95.5 138t140 77t169.5 23.5q102 0 184.5 -27.5t139.5 -75.5t88 -112.5t31 -140.5q0 -59 -21.5 -76.5t-64.5 -17.5q-82 0 -86 59q-2 31 -11.5 72t-37 76.5t-79.5 61t-139 25.5q-133 0 -202.5 -70.5t-69.5 -219.5v-617q0 -150 70.5 -220.5 t208.5 -70.5q86 0 135 25t75.5 61.5t36 78.5t13.5 79q6 59 86 59q43 0 64.5 -18t21.5 -78q0 -70 -25.5 -131t-74 -108.5t-118 -79t-155.5 -39.5l-29 -111q104 -4 150.5 -48t46.5 -101q0 -29 -11.5 -58.5t-34 -53t-58 -39t-87.5 -15.5q-23 0 -51 3t-53 10t-42 17.5t-17 24.5 q0 10 9 33.5t28 23.5q14 0 39.5 -14t74.5 -14q55 0 81 21.5t26 54.5q0 41 -32 60t-89 24l-88 6l45 172q-86 2 -163 27.5t-133 78.5t-89 137t-33 203z" />
<glyph unicode="&#xc8;" horiz-adv-x="1052" d="M145 61v1375q0 31 25 46t53 15h729q31 0 45.5 -23.5t14.5 -52.5q0 -33 -15.5 -56.5t-44.5 -23.5h-635v-520h320q29 0 44 -22.5t15 -50.5q0 -25 -14 -47.5t-45 -22.5h-320v-522h635q29 0 44.5 -23.5t15.5 -56.5q0 -29 -14.5 -52.5t-45.5 -23.5h-729q-29 0 -53.5 15.5 t-24.5 45.5zM401 1886q0 25 16.5 47.5t41.5 22.5q8 0 20 -4l240 -127q27 -14 26 -45q0 -25 -17 -47.5t-44 -22.5q-6 0 -22 8l-232 119q-16 8 -22.5 21.5t-6.5 27.5z" />
<glyph unicode="&#xc9;" horiz-adv-x="1052" d="M145 61v1375q0 31 25 46t53 15h729q31 0 45.5 -23.5t14.5 -52.5q0 -33 -15.5 -56.5t-44.5 -23.5h-635v-520h320q29 0 44 -22.5t15 -50.5q0 -25 -14 -47.5t-45 -22.5h-320v-522h635q29 0 44.5 -23.5t15.5 -56.5q0 -29 -14.5 -52.5t-45.5 -23.5h-729q-29 0 -53.5 15.5 t-24.5 45.5zM426 1780q0 31 27 45l239 127q12 4 21 4q27 0 42 -22.5t15 -47.5q0 -14 -6 -27.5t-23 -21.5l-231 -119q-6 -4 -11 -6t-12 -2q-27 0 -44 22.5t-17 47.5z" />
<glyph unicode="&#xca;" horiz-adv-x="1052" d="M145 61v1375q0 31 25 46t53 15h729q31 0 45.5 -23.5t14.5 -52.5q0 -33 -15.5 -56.5t-44.5 -23.5h-635v-520h320q29 0 44 -22.5t15 -50.5q0 -25 -14 -47.5t-45 -22.5h-320v-522h635q29 0 44.5 -23.5t15.5 -56.5q0 -29 -14.5 -52.5t-45.5 -23.5h-729q-29 0 -53.5 15.5 t-24.5 45.5zM305 1778q0 16 7 30.5t24 22.5l213 115q20 10 35 10q18 0 34 -10l213 -113q33 -18 33 -57q0 -23 -13 -40.5t-34 -17.5q-4 0 -9 2t-11 4l-213 115l-213 -115q-10 -6 -19 -6q-18 0 -32.5 18.5t-14.5 41.5z" />
<glyph unicode="&#xcb;" horiz-adv-x="1052" d="M145 61v1375q0 31 25 46t53 15h729q31 0 45.5 -23.5t14.5 -52.5q0 -33 -15.5 -56.5t-44.5 -23.5h-635v-520h320q29 0 44 -22.5t15 -50.5q0 -25 -14 -47.5t-45 -22.5h-320v-522h635q29 0 44.5 -23.5t15.5 -56.5q0 -29 -14.5 -52.5t-45.5 -23.5h-729q-29 0 -53.5 15.5 t-24.5 45.5zM362 1804q0 35 24.5 59.5t59.5 24.5t58.5 -24.5t23.5 -59.5t-23.5 -60.5t-58.5 -25.5t-59.5 25.5t-24.5 60.5zM631 1804q0 35 23.5 59.5t58.5 24.5t58.5 -24.5t23.5 -59.5t-23.5 -60.5t-58.5 -25.5t-58.5 25.5t-23.5 60.5z" />
<glyph unicode="&#xcc;" horiz-adv-x="462" d="M51 1886q0 25 16.5 47.5t41.5 22.5q8 0 20 -4l240 -127q27 -14 26 -45q0 -25 -17.5 -47.5t-43.5 -22.5q-6 0 -23 8l-231 119q-16 8 -22.5 21.5t-6.5 27.5zM145 61v1377q0 31 27 45t59 14q33 0 59.5 -14.5t26.5 -44.5v-1377q0 -31 -26.5 -46t-59.5 -15t-59.5 15.5 t-26.5 45.5z" />
<glyph unicode="&#xcd;" horiz-adv-x="462" d="M66 1780q0 31 26 45l240 127q12 4 20 4q27 0 42.5 -22.5t15.5 -47.5q0 -14 -6.5 -27.5t-22.5 -21.5l-231 -119q-6 -4 -11.5 -6t-11.5 -2q-27 0 -44 22.5t-17 47.5zM145 61v1377q0 31 27 45t59 14q33 0 59.5 -14.5t26.5 -44.5v-1377q0 -31 -26.5 -46t-59.5 -15t-59.5 15.5 t-26.5 45.5z" />
<glyph unicode="&#xce;" horiz-adv-x="462" d="M-47 1778q0 16 7 30.5t24 22.5l213 115q20 10 34 10q18 0 35 -10l213 -113q33 -18 33 -57q0 -23 -13.5 -40.5t-33.5 -17.5q-4 0 -9 2t-12 4l-213 115l-213 -115q-10 -6 -18 -6q-18 0 -32.5 18.5t-14.5 41.5zM145 61v1377q0 31 27 45t59 14q33 0 59.5 -14.5t26.5 -44.5 v-1377q0 -31 -26.5 -46t-59.5 -15t-59.5 15.5t-26.5 45.5z" />
<glyph unicode="&#xcf;" horiz-adv-x="462" d="M16 1804q0 35 24.5 59.5t59.5 24.5t58.5 -24.5t23.5 -59.5t-23.5 -60.5t-58.5 -25.5t-59.5 25.5t-24.5 60.5zM145 61v1377q0 31 27 45t59 14q33 0 59.5 -14.5t26.5 -44.5v-1377q0 -31 -26.5 -46t-59.5 -15t-59.5 15.5t-26.5 45.5zM285 1804q0 35 23.5 59.5t58.5 24.5 t58.5 -24.5t23.5 -59.5t-24 -60.5t-58 -25.5q-35 0 -58.5 25.5t-23.5 60.5z" />
<glyph unicode="&#xd0;" horiz-adv-x="1175" d="M-6 784q0 27 13 47.5t38 20.5h117v586q0 23 21.5 41t56.5 18h362q92 0 173 -23.5t141.5 -77t94 -138t33.5 -207.5v-605q0 -123 -33.5 -207.5t-94 -138t-141.5 -77t-173 -23.5h-362q-35 0 -56.5 18.5t-21.5 40.5v660h-117q-25 0 -38 19.5t-13 45.5zM334 156h268 q127 0 198.5 70.5t71.5 219.5v605q0 150 -71.5 220t-198.5 70h-268v-489h211q23 0 38 -20.5t15 -47.5t-15.5 -46t-37.5 -19h-211v-563z" />
<glyph unicode="&#xd1;" horiz-adv-x="1189" d="M145 61v1377q0 33 26 46t60 13q47 0 75 -27.5t56 -80.5l510 -998v1047q0 31 27 45t59 14q33 0 59.5 -14.5t26.5 -44.5v-1377q0 -31 -26.5 -46t-59.5 -15q-35 0 -62.5 21.5t-45.5 56.5l-533 1030v-1047q0 -31 -26.5 -46t-59.5 -15t-59.5 15.5t-26.5 45.5zM260 1817 q0 33 19.5 57t47 38.5t58.5 22t53 7.5q41 0 75 -10.5t64.5 -24t63.5 -23.5t74 -10q33 0 55.5 8t38.5 19.5t28.5 19.5t26.5 8q27 0 38 -21.5t11 -35.5q0 -37 -19.5 -60.5t-47 -37t-56 -19.5t-49.5 -6q-45 0 -78.5 10t-64.5 23.5t-62.5 24t-72.5 10.5q-33 0 -56.5 -9.5 t-41 -20.5t-30.5 -20.5t-28 -9.5q-27 0 -37 21.5t-10 38.5z" />
<glyph unicode="&#xd2;" d="M131 434v617q0 123 34 207.5t93 138t140 77t173 23.5t173 -23.5t141.5 -77t94.5 -138t34 -207.5v-617q0 -123 -34 -208t-94.5 -138t-141.5 -76.5t-173 -23.5t-173 23.5t-140 76.5t-93 138t-34 208zM303 434q0 -150 70.5 -220.5t197.5 -70.5t199 71t72 220v617 q0 150 -72 220t-199 70t-197.5 -70.5t-70.5 -219.5v-617zM387 1886q0 25 16.5 47.5t40.5 22.5q8 0 21 -4l240 -127q27 -14 26 -45q0 -25 -17.5 -47.5t-43.5 -22.5q-6 0 -23 8l-231 119q-16 8 -22.5 21.5t-6.5 27.5z" />
<glyph unicode="&#xd3;" d="M131 434v617q0 123 34 207.5t93 138t140 77t173 23.5t173 -23.5t141.5 -77t94.5 -138t34 -207.5v-617q0 -123 -34 -208t-94.5 -138t-141.5 -76.5t-173 -23.5t-173 23.5t-140 76.5t-93 138t-34 208zM303 434q0 -150 70.5 -220.5t197.5 -70.5t199 71t72 220v617 q0 150 -72 220t-199 70t-197.5 -70.5t-70.5 -219.5v-617zM436 1780q0 31 27 45l239 127q12 4 21 4q27 0 42 -22.5t15 -47.5q0 -14 -6 -27.5t-22 -21.5l-232 -119q-6 -4 -11 -6t-11 -2q-27 0 -44.5 22.5t-17.5 47.5z" />
<glyph unicode="&#xd4;" d="M131 434v617q0 123 34 207.5t93 138t140 77t173 23.5t173 -23.5t141.5 -77t94.5 -138t34 -207.5v-617q0 -123 -34 -208t-94.5 -138t-141.5 -76.5t-173 -23.5t-173 23.5t-140 76.5t-93 138t-34 208zM293 1778q0 16 7 30.5t24 22.5l213 115q20 10 34 10q18 0 35 -10 l213 -113q33 -18 33 -57q0 -23 -13.5 -40.5t-33.5 -17.5q-4 0 -9 2t-12 4l-213 115l-213 -115q-10 -6 -18 -6q-18 0 -32.5 18.5t-14.5 41.5zM303 434q0 -150 70.5 -220.5t197.5 -70.5t199 71t72 220v617q0 150 -72 220t-199 70t-197.5 -70.5t-70.5 -219.5v-617z" />
<glyph unicode="&#xd5;" d="M131 434v617q0 123 34 207.5t93 138t140 77t173 23.5t173 -23.5t141.5 -77t94.5 -138t34 -207.5v-617q0 -123 -34 -208t-94.5 -138t-141.5 -76.5t-173 -23.5t-173 23.5t-140 76.5t-93 138t-34 208zM246 1817q0 33 19.5 57t47 38.5t58 22t53.5 7.5q41 0 74.5 -10.5 t64.5 -24t63.5 -23.5t73.5 -10q33 0 55.5 8t39 19.5t29 19.5t26.5 8q27 0 38 -21.5t11 -35.5q0 -37 -19.5 -60.5t-47 -37t-56 -19.5t-49.5 -6q-45 0 -79 10t-64.5 23.5t-62 24t-72.5 10.5q-33 0 -56.5 -9.5t-41 -20.5t-31 -20.5t-27.5 -9.5q-27 0 -37 21.5t-10 38.5z M303 434q0 -150 70.5 -220.5t197.5 -70.5t199 71t72 220v617q0 150 -72 220t-199 70t-197.5 -70.5t-70.5 -219.5v-617z" />
<glyph unicode="&#xd6;" d="M131 434v617q0 123 34 207.5t93 138t140 77t173 23.5t173 -23.5t141.5 -77t94.5 -138t34 -207.5v-617q0 -123 -34 -208t-94.5 -138t-141.5 -76.5t-173 -23.5t-173 23.5t-140 76.5t-93 138t-34 208zM303 434q0 -150 70.5 -220.5t197.5 -70.5t199 71t72 220v617 q0 150 -72 220t-199 70t-197.5 -70.5t-70.5 -219.5v-617zM356 1804q0 35 24.5 59.5t59.5 24.5t58.5 -24.5t23.5 -59.5t-23.5 -60.5t-58.5 -25.5t-59.5 25.5t-24.5 60.5zM625 1804q0 35 23.5 59.5t58.5 24.5t58 -24.5t23 -59.5t-23.5 -60.5t-57.5 -25.5q-35 0 -58.5 25.5 t-23.5 60.5z" />
<glyph unicode="&#xd7;" horiz-adv-x="819" d="M111 344q0 23 14 39l190 180l-188 178q-16 16 -16 41q0 31 25.5 55.5t53.5 24.5q25 0 41 -16l179 -178l178 178q16 16 41 16q31 0 55.5 -24.5t24.5 -55.5q0 -25 -17 -41l-186 -178l188 -180q17 -21 17 -39q0 -29 -26 -54.5t-56 -25.5q-23 0 -39 15l-180 182l-181 -182 q-16 -14 -39 -15q-29 0 -54 25.5t-25 54.5z" />
<glyph unicode="&#xd8;" d="M127 0q0 6 1 13t5 14l66 131q-33 51 -50.5 118.5t-17.5 157.5v617q0 123 34 207.5t93 138t140 77t173 23.5q158 0 271 -70l59 119q14 31 49 31q25 0 48.5 -19.5t23.5 -48.5q0 -14 -8 -28l-74 -148q35 -51 54.5 -120.5t19.5 -161.5v-617q0 -123 -34 -208t-94.5 -138 t-141 -76.5t-173.5 -23.5q-80 0 -150.5 17.5t-125.5 53.5l-45 -88q-8 -16 -24.5 -24t-32.5 -8q-29 0 -47.5 18t-18.5 43zM303 434q0 -16 1 -32.5t3 -30.5l457 905q-70 66 -193 65q-127 0 -197.5 -70.5t-70.5 -219.5v-617zM373 215q66 -72 198 -72q127 0 199 71t72 220v617 q0 41 -6 77z" />
<glyph unicode="&#xd9;" horiz-adv-x="1173" d="M139 434v1004q0 31 27 45t59 14q33 0 59.5 -14.5t26.5 -44.5v-1004q0 -150 73 -220.5t202 -70.5t202.5 71t73.5 220v1004q0 31 25.5 45t60.5 14q31 0 58.5 -14.5t27.5 -44.5v-1004q0 -123 -34.5 -208t-95 -138t-142.5 -76.5t-176 -23.5t-176 23.5t-141.5 76.5t-94.5 138 t-35 208zM395 1886q0 25 16.5 47.5t41.5 22.5q8 0 20 -4l240 -127q27 -14 26 -45q0 -25 -17 -47.5t-44 -22.5q-6 0 -23 8l-231 119q-16 8 -22.5 21.5t-6.5 27.5z" />
<glyph unicode="&#xda;" horiz-adv-x="1173" d="M139 434v1004q0 31 27 45t59 14q33 0 59.5 -14.5t26.5 -44.5v-1004q0 -150 73 -220.5t202 -70.5t202.5 71t73.5 220v1004q0 31 25.5 45t60.5 14q31 0 58.5 -14.5t27.5 -44.5v-1004q0 -123 -34.5 -208t-95 -138t-142.5 -76.5t-176 -23.5t-176 23.5t-141.5 76.5t-94.5 138 t-35 208zM436 1780q0 31 27 45l239 127q12 4 21 4q27 0 42 -22.5t15 -47.5q0 -14 -6 -27.5t-22 -21.5l-232 -119q-6 -4 -11 -6t-11 -2q-27 0 -44.5 22.5t-17.5 47.5z" />
<glyph unicode="&#xdb;" horiz-adv-x="1173" d="M139 434v1004q0 31 27 45t59 14q33 0 59.5 -14.5t26.5 -44.5v-1004q0 -150 73 -220.5t202 -70.5t202.5 71t73.5 220v1004q0 31 25.5 45t60.5 14q31 0 58.5 -14.5t27.5 -44.5v-1004q0 -123 -34.5 -208t-95 -138t-142.5 -76.5t-176 -23.5t-176 23.5t-141.5 76.5t-94.5 138 t-35 208zM301 1778q0 16 7 30.5t24 22.5l213 115q20 10 35 10q18 0 34 -10l213 -113q33 -18 33 -57q0 -23 -13 -40.5t-34 -17.5q-4 0 -9 2t-11 4l-213 115l-213 -115q-10 -6 -19 -6q-18 0 -32.5 18.5t-14.5 41.5z" />
<glyph unicode="&#xdc;" horiz-adv-x="1173" d="M139 434v1004q0 31 27 45t59 14q33 0 59.5 -14.5t26.5 -44.5v-1004q0 -150 73 -220.5t202 -70.5t202.5 71t73.5 220v1004q0 31 25.5 45t60.5 14q31 0 58.5 -14.5t27.5 -44.5v-1004q0 -123 -34.5 -208t-95 -138t-142.5 -76.5t-176 -23.5t-176 23.5t-141.5 76.5t-94.5 138 t-35 208zM369 1804q0 35 24.5 59.5t59.5 24.5t58.5 -24.5t23.5 -59.5t-24 -60.5t-58 -25.5q-35 0 -59.5 25.5t-24.5 60.5zM637 1804q0 35 23.5 59.5t58.5 24.5t58.5 -24.5t23.5 -59.5t-23.5 -60.5t-58.5 -25.5t-58.5 25.5t-23.5 60.5z" />
<glyph unicode="&#xdd;" horiz-adv-x="1116" d="M35 1425q0 33 34.5 52.5t67.5 19.5q23 0 36 -11t26 -34l360 -702l359 702q25 45 61 45q35 0 68.5 -19.5t33.5 -52.5q0 -16 -8 -34l-424 -791q-4 -6 -4 -20v-519q0 -31 -26.5 -46t-59.5 -15t-59.5 15.5t-26.5 45.5v519q0 10 -6 20l-424 791q-8 18 -8 34zM401 1780 q0 31 27 45l240 127q12 4 20 4q27 0 42 -22.5t15 -47.5q0 -14 -6 -27.5t-22 -21.5l-232 -119q-6 -4 -11 -6t-11 -2q-27 0 -44.5 22.5t-17.5 47.5z" />
<glyph unicode="&#xde;" horiz-adv-x="1026" d="M145 61v1391q0 29 23.5 44t58.5 15q41 0 64.5 -16t23.5 -43v-338q35 61 104.5 108.5t174.5 47.5q72 0 136.5 -24.5t113.5 -71t77.5 -111t28.5 -143.5v-293q0 -78 -29.5 -143.5t-77.5 -112.5t-110.5 -73t-128.5 -26q-47 0 -93 12.5t-85 35t-67.5 51t-43.5 63.5v-373 q0 -23 -24.5 -42t-59.5 -19q-37 0 -61.5 19.5t-24.5 41.5zM315 616q0 -31 17.5 -64.5t50.5 -61t76 -46t96 -18.5q43 0 84 13.5t71.5 39t50 63.5t19.5 85v293q0 45 -18.5 81.5t-50 62.5t-72.5 39t-84 13q-47 0 -90 -14.5t-77 -40t-53.5 -61t-19.5 -80.5v-304z" />
<glyph unicode="&#xdf;" horiz-adv-x="1159" d="M12 903q0 27 14.5 47.5t39.5 20.5h139v213q0 78 19.5 148.5t62.5 123.5t110.5 85t165.5 32q76 0 142.5 -22.5t115.5 -68.5t77 -116t28 -166q0 -53 -9.5 -106.5t-28 -99.5t-45 -81.5t-61.5 -52.5q51 -10 105.5 -45t98.5 -89t71.5 -125t27.5 -152v-33q0 -115 -32.5 -201 t-88 -143.5t-127 -85t-147.5 -27.5q-27 0 -63.5 3t-69.5 12.5t-56.5 29t-23.5 53.5q0 27 12.5 54.5t34.5 27.5q23 0 56.5 -17.5t97.5 -17.5q113 0 178.5 77t65.5 225v30q0 63 -17.5 119.5t-54.5 100.5t-92.5 73t-130.5 39q-33 6 -52.5 18.5t-19.5 53.5t20.5 52t53.5 17 q49 6 78.5 32t46 62.5t21.5 77.5t5 76q0 119 -50 190.5t-159 71.5q-55 0 -93 -19.5t-61.5 -52t-32.5 -75.5t-9 -88v-1125q0 -27 -26.5 -43t-61.5 -16t-58.5 16.5t-23.5 42.5v779h-139q-25 0 -39.5 19.5t-14.5 45.5z" />
<glyph unicode="&#xe0;" horiz-adv-x="917" d="M57 256q0 86 35 140.5t98.5 87t151.5 45t195 12.5h98v43q0 45 -12.5 90t-39 82t-69.5 59.5t-104 22.5q-53 0 -90 -9.5t-62 -20.5t-41 -20.5t-31 -9.5q-31 0 -47 29t-16 57q0 25 26.5 46.5t68.5 38t93.5 25.5t102.5 9q106 0 181 -34t122 -89t67.5 -126.5t20.5 -147.5v-525 q0 -27 -23.5 -44t-60.5 -17q-35 0 -56.5 17.5t-21.5 43.5v82q-53 -61 -129 -110t-180 -49q-57 0 -107.5 16t-88.5 50t-59.5 85t-21.5 121zM229 274q0 -80 45 -116.5t113 -36.5q43 0 88 19.5t80 50t57.5 67.5t22.5 72v106h-72q-66 0 -126 -5t-106 -21.5t-74 -48t-28 -87.5z M262 1372q0 25 16.5 47.5t40.5 22.5q8 0 21 -4l240 -127q27 -14 26 -45q0 -25 -17.5 -47.5t-43.5 -22.5q-6 0 -23 8l-231 119q-16 8 -22.5 21.5t-6.5 27.5z" />
<glyph unicode="&#xe1;" horiz-adv-x="917" d="M57 256q0 86 35 140.5t98.5 87t151.5 45t195 12.5h98v43q0 45 -12.5 90t-39 82t-69.5 59.5t-104 22.5q-53 0 -90 -9.5t-62 -20.5t-41 -20.5t-31 -9.5q-31 0 -47 29t-16 57q0 25 26.5 46.5t68.5 38t93.5 25.5t102.5 9q106 0 181 -34t122 -89t67.5 -126.5t20.5 -147.5v-525 q0 -27 -23.5 -44t-60.5 -17q-35 0 -56.5 17.5t-21.5 43.5v82q-53 -61 -129 -110t-180 -49q-57 0 -107.5 16t-88.5 50t-59.5 85t-21.5 121zM229 274q0 -80 45 -116.5t113 -36.5q43 0 88 19.5t80 50t57.5 67.5t22.5 72v106h-72q-66 0 -126 -5t-106 -21.5t-74 -48t-28 -87.5z M279 1266q0 31 26 45l240 127q12 4 20 4q27 0 42.5 -22.5t15.5 -47.5q0 -14 -6.5 -27.5t-22.5 -21.5l-232 -119q-6 -4 -11 -6t-11 -2q-27 0 -44 22.5t-17 47.5z" />
<glyph unicode="&#xe2;" horiz-adv-x="917" d="M57 256q0 86 35 140.5t98.5 87t151.5 45t195 12.5h98v43q0 45 -12.5 90t-39 82t-69.5 59.5t-104 22.5q-53 0 -90 -9.5t-62 -20.5t-41 -20.5t-31 -9.5q-31 0 -47 29t-16 57q0 25 26.5 46.5t68.5 38t93.5 25.5t102.5 9q106 0 181 -34t122 -89t67.5 -126.5t20.5 -147.5v-525 q0 -27 -23.5 -44t-60.5 -17q-35 0 -56.5 17.5t-21.5 43.5v82q-53 -61 -129 -110t-180 -49q-57 0 -107.5 16t-88.5 50t-59.5 85t-21.5 121zM154 1264q0 16 7 30.5t23 22.5l213 115q20 10 35 10q18 0 35 -10l213 -113q33 -18 33 -57q0 -23 -13.5 -40.5t-33.5 -17.5 q-4 0 -9.5 2t-11.5 4l-213 115l-213 -115q-10 -6 -18 -6q-18 0 -32.5 18.5t-14.5 41.5zM229 274q0 -80 45 -116.5t113 -36.5q43 0 88 19.5t80 50t57.5 67.5t22.5 72v106h-72q-66 0 -126 -5t-106 -21.5t-74 -48t-28 -87.5z" />
<glyph unicode="&#xe3;" horiz-adv-x="917" d="M57 256q0 86 35 140.5t98.5 87t151.5 45t195 12.5h98v43q0 45 -12.5 90t-39 82t-69.5 59.5t-104 22.5q-53 0 -90 -9.5t-62 -20.5t-41 -20.5t-31 -9.5q-31 0 -47 29t-16 57q0 25 26.5 46.5t68.5 38t93.5 25.5t102.5 9q106 0 181 -34t122 -89t67.5 -126.5t20.5 -147.5v-525 q0 -27 -23.5 -44t-60.5 -17q-35 0 -56.5 17.5t-21.5 43.5v82q-53 -61 -129 -110t-180 -49q-57 0 -107.5 16t-88.5 50t-59.5 85t-21.5 121zM109 1303q0 33 19 57t47 38.5t58.5 21.5t53.5 7q41 0 74.5 -10t64.5 -23.5t63.5 -23.5t73.5 -10q33 0 55.5 8t39 19.5t28.5 19.5t27 8 q27 0 38 -21.5t11 -35.5q0 -37 -19.5 -60.5t-47 -37t-56.5 -19.5t-49 -6q-45 0 -79 10t-64.5 23.5t-62.5 24t-73 10.5q-33 0 -56.5 -9.5t-40.5 -20.5t-30.5 -20.5t-27.5 -9.5q-27 0 -37 21.5t-10 38.5zM229 274q0 -80 45 -116.5t113 -36.5q43 0 88 19.5t80 50t57.5 67.5 t22.5 72v106h-72q-66 0 -126 -5t-106 -21.5t-74 -48t-28 -87.5z" />
<glyph unicode="&#xe4;" horiz-adv-x="917" d="M57 256q0 86 35 140.5t98.5 87t151.5 45t195 12.5h98v43q0 45 -12.5 90t-39 82t-69.5 59.5t-104 22.5q-53 0 -90 -9.5t-62 -20.5t-41 -20.5t-31 -9.5q-31 0 -47 29t-16 57q0 25 26.5 46.5t68.5 38t93.5 25.5t102.5 9q106 0 181 -34t122 -89t67.5 -126.5t20.5 -147.5v-525 q0 -27 -23.5 -44t-60.5 -17q-35 0 -56.5 17.5t-21.5 43.5v82q-53 -61 -129 -110t-180 -49q-57 0 -107.5 16t-88.5 50t-59.5 85t-21.5 121zM217 1290q0 35 24.5 59.5t59.5 24.5t58.5 -24.5t23.5 -59.5t-23.5 -60.5t-58.5 -25.5t-59.5 25.5t-24.5 60.5zM229 274 q0 -80 45 -116.5t113 -36.5q43 0 88 19.5t80 50t57.5 67.5t22.5 72v106h-72q-66 0 -126 -5t-106 -21.5t-74 -48t-28 -87.5zM485 1290q0 35 23.5 59.5t58.5 24.5t58.5 -24.5t23.5 -59.5t-23.5 -60.5t-58.5 -25.5t-58.5 25.5t-23.5 60.5z" />
<glyph unicode="&#xe5;" horiz-adv-x="917" d="M57 256q0 86 35 140.5t98.5 87t151.5 45t195 12.5h98v43q0 45 -12.5 90t-39 82t-69.5 59.5t-104 22.5q-53 0 -90 -9.5t-62 -20.5t-41 -20.5t-31 -9.5q-31 0 -47 29t-16 57q0 25 26.5 46.5t68.5 38t93.5 25.5t102.5 9q106 0 181 -34t122 -89t67.5 -126.5t20.5 -147.5v-525 q0 -27 -23.5 -44t-60.5 -17q-35 0 -56.5 17.5t-21.5 43.5v82q-53 -61 -129 -110t-180 -49q-57 0 -107.5 16t-88.5 50t-59.5 85t-21.5 121zM229 274q0 -80 45 -116.5t113 -36.5q43 0 88 19.5t80 50t57.5 67.5t22.5 72v106h-72q-66 0 -126 -5t-106 -21.5t-74 -48t-28 -87.5z M244 1378q0 37 14 73t41 62.5t61.5 43t75.5 16.5q37 0 72 -16.5t61.5 -43t43 -61.5t16.5 -74t-16.5 -74.5t-43 -63.5t-61.5 -44t-72 -16q-41 0 -75.5 16t-60.5 44t-41 63.5t-15 74.5zM322 1378q0 -45 33.5 -83t80.5 -38t80 38t33 83q0 41 -33 77t-80 36t-80.5 -36t-33.5 -77 z" />
<glyph unicode="&#xe6;" horiz-adv-x="1501" d="M57 254q0 86 35 141.5t97.5 88t149.5 45t193 12.5h99v45q0 45 -11.5 90t-38 82t-70.5 59.5t-108 22.5q-51 0 -86.5 -9.5t-61.5 -21.5t-42 -21.5t-31 -9.5q-29 0 -46 30t-17 58q0 23 26.5 44.5t68.5 38t94 25.5t104 9q123 0 198.5 -51t116.5 -131q51 80 132 131t181 51 q70 0 140.5 -23.5t127 -72.5t92.5 -124t36 -175q0 -51 -11.5 -81t-34 -45.5t-57.5 -20.5t-80 -5h-446v-61q0 -115 81 -181.5t206 -66.5q55 0 95 12.5t67.5 27.5t48 27.5t38.5 12.5q29 0 48.5 -26.5t19.5 -51.5t-28.5 -50.5t-74.5 -47t-107.5 -34.5t-125.5 -13 q-117 0 -215 53t-153 151q-66 -104 -163.5 -154t-189.5 -50q-59 0 -112.5 16t-94.5 50t-65.5 84t-24.5 120zM229 270q0 -76 45 -112.5t111 -36.5q49 0 93 19.5t78 50t54.5 67.5t20.5 72v106h-70q-68 0 -127 -5t-105 -21.5t-73 -50t-27 -89.5zM807 551h375q59 0 75.5 13.5 t16.5 49.5q0 47 -17.5 89t-49 75t-74.5 51.5t-95 18.5q-49 0 -91 -17.5t-72.5 -47t-49 -70.5t-18.5 -88v-74z" />
<glyph unicode="&#xe7;" horiz-adv-x="854" d="M86 381v205q0 82 24.5 154.5t75 127t127 85t181.5 30.5q68 0 123 -13.5t95 -34t61.5 -46t21.5 -47.5q0 -27 -20.5 -55.5t-51.5 -28.5q-16 0 -31.5 11t-39 24.5t-58.5 24.5t-88 11q-127 0 -188.5 -64.5t-61.5 -178.5v-205q0 -115 61.5 -179.5t190.5 -64.5q55 0 91 11.5 t59.5 25.5t40 25.5t32.5 11.5q35 0 55.5 -27.5t20.5 -54.5q0 -45 -75 -90t-197 -53l-27 -105q104 -4 150.5 -48t46.5 -101q0 -29 -11.5 -58.5t-34 -53t-58.5 -39t-87 -15.5q-23 0 -51.5 3t-53 10t-42 17.5t-17.5 24.5q0 10 9.5 33.5t27.5 23.5q14 0 40 -14t75 -14 q55 0 80.5 21.5t25.5 54.5q0 41 -31.5 60t-89.5 24l-88 6l45 170q-92 6 -159.5 39.5t-111.5 86t-65.5 121t-21.5 148.5z" />
<glyph unicode="&#xe8;" horiz-adv-x="952" d="M84 381v215q0 78 31.5 148.5t87 124t130.5 84t159 30.5q78 0 149.5 -27.5t125.5 -78t86 -120t32 -151.5q0 -61 -15.5 -95t-41 -51.5t-58.5 -20.5t-68 -3h-448v-61q0 -115 81 -181.5t210 -66.5q57 0 96 12.5t66.5 27.5t47 27.5t38.5 12.5q31 0 50 -27.5t19 -50.5 q0 -20 -22.5 -45t-64.5 -47.5t-102.5 -37.5t-133.5 -15q-100 0 -183.5 28.5t-143.5 80.5t-94 125t-34 163zM254 551h379q53 0 71.5 12t18.5 53q0 45 -17.5 87t-48 74t-73.5 51.5t-95 19.5q-49 0 -91 -17.5t-74.5 -47t-51 -70.5t-18.5 -88v-74zM303 1372q0 25 16.5 47.5 t40.5 22.5q8 0 21 -4l240 -127q27 -14 26 -45q0 -25 -17.5 -47.5t-43.5 -22.5q-6 0 -23 8l-231 119q-16 8 -22.5 21.5t-6.5 27.5z" />
<glyph unicode="&#xe9;" horiz-adv-x="952" d="M84 381v215q0 78 31.5 148.5t87 124t130.5 84t159 30.5q78 0 149.5 -27.5t125.5 -78t86 -120t32 -151.5q0 -61 -15.5 -95t-41 -51.5t-58.5 -20.5t-68 -3h-448v-61q0 -115 81 -181.5t210 -66.5q57 0 96 12.5t66.5 27.5t47 27.5t38.5 12.5q31 0 50 -27.5t19 -50.5 q0 -20 -22.5 -45t-64.5 -47.5t-102.5 -37.5t-133.5 -15q-100 0 -183.5 28.5t-143.5 80.5t-94 125t-34 163zM254 551h379q53 0 71.5 12t18.5 53q0 45 -17.5 87t-48 74t-73.5 51.5t-95 19.5q-49 0 -91 -17.5t-74.5 -47t-51 -70.5t-18.5 -88v-74zM319 1266q0 31 27 45l240 127 q12 4 20 4q27 0 42.5 -22.5t15.5 -47.5q0 -14 -6.5 -27.5t-22.5 -21.5l-232 -119q-6 -4 -11 -6t-11 -2q-27 0 -44.5 22.5t-17.5 47.5z" />
<glyph unicode="&#xea;" horiz-adv-x="952" d="M84 381v215q0 78 31.5 148.5t87 124t130.5 84t159 30.5q78 0 149.5 -27.5t125.5 -78t86 -120t32 -151.5q0 -61 -15.5 -95t-41 -51.5t-58.5 -20.5t-68 -3h-448v-61q0 -115 81 -181.5t210 -66.5q57 0 96 12.5t66.5 27.5t47 27.5t38.5 12.5q31 0 50 -27.5t19 -50.5 q0 -20 -22.5 -45t-64.5 -47.5t-102.5 -37.5t-133.5 -15q-100 0 -183.5 28.5t-143.5 80.5t-94 125t-34 163zM209 1264q0 16 7 30.5t24 22.5l213 115q20 10 34 10q18 0 35 -10l213 -113q33 -18 33 -57q0 -23 -13.5 -40.5t-33.5 -17.5q-4 0 -9 2t-12 4l-213 115l-213 -115 q-10 -6 -18 -6q-18 0 -32.5 18.5t-14.5 41.5zM254 551h379q53 0 71.5 12t18.5 53q0 45 -17.5 87t-48 74t-73.5 51.5t-95 19.5q-49 0 -91 -17.5t-74.5 -47t-51 -70.5t-18.5 -88v-74z" />
<glyph unicode="&#xeb;" horiz-adv-x="952" d="M84 381v215q0 78 31.5 148.5t87 124t130.5 84t159 30.5q78 0 149.5 -27.5t125.5 -78t86 -120t32 -151.5q0 -61 -15.5 -95t-41 -51.5t-58.5 -20.5t-68 -3h-448v-61q0 -115 81 -181.5t210 -66.5q57 0 96 12.5t66.5 27.5t47 27.5t38.5 12.5q31 0 50 -27.5t19 -50.5 q0 -20 -22.5 -45t-64.5 -47.5t-102.5 -37.5t-133.5 -15q-100 0 -183.5 28.5t-143.5 80.5t-94 125t-34 163zM254 551h379q53 0 71.5 12t18.5 53q0 45 -17.5 87t-48 74t-73.5 51.5t-95 19.5q-49 0 -91 -17.5t-74.5 -47t-51 -70.5t-18.5 -88v-74zM270 1290q0 35 24.5 59.5 t59.5 24.5t58.5 -24.5t23.5 -59.5t-23.5 -60.5t-58.5 -25.5t-59.5 25.5t-24.5 60.5zM539 1290q0 35 23.5 59.5t58.5 24.5t58 -24.5t23 -59.5t-23.5 -60.5t-57.5 -25.5q-35 0 -58.5 25.5t-23.5 60.5z" />
<glyph unicode="&#xec;" horiz-adv-x="411" d="M16 1372q0 25 16.5 47.5t41.5 22.5q8 0 20 -4l240 -127q27 -14 26 -45q0 -25 -17 -47.5t-44 -22.5q-6 0 -23 8l-231 119q-16 8 -22.5 21.5t-6.5 27.5zM121 61v850q0 27 24.5 43.5t59.5 16.5t60.5 -16.5t25.5 -43.5v-850q0 -23 -25.5 -42t-60.5 -19t-59.5 19.5t-24.5 41.5 z" />
<glyph unicode="&#xed;" horiz-adv-x="411" d="M49 1266q0 31 27 45l239 127q12 4 21 4q27 0 42 -22.5t15 -47.5q0 -14 -6 -27.5t-22 -21.5l-232 -119q-6 -4 -11 -6t-11 -2q-27 0 -44.5 22.5t-17.5 47.5zM121 61v850q0 27 24.5 43.5t59.5 16.5t60.5 -16.5t25.5 -43.5v-850q0 -23 -25.5 -42t-60.5 -19t-59.5 19.5 t-24.5 41.5z" />
<glyph unicode="&#xee;" horiz-adv-x="411" d="M-74 1264q0 16 7.5 30.5t23.5 22.5l213 115q20 10 35 10q18 0 35 -10l213 -113q33 -18 32 -57q0 -23 -13 -40.5t-34 -17.5q-4 0 -9 2t-11 4l-213 115l-213 -115q-10 -6 -19 -6q-18 0 -32.5 18.5t-14.5 41.5zM121 61v850q0 27 24.5 43.5t59.5 16.5t60.5 -16.5t25.5 -43.5 v-850q0 -23 -25.5 -42t-60.5 -19t-59.5 19.5t-24.5 41.5z" />
<glyph unicode="&#xef;" horiz-adv-x="411" d="M-6 1290q0 35 24.5 59.5t59.5 24.5t58.5 -24.5t23.5 -59.5t-23.5 -60.5t-58.5 -25.5t-59.5 25.5t-24.5 60.5zM121 61v850q0 27 24.5 43.5t59.5 16.5t60.5 -16.5t25.5 -43.5v-850q0 -23 -25.5 -42t-60.5 -19t-59.5 19.5t-24.5 41.5zM262 1290q0 35 23.5 59.5t58.5 24.5 t58.5 -24.5t23.5 -59.5t-23.5 -60.5t-58.5 -25.5t-58.5 25.5t-23.5 60.5z" />
<glyph unicode="&#xf0;" horiz-adv-x="1007" d="M84 381v209q0 80 28.5 150.5t78 125t116 86t139.5 31.5q45 0 89.5 -12.5t82 -35t66.5 -53t43 -67.5q-10 129 -45 231.5t-86 176.5l-154 -90q-10 -6 -22 -7q-23 0 -43.5 24t-20.5 50q0 27 23 39l141 82q-41 43 -87 64.5t-89 23.5q-16 8 -28.5 23.5t-12.5 40.5t19.5 54 t72.5 29q66 0 136.5 -36.5t136.5 -110.5l139 82q8 6 20 6q25 0 45.5 -22.5t20.5 -49.5q0 -29 -25 -41l-129 -77q72 -115 115 -263.5t43 -314.5v-348q0 -78 -33 -149.5t-88 -127t-129 -88t-155 -32.5q-82 0 -156 32.5t-130 88t-89 127t-33 149.5zM254 381q0 -47 18.5 -91 t51 -78t75.5 -54.5t93 -20.5q49 0 91 20.5t74.5 54.5t51 78t18.5 91v215q0 47 -19.5 89t-52 75t-75.5 51t-91 18q-49 0 -92 -20.5t-74.5 -54t-50 -76.5t-18.5 -88v-209z" />
<glyph unicode="&#xf1;" horiz-adv-x="1030" d="M121 61v850q0 27 23.5 43.5t60.5 16.5q31 0 54.5 -16.5t23.5 -43.5v-84q31 59 100.5 107.5t173.5 48.5q74 0 139.5 -30.5t114.5 -85t78 -126t29 -151.5v-529q0 -31 -27 -46t-60 -15q-31 0 -57 15.5t-26 45.5v529q0 45 -18.5 88t-50.5 76.5t-75 54t-90 20.5q-41 0 -81 -16 t-71.5 -47t-51 -76t-19.5 -100v-529q0 -23 -25.5 -42t-60.5 -19q-37 0 -60.5 19.5t-23.5 41.5zM182 1303q0 33 19.5 57t47 38.5t58.5 21.5t53 7q41 0 75 -10t64.5 -23.5t63.5 -23.5t74 -10q33 0 55.5 8t39 19.5t28.5 19.5t26 8q27 0 38.5 -21.5t11.5 -35.5 q0 -37 -19.5 -60.5t-47.5 -37t-56.5 -19.5t-48.5 -6q-45 0 -79 10t-65 23.5t-62.5 24t-72.5 10.5q-33 0 -56.5 -9.5t-41 -20.5t-30.5 -20.5t-28 -9.5q-27 0 -37 21.5t-10 38.5z" />
<glyph unicode="&#xf2;" horiz-adv-x="976" d="M84 381v209q0 78 31.5 149.5t87 126t128 86t156.5 31.5q82 0 156 -30.5t129 -85t88 -126t33 -151.5v-209q0 -78 -33 -149.5t-88 -127t-129 -88t-156 -32.5t-154.5 32.5t-127.5 88t-88 127t-33 149.5zM254 381q0 -47 18.5 -91t50 -78t73.5 -54.5t91 -20.5t91.5 20.5 t75 54.5t51 78t18.5 91v209q0 45 -18.5 88t-50 76.5t-74.5 54t-93 20.5q-49 0 -92 -20.5t-73.5 -54t-49 -76.5t-18.5 -88v-209zM303 1372q0 25 16.5 47.5t40.5 22.5q8 0 21 -4l240 -127q27 -14 26 -45q0 -25 -17.5 -47.5t-43.5 -22.5q-6 0 -23 8l-231 119q-16 8 -22.5 21.5 t-6.5 27.5z" />
<glyph unicode="&#xf3;" horiz-adv-x="976" d="M84 381v209q0 78 31.5 149.5t87 126t128 86t156.5 31.5q82 0 156 -30.5t129 -85t88 -126t33 -151.5v-209q0 -78 -33 -149.5t-88 -127t-129 -88t-156 -32.5t-154.5 32.5t-127.5 88t-88 127t-33 149.5zM254 381q0 -47 18.5 -91t50 -78t73.5 -54.5t91 -20.5t91.5 20.5 t75 54.5t51 78t18.5 91v209q0 45 -18.5 88t-50 76.5t-74.5 54t-93 20.5q-49 0 -92 -20.5t-73.5 -54t-49 -76.5t-18.5 -88v-209zM319 1266q0 31 27 45l240 127q12 4 20 4q27 0 42.5 -22.5t15.5 -47.5q0 -14 -6.5 -27.5t-22.5 -21.5l-232 -119q-6 -4 -11 -6t-11 -2 q-27 0 -44.5 22.5t-17.5 47.5z" />
<glyph unicode="&#xf4;" horiz-adv-x="976" d="M84 381v209q0 78 31.5 149.5t87 126t128 86t156.5 31.5q82 0 156 -30.5t129 -85t88 -126t33 -151.5v-209q0 -78 -33 -149.5t-88 -127t-129 -88t-156 -32.5t-154.5 32.5t-127.5 88t-88 127t-33 149.5zM209 1264q0 16 7 30.5t24 22.5l213 115q20 10 34 10q18 0 35 -10 l213 -113q33 -18 33 -57q0 -23 -13.5 -40.5t-33.5 -17.5q-4 0 -9 2t-12 4l-213 115l-213 -115q-10 -6 -18 -6q-18 0 -32.5 18.5t-14.5 41.5zM254 381q0 -47 18.5 -91t50 -78t73.5 -54.5t91 -20.5t91.5 20.5t75 54.5t51 78t18.5 91v209q0 45 -18.5 88t-50 76.5t-74.5 54 t-93 20.5q-49 0 -92 -20.5t-73.5 -54t-49 -76.5t-18.5 -88v-209z" />
<glyph unicode="&#xf5;" horiz-adv-x="976" d="M84 381v209q0 78 31.5 149.5t87 126t128 86t156.5 31.5q82 0 156 -30.5t129 -85t88 -126t33 -151.5v-209q0 -78 -33 -149.5t-88 -127t-129 -88t-156 -32.5t-154.5 32.5t-127.5 88t-88 127t-33 149.5zM162 1303q0 33 19.5 57t47 38.5t58 21.5t53.5 7q41 0 75 -10 t64.5 -23.5t63 -23.5t73.5 -10q33 0 55.5 8t39 19.5t29 19.5t26.5 8q27 0 38 -21.5t11 -35.5q0 -37 -19.5 -60.5t-47 -37t-56 -19.5t-49.5 -6q-45 0 -79 10t-64.5 23.5t-62 24t-72.5 10.5q-33 0 -56.5 -9.5t-41 -20.5t-31 -20.5t-27.5 -9.5q-27 0 -37 21.5t-10 38.5z M254 381q0 -47 18.5 -91t50 -78t73.5 -54.5t91 -20.5t91.5 20.5t75 54.5t51 78t18.5 91v209q0 45 -18.5 88t-50 76.5t-74.5 54t-93 20.5q-49 0 -92 -20.5t-73.5 -54t-49 -76.5t-18.5 -88v-209z" />
<glyph unicode="&#xf6;" horiz-adv-x="976" d="M84 381v209q0 78 31.5 149.5t87 126t128 86t156.5 31.5q82 0 156 -30.5t129 -85t88 -126t33 -151.5v-209q0 -78 -33 -149.5t-88 -127t-129 -88t-156 -32.5t-154.5 32.5t-127.5 88t-88 127t-33 149.5zM254 381q0 -47 18.5 -91t50 -78t73.5 -54.5t91 -20.5t91.5 20.5 t75 54.5t51 78t18.5 91v209q0 45 -18.5 88t-50 76.5t-74.5 54t-93 20.5q-49 0 -92 -20.5t-73.5 -54t-49 -76.5t-18.5 -88v-209zM272 1290q0 35 24.5 59.5t59.5 24.5t58.5 -24.5t23.5 -59.5t-23.5 -60.5t-58.5 -25.5t-59.5 25.5t-24.5 60.5zM541 1290q0 35 23.5 59.5 t58.5 24.5t58.5 -24.5t23.5 -59.5t-24 -60.5t-58 -25.5q-35 0 -58.5 25.5t-23.5 60.5z" />
<glyph unicode="&#xf7;" horiz-adv-x="919" d="M72 489q0 31 16 51.5t45 20.5h651q25 0 44.5 -20.5t19.5 -51.5t-19.5 -50t-44.5 -19h-651q-29 0 -45 19t-16 50zM344 152q0 45 33 74.5t76 29.5q41 0 73.5 -29.5t32.5 -74.5q0 -41 -32.5 -73t-73.5 -32q-43 0 -76 32t-33 73zM344 829q0 43 33 74t76 31q41 0 73.5 -31 t32.5 -74t-32.5 -73.5t-73.5 -30.5q-43 0 -76 30.5t-33 73.5z" />
<glyph unicode="&#xf8;" horiz-adv-x="976" d="M84 381v209q0 78 31.5 149.5t87 126t128 86t156.5 31.5q55 0 108.5 -15.5t100.5 -43.5l60 98q12 20 35 20q18 0 33.5 -13t15.5 -36q0 -14 -11 -30l-59 -95q57 -53 90 -125.5t33 -152.5v-209q0 -78 -33 -149.5t-88 -127t-129 -88t-156 -32.5q-59 0 -115.5 17t-103.5 50 l-59 -96q-12 -20 -35 -21q-16 0 -30.5 12.5t-14.5 30.5q0 10 8 27l64 102q-53 55 -85 126t-32 149zM254 381q0 -68 35 -127l325 534q-29 18 -60.5 29.5t-66.5 11.5q-49 0 -92 -20.5t-73.5 -54t-49 -76.5t-18.5 -88v-209zM350 184q29 -23 64 -35t73 -12q49 0 91.5 20.5 t75 54.5t51 78t18.5 91v209q0 35 -11.5 68.5t-31.5 62.5z" />
<glyph unicode="&#xf9;" horiz-adv-x="1034" d="M113 377v532q0 23 24.5 42.5t61.5 19.5q33 0 58.5 -19.5t25.5 -42.5v-532q0 -45 18 -88t50 -77t75 -54.5t92 -20.5t91 20.5t74 53.5t50.5 76t18.5 90v534q0 23 25.5 41.5t60.5 18.5q37 0 60.5 -18.5t23.5 -41.5v-534q0 -78 -32 -149.5t-87 -126t-129 -86t-156 -31.5 q-84 0 -157.5 32.5t-129 87t-87 125t-31.5 148.5zM332 1372q0 25 16.5 47.5t40.5 22.5q8 0 21 -4l239 -127q27 -14 27 -45q0 -25 -17.5 -47.5t-44.5 -22.5q-6 0 -22 8l-232 119q-16 8 -22 21.5t-6 27.5z" />
<glyph unicode="&#xfa;" horiz-adv-x="1034" d="M113 377v532q0 23 24.5 42.5t61.5 19.5q33 0 58.5 -19.5t25.5 -42.5v-532q0 -45 18 -88t50 -77t75 -54.5t92 -20.5t91 20.5t74 53.5t50.5 76t18.5 90v534q0 23 25.5 41.5t60.5 18.5q37 0 60.5 -18.5t23.5 -41.5v-534q0 -78 -32 -149.5t-87 -126t-129 -86t-156 -31.5 q-84 0 -157.5 32.5t-129 87t-87 125t-31.5 148.5zM356 1266q0 31 27 45l240 127q12 4 20 4q27 0 42 -22.5t15 -47.5q0 -14 -6 -27.5t-22 -21.5l-232 -119q-6 -4 -11 -6t-11 -2q-27 0 -44.5 22.5t-17.5 47.5z" />
<glyph unicode="&#xfb;" horiz-adv-x="1034" d="M113 377v532q0 23 24.5 42.5t61.5 19.5q33 0 58.5 -19.5t25.5 -42.5v-532q0 -45 18 -88t50 -77t75 -54.5t92 -20.5t91 20.5t74 53.5t50.5 76t18.5 90v534q0 23 25.5 41.5t60.5 18.5q37 0 60.5 -18.5t23.5 -41.5v-534q0 -78 -32 -149.5t-87 -126t-129 -86t-156 -31.5 q-84 0 -157.5 32.5t-129 87t-87 125t-31.5 148.5zM238 1264q0 16 7 30.5t23 22.5l213 115q20 10 35 10q18 0 35 -10l213 -113q33 -18 33 -57q0 -23 -13.5 -40.5t-33.5 -17.5q-4 0 -9.5 2t-11.5 4l-213 115l-213 -115q-10 -6 -18 -6q-18 0 -32.5 18.5t-14.5 41.5z" />
<glyph unicode="&#xfc;" horiz-adv-x="1034" d="M113 377v532q0 23 24.5 42.5t61.5 19.5q33 0 58.5 -19.5t25.5 -42.5v-532q0 -45 18 -88t50 -77t75 -54.5t92 -20.5t91 20.5t74 53.5t50.5 76t18.5 90v534q0 23 25.5 41.5t60.5 18.5q37 0 60.5 -18.5t23.5 -41.5v-534q0 -78 -32 -149.5t-87 -126t-129 -86t-156 -31.5 q-84 0 -157.5 32.5t-129 87t-87 125t-31.5 148.5zM301 1290q0 35 24.5 59.5t59.5 24.5t58.5 -24.5t23.5 -59.5t-23.5 -60.5t-58.5 -25.5t-59.5 25.5t-24.5 60.5zM569 1290q0 35 23.5 59.5t58.5 24.5t58.5 -24.5t23.5 -59.5t-23.5 -60.5t-58.5 -25.5t-58.5 25.5t-23.5 60.5z " />
<glyph unicode="&#xfd;" horiz-adv-x="894" d="M25 901q0 16 11 31.5t27.5 27t36 17.5t35.5 6q18 0 33.5 -8t21.5 -27l271 -712l244 712q14 35 53 35q14 0 33.5 -6t37 -17.5t28.5 -26.5t11 -34q0 -12 -6 -20l-311 -834q-33 -86 -70 -177t-88 -166t-120.5 -123t-166.5 -48q-35 0 -57 14.5t-22 61.5q0 29 10 51.5t39 22.5 q45 0 91 26.5t86 74.5t71.5 115.5t48.5 151.5l-340 830q-8 12 -8 22zM315 1266q0 31 27 45l240 127q12 4 20 4q27 0 42 -22.5t15 -47.5q0 -14 -6 -27.5t-22 -21.5l-232 -119q-6 -4 -11 -6t-11 -2q-27 0 -44.5 22.5t-17.5 47.5z" />
<glyph unicode="&#xfe;" horiz-adv-x="1011" d="M123 -408v1905q0 27 23.5 43t58.5 16q39 0 63.5 -16t24.5 -43v-670q35 59 101.5 107.5t164.5 48.5q76 0 143.5 -30.5t117.5 -85t79 -126t29 -151.5v-209q0 -78 -30 -149.5t-79 -127t-114.5 -88t-137.5 -32.5q-94 0 -167.5 48t-106.5 111v-551q0 -23 -25.5 -42t-60.5 -19 q-37 0 -60.5 19.5t-23.5 41.5zM293 326q0 -20 17.5 -52t48 -63t73.5 -52.5t92 -21.5q47 0 89 20.5t75 55.5t51.5 78t18.5 90v209q0 45 -18.5 88t-51.5 76.5t-76 54t-92 20.5q-43 0 -83 -16t-72.5 -47t-52 -76t-19.5 -100v-264z" />
<glyph unicode="&#xff;" horiz-adv-x="894" d="M25 901q0 16 11 31.5t27.5 27t36 17.5t35.5 6q18 0 33.5 -8t21.5 -27l271 -712l244 712q14 35 53 35q14 0 33.5 -6t37 -17.5t28.5 -26.5t11 -34q0 -12 -6 -20l-311 -834q-33 -86 -70 -177t-88 -166t-120.5 -123t-166.5 -48q-35 0 -57 14.5t-22 61.5q0 29 10 51.5t39 22.5 q45 0 91 26.5t86 74.5t71.5 115.5t48.5 151.5l-340 830q-8 12 -8 22zM242 1290q0 35 24.5 59.5t59.5 24.5t58.5 -24.5t23.5 -59.5t-24 -60.5t-58 -25.5q-35 0 -59.5 25.5t-24.5 60.5zM510 1290q0 35 23.5 59.5t58.5 24.5t58.5 -24.5t23.5 -59.5t-23.5 -60.5t-58.5 -25.5 t-58.5 25.5t-23.5 60.5z" />
<glyph unicode="&#x152;" horiz-adv-x="1714" d="M131 434v617q0 123 32 207.5t87 138t131 77t166 23.5q94 0 180 -36t133 -113v88q0 31 24.5 46t53.5 15h676q31 0 45 -23.5t14 -52.5q0 -33 -15.5 -56.5t-43.5 -23.5h-600v-520h284q29 0 44.5 -22.5t15.5 -50.5q0 -25 -14.5 -47.5t-45.5 -22.5h-284v-522h600 q29 0 44 -23.5t15 -56.5q0 -29 -14 -52.5t-45 -23.5h-676q-29 0 -53.5 15.5t-24.5 45.5v76q-47 -78 -133 -113.5t-180 -35.5q-90 0 -166 23.5t-131 76.5t-87 138t-32 208zM303 434q0 -150 70.5 -220.5t197.5 -70.5t199 71t72 220v617q0 150 -72 220t-199 70t-197.5 -70.5 t-70.5 -219.5v-617z" />
<glyph unicode="&#x153;" horiz-adv-x="1591" d="M84 381v209q0 78 31.5 149.5t87 126t128 86t156.5 31.5q102 0 188.5 -51t137.5 -135q51 84 134 135t183 51q78 0 150 -27.5t126 -78t86 -119t32 -150.5q0 -61 -15.5 -96t-41 -52.5t-58.5 -20.5t-68 -3h-448v-61q0 -115 81 -181.5t214 -66.5q57 0 95 12.5t63.5 27.5 t45 27.5t38.5 12.5q31 0 51 -25.5t20 -54.5q0 -20 -23.5 -45t-66.5 -46.5t-102.5 -36.5t-130.5 -15q-123 0 -217.5 50t-147.5 138q-53 -84 -138 -136t-188 -52q-82 0 -154.5 32.5t-127.5 88t-88 127t-33 149.5zM254 381q0 -47 18.5 -91t50 -78t73.5 -54.5t91 -20.5 t91.5 20.5t75 54.5t51 78t18.5 91v209q0 45 -18.5 88t-50 76.5t-74.5 54t-93 20.5q-49 0 -92 -20.5t-73.5 -54t-49 -76.5t-18.5 -88v-209zM893 551h379q53 0 71.5 12t18.5 53q0 45 -17.5 87t-48 74t-73.5 51.5t-95 19.5q-49 0 -91 -17.5t-74.5 -46t-51 -69.5t-18.5 -86v-78z " />
<glyph unicode="&#x178;" horiz-adv-x="1116" d="M35 1425q0 33 34.5 52.5t67.5 19.5q23 0 36 -11t26 -34l360 -702l359 702q25 45 61 45q35 0 68.5 -19.5t33.5 -52.5q0 -16 -8 -34l-424 -791q-4 -6 -4 -20v-519q0 -31 -26.5 -46t-59.5 -15t-59.5 15.5t-26.5 45.5v519q0 10 -6 20l-424 791q-8 18 -8 34zM342 1804 q0 35 24.5 59.5t59.5 24.5t58.5 -24.5t23.5 -59.5t-23.5 -60.5t-58.5 -25.5t-59.5 25.5t-24.5 60.5zM610 1804q0 35 23.5 59.5t58.5 24.5t58.5 -24.5t23.5 -59.5t-23.5 -60.5t-58.5 -25.5t-58.5 25.5t-23.5 60.5z" />
<glyph unicode="&#x2c6;" horiz-adv-x="559" d="M0 1264q0 16 7 30.5t24 22.5l213 115q20 10 35 10q18 0 34 -10l213 -113q33 -18 33 -57q0 -23 -13.5 -40.5t-33.5 -17.5q-4 0 -9 2t-11 4l-213 115l-213 -115q-10 -6 -19 -6q-18 0 -32.5 18.5t-14.5 41.5z" />
<glyph unicode="&#x2dc;" horiz-adv-x="653" d="M0 1303q0 33 19.5 57t47 38.5t58.5 21.5t53 7q41 0 75 -10t64.5 -23.5t63.5 -23.5t74 -10q33 0 55 8t38.5 19.5t29 19.5t26.5 8q27 0 38 -21.5t11 -35.5q0 -37 -19.5 -60.5t-47 -37t-56 -19.5t-49.5 -6q-45 0 -78.5 10t-64.5 23.5t-62.5 24t-72.5 10.5q-33 0 -56.5 -9.5 t-41 -20.5t-31 -20.5t-27.5 -9.5q-27 0 -37 21.5t-10 38.5z" />
<glyph unicode="&#x2000;" horiz-adv-x="1043" />
<glyph unicode="&#x2001;" horiz-adv-x="2087" />
<glyph unicode="&#x2002;" horiz-adv-x="1043" />
<glyph unicode="&#x2003;" horiz-adv-x="2087" />
<glyph unicode="&#x2004;" horiz-adv-x="695" />
<glyph unicode="&#x2005;" horiz-adv-x="521" />
<glyph unicode="&#x2006;" horiz-adv-x="347" />
<glyph unicode="&#x2007;" horiz-adv-x="347" />
<glyph unicode="&#x2008;" horiz-adv-x="260" />
<glyph unicode="&#x2009;" horiz-adv-x="417" />
<glyph unicode="&#x200a;" horiz-adv-x="115" />
<glyph unicode="&#x2010;" horiz-adv-x="845" d="M96 492q0 31 15.5 52t44.5 21h532q23 0 42.5 -21.5t19.5 -51.5q0 -33 -19.5 -52.5t-42.5 -19.5h-532q-29 0 -44.5 19.5t-15.5 52.5z" />
<glyph unicode="&#x2011;" horiz-adv-x="845" d="M96 492q0 31 15.5 52t44.5 21h532q23 0 42.5 -21.5t19.5 -51.5q0 -33 -19.5 -52.5t-42.5 -19.5h-532q-29 0 -44.5 19.5t-15.5 52.5z" />
<glyph unicode="&#x2012;" horiz-adv-x="845" d="M96 492q0 31 15.5 52t44.5 21h532q23 0 42.5 -21.5t19.5 -51.5q0 -33 -19.5 -52.5t-42.5 -19.5h-532q-29 0 -44.5 19.5t-15.5 52.5z" />
<glyph unicode="&#x2013;" horiz-adv-x="968" d="M96 492q0 31 15.5 52t44.5 21h655q23 0 42 -21.5t19 -51.5q0 -33 -19 -52.5t-42 -19.5h-655q-29 0 -44.5 19.5t-15.5 52.5z" />
<glyph unicode="&#x2014;" horiz-adv-x="1542" d="M96 492q0 31 15.5 52t44.5 21h1228q23 0 42.5 -21.5t19.5 -51.5q0 -33 -19.5 -52.5t-42.5 -19.5h-1228q-29 0 -44.5 19.5t-15.5 52.5z" />
<glyph unicode="&#x2018;" horiz-adv-x="342" d="M61 1241q0 23 20.5 79t72.5 171q6 14 18 20.5t23 6.5q23 0 42 -13.5t19 -38.5q0 -12 -4 -20l-43 -107q29 -12 47 -38.5t18 -59.5q0 -45 -29.5 -75.5t-76.5 -30.5q-43 0 -75 30.5t-32 75.5z" />
<glyph unicode="&#x2019;" horiz-adv-x="337" d="M70 1411q0 43 29.5 75t76.5 32q43 0 75 -32t32 -75q0 -23 -20.5 -79t-72.5 -171q-6 -14 -18 -20t-22 -6q-23 0 -42.5 13t-19.5 36q0 14 4 20l43 107q-29 12 -47 38.5t-18 61.5z" />
<glyph unicode="&#x201a;" horiz-adv-x="360" d="M74 94q0 45 29.5 77t76.5 32q43 0 74 -32t31 -75q0 -23 -19.5 -79t-70.5 -171q-6 -16 -18.5 -22t-24.5 -6q-20 0 -40 14t-20 37q0 12 4 20l43 107q-29 12 -47 38.5t-18 59.5z" />
<glyph unicode="&#x201c;" horiz-adv-x="671" d="M61 1241q0 23 20.5 79t72.5 171q6 14 18 20.5t23 6.5q23 0 42 -13.5t19 -38.5q0 -12 -4 -20l-43 -107q29 -12 47 -38.5t18 -59.5q0 -45 -29.5 -75.5t-76.5 -30.5q-43 0 -75 30.5t-32 75.5zM391 1241q0 23 19.5 79t70.5 171q14 27 43 27q20 0 40 -13.5t20 -38.5 q0 -12 -4 -20l-43 -107q31 -12 49 -38.5t18 -59.5q0 -45 -30.5 -75.5t-75.5 -30.5t-76 30.5t-31 75.5z" />
<glyph unicode="&#x201d;" horiz-adv-x="665" d="M70 1411q0 43 30.5 75t75.5 32q43 0 75 -32t32 -75q0 -23 -19.5 -79t-73.5 -171q-6 -14 -18 -20t-22 -6q-20 0 -41 13t-21 36q0 10 6 20l41 107q-29 12 -47 38.5t-18 61.5zM399 1411q0 43 30 75t77 32q43 0 73.5 -32t30.5 -75q0 -23 -19.5 -79t-70.5 -171 q-6 -14 -18.5 -20t-24.5 -6q-20 0 -39.5 13t-19.5 36q0 14 4 20l43 107q-29 12 -47.5 38.5t-18.5 61.5z" />
<glyph unicode="&#x201e;" horiz-adv-x="690" d="M74 94q0 45 29.5 77t76.5 32q43 0 74 -32t31 -75q0 -23 -19.5 -79t-70.5 -171q-6 -16 -18.5 -22t-24.5 -6q-20 0 -40 14t-20 37q0 12 4 20l43 107q-29 12 -47 38.5t-18 59.5zM401 94q0 45 31 77t76 32q43 0 74.5 -32t31.5 -75q0 -23 -20.5 -79t-71.5 -171q-6 -16 -18 -22 t-23 -6q-20 0 -40.5 14t-20.5 37q0 4 4 20l43 107q-29 12 -47.5 38.5t-18.5 59.5z" />
<glyph unicode="&#x2022;" horiz-adv-x="651" d="M92 614q0 45 18.5 86t51.5 72t76 49.5t90 18.5q45 0 87 -18.5t74.5 -49.5t51 -72t18.5 -86t-18.5 -86t-51 -72.5t-74.5 -50t-87 -18.5q-47 0 -90 18.5t-76 50t-51.5 72.5t-18.5 86z" />
<glyph unicode="&#x2026;" horiz-adv-x="1116" d="M76 94q0 45 29.5 77t76.5 32q43 0 74 -32t31 -77q0 -41 -31 -73.5t-74 -32.5q-47 0 -76.5 32.5t-29.5 73.5zM455 94q0 45 29.5 77t76.5 32q43 0 74 -32t31 -77q0 -41 -31 -73.5t-74 -32.5q-47 0 -76.5 32.5t-29.5 73.5zM831 94q0 45 30 77t77 32q43 0 73.5 -32t30.5 -77 q0 -41 -30.5 -73.5t-73.5 -32.5q-47 0 -77 32.5t-30 73.5z" />
<glyph unicode="&#x202f;" horiz-adv-x="417" />
<glyph unicode="&#x2039;" horiz-adv-x="503" d="M66 567q0 16 8 31.5t20 38.5l172 321q16 27 56 27q41 0 70.5 -28.5t29.5 -57.5q0 -10 -6 -22l-166 -310l166 -309q6 -10 6 -22q0 -29 -31 -56.5t-72 -27.5q-39 0 -53 26l-172 320q-12 23 -20 38t-8 31z" />
<glyph unicode="&#x203a;" horiz-adv-x="503" d="M82 236q0 12 6 22l166 309l-166 310q-6 12 -6 22q0 29 29.5 57.5t70.5 28.5t56 -27l172 -321q12 -23 20 -38t8 -32q0 -16 -8 -31.5t-20 -37.5l-172 -320q-14 -27 -54 -26q-41 0 -71.5 27.5t-30.5 56.5z" />
<glyph unicode="&#x205f;" horiz-adv-x="521" />
<glyph unicode="&#x20ac;" horiz-adv-x="1210" d="M59 565q0 29 16.5 48.5t43.5 19.5h119v180h-119q-27 0 -43.5 17.5t-16.5 46.5t16.5 48t43.5 19h119v107q0 123 33.5 207.5t93 138t139.5 77t172 23.5q100 0 182 -26.5t140.5 -74.5t90 -116t31.5 -150q0 -47 -21.5 -64t-64.5 -17q-86 0 -86 57q0 98 -66.5 166.5 t-201.5 68.5q-129 0 -199.5 -70.5t-70.5 -219.5v-107h303q23 0 42 -18.5t19 -46.5q0 -29 -19.5 -47.5t-41.5 -18.5h-303v-180h303q23 0 42 -19.5t19 -48.5t-19.5 -46t-41.5 -17h-303v-82q0 -57 15 -107.5t48 -88.5t85 -59.5t124 -21.5q129 0 197.5 68t68.5 176q0 57 86 57 q43 0 64.5 -17t21.5 -67q0 -82 -31.5 -150.5t-90 -117.5t-140.5 -76.5t-182 -27.5q-199 0 -318.5 108.5t-119.5 323.5v82h-119q-27 0 -43.5 17.5t-16.5 45.5z" />
<glyph unicode="&#x2122;" horiz-adv-x="1306" d="M84 1522q0 18 9 34.5t28 16.5h414q18 0 26 -16.5t8 -34.5q0 -20 -9 -37t-25 -17h-152v-460q0 -18 -16.5 -27.5t-38.5 -9.5q-23 0 -39.5 9t-16.5 28v460h-151q-16 0 -26.5 16.5t-10.5 37.5zM621 1008v510q0 31 17 43t38 12q29 0 49 -14.5t37 -51.5l137 -305l137 305 q16 37 36 51.5t48 14.5q23 0 39.5 -12.5t16.5 -42.5v-510q0 -18 -16.5 -27.5t-39.5 -9.5q-20 0 -36.5 9t-16.5 28v333l-131 -286q-8 -16 -18.5 -22.5t-20.5 -6.5q-27 0 -37 29l-129 293v-340q0 -18 -17.5 -27.5t-37.5 -9.5t-37.5 9t-17.5 28z" />
<glyph unicode="&#x25fc;" horiz-adv-x="983" d="M0 0v983h983v-983h-983z" />
</font>
</defs>
</svg>
