<?xml version="1.0" standalone="no"?>
<!DOCTYPE svg PUBLIC "-//W3C//DTD SVG 1.1//EN" "http://www.w3.org/Graphics/SVG/1.1/DTD/svg11.dtd" >
<svg xmlns="http://www.w3.org/2000/svg" xmlns:xlink="http://www.w3.org/1999/xlink" version="1.1">
<metadata>
Created by FontForge 20170731 at Fri Sep 12 15:08:00 2008
 By Aleksey,,,
Copyright (c) 2008 by Jos Buivenga. All rights reserved.
</metadata>
<defs>
<font id="MuseoSans-300" horiz-adv-x="382" >
  <font-face 
    font-family="Museo Sans 300"
    font-weight="300"
    font-stretch="normal"
    units-per-em="1000"
    panose-1="2 0 0 0 0 0 0 0 0 0"
    ascent="750"
    descent="-250"
    x-height="503"
    cap-height="703"
    bbox="-118 -210 1088 883"
    underline-thickness="50"
    underline-position="-200"
    unicode-range="U+0020-FB04"
  />
<missing-glyph horiz-adv-x="510" 
d="M5 0v700h500v-700h-500zM255 395l170 255h-340zM285 350l170 -255v510zM55 95l170 255l-170 255v-510zM85 50h340l-170 255z" />
    <glyph glyph-name="f_f" unicode="ff" horiz-adv-x="640" 
d="M425 0v446h-252v-446h-68v446h-63v57h63v18q0 58 18.5 98.5t48.5 58t55 24t52 6.5l31 -2v-61q-10 2 -24 2q-18 0 -34.5 -4.5t-36 -16t-31 -39t-11.5 -66.5v-18h252v18q0 58 18.5 98.5t48.5 58t55 24t52 6.5l31 -2v-61q-10 2 -24 2q-18 0 -34.5 -4.5t-36 -16t-31 -39
t-11.5 -66.5v-18h129v-57h-129v-446h-68z" />
    <glyph glyph-name="fi" unicode="fi" horiz-adv-x="552" 
d="M402 0v446h-229v-446h-68v446h-63v57h63v18q0 58 18.5 98.5t48.5 58t55 24t52 6.5l31 -2v-61q-10 2 -24 2q-18 0 -34.5 -4.5t-36 -16t-31 -39t-11.5 -66.5v-18h297v-503h-68zM400 618v85h71v-85h-71z" />
    <glyph glyph-name="fl" unicode="fl" horiz-adv-x="567" 
d="M105 0v440h-63v57h63v24q0 58 18.5 98.5t48.5 58t55 24t52 6.5l31 -2v-61q-10 2 -24 2q-18 0 -34.5 -4.5t-36 -16t-31 -39t-11.5 -66.5v-24h129v-57h-129v-440h-68zM397 119v584h68v-569q0 -76 56 -76l17 1v-61q-12 -2 -25 -2q-116 0 -116 123z" />
    <glyph glyph-name="f_f_i" unicode="ffi" horiz-adv-x="872" 
d="M425 0v446h-252v-446h-68v446h-63v57h63v18q0 58 18.5 98.5t48.5 58t55 24t52 6.5l31 -2v-61q-10 2 -24 2q-18 0 -34.5 -4.5t-36 -16t-31 -39t-11.5 -66.5v-18h252v18q0 58 18.5 98.5t48.5 58t55 24t52 6.5l31 -2v-61q-10 2 -24 2q-18 0 -34.5 -4.5t-36 -16t-31 -39
t-11.5 -66.5v-18h297v-503h-68v446h-229v-446h-68zM720 618v85h71v-85h-71z" />
    <glyph glyph-name="f_f_l" unicode="ffl" horiz-adv-x="887" 
d="M425 0v446h-252v-446h-68v446h-63v57h63v18q0 58 18.5 98.5t48.5 58t55 24t52 6.5l31 -2v-61q-10 2 -24 2q-18 0 -34.5 -4.5t-36 -16t-31 -39t-11.5 -66.5v-18h252v18q0 58 18.5 98.5t48.5 58t55 24t52 6.5l31 -2v-61q-10 2 -24 2q-18 0 -34.5 -4.5t-36 -16t-31 -39
t-11.5 -66.5v-18h129v-57h-129v-446h-68zM717 119v584h68v-569q0 -76 56 -76l17 1v-61q-12 -2 -25 -2q-116 0 -116 123z" />
    <glyph glyph-name="f_j" unicode="fj" horiz-adv-x="552" 
d="M105 0v446h-63v57h63v18q0 58 18.5 98.5t48.5 58t55 24t52 6.5l31 -2v-61q-10 2 -24 2q-18 0 -34.5 -4.5t-36 -16t-31 -39t-11.5 -66.5v-18h297v-522q0 -59 -18.5 -99t-49 -57.5t-55.5 -24t-52 -6.5l-30 3v59q9 -1 22 -1q18 0 35 4.5t36.5 16.5t31.5 40t12 68v462h-229
v-446h-68zM401 618v85h70v-85h-70z" />
    <glyph glyph-name=".notdef" horiz-adv-x="510" 
d="M5 0v700h500v-700h-500zM255 395l170 255h-340zM285 350l170 -255v510zM55 95l170 255l-170 255v-510zM85 50h340l-170 255z" />
    <glyph glyph-name=".null" horiz-adv-x="0" 
 />
    <glyph glyph-name="nonmarkingreturn" horiz-adv-x="333" 
 />
    <glyph glyph-name="space" unicode=" " horiz-adv-x="269" 
 />
    <glyph glyph-name="exclam" unicode="!" horiz-adv-x="307" 
d="M121 184l-3 519h70l-3 -519h-64zM116 0v77h77v-77h-77z" />
    <glyph glyph-name="quotedbl" unicode="&#x22;" horiz-adv-x="318" 
d="M190 544v169h59v-169h-59zM69 544v169h59v-169h-59z" />
    <glyph glyph-name="numbersign" unicode="#" horiz-adv-x="724" 
d="M155 0l34 195h-142l10 56h141l35 196h-141l9 56h142l35 200h61l-35 -200h173l35 200h61l-35 -200h140l-10 -56h-140l-34 -196h139l-9 -56h-140l-34 -195h-61l34 195h-173l-34 -195h-61zM260 251h172l35 196h-173z" />
    <glyph glyph-name="dollar" unicode="$" horiz-adv-x="557" 
d="M61 78l42 53l8.5 -8.5t24 -18.5t38.5 -23t51 -18.5t62 -8.5q60 0 100 33.5t40 88.5q0 47 -36.5 80.5t-88.5 56t-104 46.5t-88.5 66t-36.5 101q0 70 51 123t133 63v95h56v-93q48 -3 90 -19.5t59 -32.5l18 -15l-34 -58q-7 7 -20 17t-53.5 26.5t-80.5 16.5q-66 0 -107 -36
t-41 -85q0 -37 26 -66t65.5 -46t85 -38.5t85 -43.5t65.5 -62.5t26 -93.5q0 -74 -50 -127t-134 -61v-93h-56v93q-56 4 -105 26t-70 42z" />
    <glyph glyph-name="percent" unicode="%" horiz-adv-x="730" 
d="M196 437q-58 0 -99 40.5t-41 98.5q0 57 41 98t99 41t99.5 -41t41.5 -98q0 -58 -41 -98.5t-100 -40.5zM62 0l536 703h71l-535 -703h-72zM196 493q34 0 58 24t24 59q0 34 -24 58.5t-58 24.5t-57.5 -24.5t-23.5 -58.5q0 -35 23.5 -59t57.5 -24zM394 126q0 58 41 99t99 41
t99.5 -41t41.5 -99q0 -57 -41.5 -97.5t-99.5 -40.5t-99 40.5t-41 97.5zM454 127q0 -35 23 -59t57 -24t58 24t24 59q0 34 -24 58.5t-58 24.5t-57 -24.5t-23 -58.5z" />
    <glyph glyph-name="ampersand" unicode="&#x26;" horiz-adv-x="674" 
d="M60 194q0 63 34 115t94 70v2q-4 1 -10.5 4t-23.5 15t-30 28t-23.5 45t-10.5 64q0 81 57.5 129.5t153.5 48.5q15 0 35 -2.5t32 -4.5l13 -3l-20 -58q-33 7 -58 7q-61 0 -101 -32.5t-40 -88.5q0 -21 5.5 -40t20 -40.5t47 -34t78.5 -12.5h148v99h69v-99h95v-62h-95v-103
q0 -123 -62.5 -188t-170.5 -65q-105 0 -171 58.5t-66 147.5zM131 198q0 -62 45 -103.5t121 -41.5q164 0 164 190v101h-148q-89 0 -135.5 -39t-46.5 -107z" />
    <glyph glyph-name="quotesingle" unicode="'" horiz-adv-x="197" 
d="M69 544v169h59v-169h-59z" />
    <glyph glyph-name="parenleft" unicode="(" horiz-adv-x="290" 
d="M193 -95q-113 194 -113 432q0 209 113 393h63q-113 -191 -113 -393q0 -229 113 -432h-63z" />
    <glyph glyph-name="parenright" unicode=")" horiz-adv-x="289" 
d="M97 -95h-63q113 201 113 432q0 202 -113 393h63q113 -184 113 -393q0 -238 -113 -432z" />
    <glyph glyph-name="asterisk" unicode="*" horiz-adv-x="471" 
d="M149 337l-53 38l94 120v2l-147 42l20 63l144 -53l-6 154h68l-7 -154l146 52l20 -61l-148 -43v-2l94 -120l-52 -39l-86 127h-2z" />
    <glyph glyph-name="plus" unicode="+" horiz-adv-x="688" 
d="M83 255v58h231v255h61v-255h230v-58h-230v-255h-61v255h-231z" />
    <glyph glyph-name="comma" unicode="," horiz-adv-x="244" 
d="M36 -97l57 179h75l-74 -179h-58z" />
    <glyph glyph-name="hyphen" unicode="-" horiz-adv-x="492" 
d="M104 253v62h284v-62h-284z" />
    <glyph glyph-name="period" unicode="." horiz-adv-x="247" 
d="M84 0v80h79v-80h-79z" />
    <glyph glyph-name="slash" unicode="/" horiz-adv-x="392" 
d="M41 -42l254 784h63l-253 -784h-64z" />
    <glyph glyph-name="zero" unicode="0" horiz-adv-x="625" 
d="M313 -12q-243 0 -243 364q0 107 21.5 185t77.5 128t144 50q242 0 242 -363q0 -364 -242 -364zM313 53q170 0 170 299q0 298 -170 298q-171 0 -171 -298q0 -299 171 -299z" />
    <glyph glyph-name="one" unicode="1" horiz-adv-x="466" 
d="M56 0v62h158v516l1 39h-2q-7 -15 -35 -42l-75 -75l-44 45l159 158h64v-641h155v-62h-381z" />
    <glyph glyph-name="two" unicode="2" horiz-adv-x="565" 
d="M64 0q-4 21 -4 45q0 50 20 93.5t51.5 75t70 60t77 54.5t70 52.5t51.5 61t20 72.5q0 59 -40.5 97t-105.5 38q-29 0 -55.5 -10t-44.5 -24t-31.5 -28t-19.5 -24l-6 -10l-52 35q3 5 8 13.5t24 30.5t41.5 39t60 30.5t79.5 13.5q98 0 156 -56t58 -141q0 -48 -19.5 -89.5
t-51 -72t-69.5 -58t-75.5 -53t-69 -52t-51.5 -60t-20 -71.5h367v-62h-439z" />
    <glyph glyph-name="three" unicode="3" horiz-adv-x="562" 
d="M45 84l42 53q8 -9 23 -23t62 -37t95 -23q65 0 113 43t48 109q0 71 -51.5 110.5t-125.5 39.5h-48l-17 41l176 206l37 39v2q-20 -3 -57 -3h-264v62h411v-46l-210 -242q37 -2 72.5 -13.5t70 -34.5t56 -64t21.5 -95q0 -91 -66 -155.5t-165 -64.5q-39 0 -76 10t-62.5 24
t-45.5 28t-30 24z" />
    <glyph glyph-name="four" unicode="4" horiz-adv-x="597" 
d="M34 195v45l346 463h75v-447h100v-61h-100v-195h-69v195h-352zM118 256h268v294l3 66h-2q-16 -28 -35 -53l-234 -305v-2z" />
    <glyph glyph-name="five" unicode="5" horiz-adv-x="558" 
d="M54 88l44 48q2 -3 6 -8.5t19 -20t32 -25t44.5 -19.5t57.5 -9q74 0 124.5 47t50.5 118t-51 118t-127 47q-33 0 -65 -9.5t-47 -18.5l-16 -10l-44 16l38 341h340v-62h-280l-20 -180l-7 -40h2q44 27 107 27q105 0 173.5 -66.5t68.5 -162.5q0 -97 -70.5 -164t-173.5 -67
q-39 0 -74.5 10.5t-58.5 25t-40.5 29t-24.5 25.5z" />
    <glyph glyph-name="six" unicode="6" horiz-adv-x="595" 
d="M319 -12q-114 0 -184 93t-70 237q0 69 18.5 137t54 127t97 96t139.5 37q35 0 67 -7.5t47 -14.5l15 -7l-26 -61q-44 25 -102 25q-70 0 -122.5 -43t-79 -104.5t-32.5 -134.5h2q25 37 74 59.5t104 22.5q96 0 157.5 -63.5t61.5 -163.5q0 -107 -63 -171t-158 -64zM318 53
q70 0 110.5 47.5t40.5 121.5q0 75 -43.5 120.5t-115.5 45.5q-68 0 -119 -38t-51 -82q0 -76 52 -145.5t126 -69.5z" />
    <glyph glyph-name="seven" unicode="7" horiz-adv-x="520" 
d="M97 0l284 576q8 17 18 33l15 24l6 8v2q-18 -2 -53 -2h-329v62h457v-48l-326 -655h-72z" />
    <glyph glyph-name="eight" unicode="8" horiz-adv-x="602" 
d="M64 202q0 39 15 75t37.5 60.5t37 37t25.5 19.5q-87 57 -87 143q0 74 55.5 126t156.5 52q98 0 156.5 -50t58.5 -133q0 -45 -22 -92.5t-37 -66.5t-27 -31q102 -58 102 -151q0 -84 -66.5 -143.5t-166.5 -59.5q-99 0 -168.5 58.5t-69.5 155.5zM464 192q0 26 -12.5 47
t-39.5 39t-49.5 29.5t-64.5 29t-62 27.5q-12 -7 -25.5 -18.5t-32.5 -31.5t-31 -49t-12 -60q0 -68 50 -110.5t117 -42.5q65 0 113.5 40t48.5 100zM162 536q0 -22 10 -41.5t22 -32t38.5 -27.5t42 -22t51.5 -22t50 -21q12 11 25.5 28t30.5 55t17 76q0 56 -40.5 89t-104.5 33
q-65 0 -103.5 -33t-38.5 -82z" />
    <glyph glyph-name="nine" unicode="9" horiz-adv-x="594" 
d="M220 -12q-34 0 -66.5 7t-47.5 15l-15 7l26 61q44 -25 102 -25q103 0 163.5 83.5t71.5 198.5h-2q-26 -37 -75 -59.5t-104 -22.5q-96 0 -157 63.5t-61 163.5q0 107 62.5 171t157.5 64q114 0 184 -93t70 -237q0 -69 -18.5 -136.5t-54 -127t-97 -96.5t-139.5 -37zM284 315
q69 0 119.5 38t50.5 82q0 76 -52 145.5t-126 69.5q-70 0 -110.5 -47.5t-40.5 -121.5q0 -75 43.5 -120.5t115.5 -45.5z" />
    <glyph glyph-name="colon" unicode=":" horiz-adv-x="293" 
d="M107 423v80h79v-80h-79zM107 0v80h79v-80h-79z" />
    <glyph glyph-name="semicolon" unicode=";" horiz-adv-x="293" 
d="M62 -97l49 179h75l-66 -179h-58zM111 423v80h79v-80h-79z" />
    <glyph glyph-name="less" unicode="&#x3c;" horiz-adv-x="567" 
d="M50 259v50l452 202v-67l-367 -159v-2l367 -159v-67z" />
    <glyph glyph-name="equal" unicode="=" horiz-adv-x="684" 
d="M109 342v58h466v-58h-466zM109 168v58h466v-58h-466z" />
    <glyph glyph-name="greater" unicode="&#x3e;" horiz-adv-x="567" 
d="M65 57v67l367 159v2l-367 159v67l452 -202v-50z" />
    <glyph glyph-name="question" unicode="?" horiz-adv-x="481" 
d="M154 184v45q0 44 18 80t43.5 60.5t51.5 47.5t44 53.5t18 65.5q0 49 -37 82t-94 33q-30 0 -60.5 -10.5t-45.5 -21.5l-15 -11l-37 51q7 6 20 15.5t55 25.5t86 16q86 0 143 -50t57 -127q0 -46 -18.5 -83t-44.5 -61.5t-52.5 -47.5t-45 -53.5t-18.5 -66.5v-43h-68zM150 0v77
h77v-77h-77z" />
    <glyph glyph-name="at" unicode="@" horiz-adv-x="805" 
d="M65 242q0 153 104.5 260t251.5 107q126 0 185.5 -54t59.5 -135v-315h71v-56h-269q-85 0 -142.5 56.5t-57.5 135.5t57 135.5t143 56.5h130q-2 50 -45 83.5t-127 33.5q-122 0 -206.5 -90.5t-84.5 -217.5q0 -129 84.5 -217.5t211.5 -88.5v-60q-155 0 -260.5 106.5
t-105.5 259.5zM338 242q0 -57 39.5 -97t96.5 -40h124v275h-122q-59 0 -98.5 -40.5t-39.5 -97.5z" />
    <glyph glyph-name="A" unicode="A" horiz-adv-x="616" 
d="M530 0l-81 224h-283l-80 -224h-73l258 703h74l258 -703h-73zM309 630h-2q-15 -58 -27 -91l-94 -255h242l-92 255z" />
    <glyph glyph-name="B" unicode="B" horiz-adv-x="626" 
d="M102 0v703h240q85 0 137.5 -48t52.5 -129q0 -108 -89 -153v-2q54 -15 86 -62.5t32 -111.5q0 -91 -60 -144t-151 -53h-248zM171 398h171q53 0 86 34t33 89t-32 87.5t-88 32.5h-170v-243zM171 62h180q64 0 101 37t37 100t-38.5 101t-100.5 38h-179v-276z" />
    <glyph glyph-name="C" unicode="C" horiz-adv-x="728" 
d="M55 356q0 153 101 256t252 103q47 0 90.5 -9.5t71.5 -22.5t49.5 -26.5t31.5 -22.5l10 -10l-37 -51q-3 3 -9.5 8.5t-28 19t-44.5 23.5t-59 18.5t-73 8.5q-123 0 -203 -84.5t-80 -209.5q0 -128 80.5 -216.5t204.5 -88.5q40 0 78 9.5t64 23.5t46.5 28t29.5 23l10 10l40 -49
l-11.5 -11.5t-33.5 -26.5t-55 -33t-75 -26t-94 -12q-154 0 -255 106t-101 262z" />
    <glyph glyph-name="D" unicode="D" horiz-adv-x="740" 
d="M102 0v703h227q160 0 256.5 -93.5t96.5 -257.5q0 -166 -96 -259t-257 -93h-227zM171 62h151q132 0 210 75.5t78 214.5q0 138 -78 213.5t-210 75.5h-151v-579z" />
    <glyph glyph-name="E" unicode="E" horiz-adv-x="571" 
d="M102 0v703h396v-62h-327v-256h267v-62h-267v-261h345v-62h-414z" />
    <glyph glyph-name="F" unicode="F" horiz-adv-x="514" 
d="M102 0v703h370v-62h-301v-264h258v-62h-258v-315h-69z" />
    <glyph glyph-name="G" unicode="G" horiz-adv-x="758" 
d="M55 352q0 153 101.5 258t252.5 105q72 0 134.5 -20.5t88.5 -40.5l27 -21l-37 -52q-9 8 -26.5 19.5t-72 31t-111.5 19.5q-126 0 -205.5 -85.5t-79.5 -212.5q0 -130 79.5 -215.5t199.5 -85.5q61 0 116 26t80 52l25 25v119h-120v62h186v-336h-64v53l1 30h-2
q-3 -4 -9.5 -10.5t-28.5 -22.5t-46.5 -28.5t-64 -23t-80.5 -10.5q-145 0 -244.5 104t-99.5 260z" />
    <glyph glyph-name="H" unicode="H" horiz-adv-x="750" 
d="M102 0v703h69v-320h408v320h69v-703h-69v321h-408v-321h-69z" />
    <glyph glyph-name="I" unicode="I" horiz-adv-x="273" 
d="M102 0v703h69v-703h-69z" />
    <glyph glyph-name="J" unicode="J" horiz-adv-x="524" 
d="M35 197v28h69v-26q0 -75 37.5 -111t91.5 -36q53 0 90.5 35t37.5 110v444h-172v62h241v-506q0 -106 -58 -157.5t-140 -51.5q-81 0 -139 52t-58 157z" />
    <glyph glyph-name="K" unicode="K" horiz-adv-x="601" 
d="M102 0v703h69v-305h119l189 305h79l-210 -332v-2l224 -369h-81l-201 336h-119v-336h-69z" />
    <glyph glyph-name="L" unicode="L" horiz-adv-x="518" 
d="M102 0v703h69v-641h326v-62h-395z" />
    <glyph glyph-name="M" unicode="M" horiz-adv-x="854" 
d="M80 0l56 703h72l184 -413l34 -86h2q19 50 35 86l184 413h71l56 -703h-69l-39 492l-2 98h-2q-21 -62 -37 -98l-165 -361h-65l-165 361l-38 100h-2q1 -62 -2 -100l-39 -492h-69z" />
    <glyph glyph-name="N" unicode="N" horiz-adv-x="753" 
d="M102 0v703h67l359 -506l58 -95h2q-6 58 -6 95v506h69v-703h-67l-359 506l-58 95h-2q6 -58 6 -95v-506h-69z" />
    <glyph glyph-name="O" unicode="O" horiz-adv-x="824" 
d="M54 356q0 151 104 255t254 104t254 -104t104 -255q0 -154 -104.5 -261t-253.5 -107t-253.5 107t-104.5 261zM126 356q0 -128 83 -216t203 -88q119 0 202.5 88t83.5 216q0 125 -83.5 210t-202.5 85q-120 0 -203 -85t-83 -210z" />
    <glyph glyph-name="P" unicode="P" horiz-adv-x="598" 
d="M102 0v703h243q96 0 156.5 -58t60.5 -154q0 -97 -60.5 -156t-156.5 -59h-174v-276h-69zM171 338h165q71 0 113 41t42 112q0 70 -41.5 110t-112.5 40h-166v-303z" />
    <glyph glyph-name="Q" unicode="Q" horiz-adv-x="835" 
d="M54 356q0 151 103.5 255t252.5 104q152 0 256 -104t104 -255q0 -139 -88 -242l87 -87l-42 -43l-86 87q-97 -83 -231 -83q-149 0 -252.5 107t-103.5 261zM126 356q0 -128 82 -216t202 -88q105 0 182 66l-86 88l42 43l85 -87q65 83 65 194q0 126 -83 210.5t-205 84.5
q-120 0 -202 -84.5t-82 -210.5z" />
    <glyph glyph-name="R" unicode="R" horiz-adv-x="628" 
d="M102 0v703h208q88 0 132 -19q50 -22 78 -69.5t28 -111.5q0 -71 -36.5 -122t-96.5 -68v-2q7 -9 18 -28l153 -283h-79l-159 296h-177v-296h-69zM171 358h167q64 0 101.5 38.5t37.5 104.5q0 89 -64 123q-32 17 -100 17h-142v-283z" />
    <glyph glyph-name="S" unicode="S" horiz-adv-x="538" 
d="M50 78l41 53l8.5 -8.5t24 -18.5t38.5 -23t51 -18.5t62 -8.5q60 0 100 33.5t40 88.5q0 48 -36 82t-87.5 55.5t-103.5 45t-88 65.5t-36 102q0 78 62 133.5t157 55.5q54 0 101 -17t67 -34l20 -17l-34 -58q-7 7 -20 17t-53 26.5t-81 16.5q-65 0 -106.5 -36t-41.5 -85
q0 -46 36 -77.5t87.5 -52.5t103.5 -44.5t88 -67.5t36 -108q0 -81 -58 -135.5t-155 -54.5q-64 0 -119.5 22.5t-79.5 45.5z" />
    <glyph glyph-name="T" unicode="T" horiz-adv-x="588" 
d="M260 0v641h-253v62h574v-62h-252v-641h-69z" />
    <glyph glyph-name="U" unicode="U" horiz-adv-x="724" 
d="M93 245v458h70v-457q0 -90 54 -142t145 -52q92 0 146 52.5t54 143.5v455h69v-458q0 -116 -74 -186.5t-194 -70.5q-121 0 -195.5 70.5t-74.5 186.5z" />
    <glyph glyph-name="V" unicode="V" horiz-adv-x="618" 
d="M273 0l-261 703h74l195 -534l27 -91h2q14 55 27 91l195 534h74l-261 -703h-72z" />
    <glyph glyph-name="W" unicode="W" horiz-adv-x="927" 
d="M463 600h-2q-11 -60 -23 -105l-134 -495h-83l-182 703h72l136 -546l16 -75h2l2 10q2 11 6 30t8 35l148 546h66l148 -546q4 -16 8 -35t6 -30l2 -10h2q7 39 16 75l141 546h72l-187 -703h-83l-134 495z" />
    <glyph glyph-name="X" unicode="X" horiz-adv-x="592" 
d="M26 0l224 367l-204 336h81l123 -208l46 -81h2q20 45 42 81l124 208h82l-206 -336l225 -367h-80l-146 243l-44 78h-2q-21 -42 -43 -79l-144 -242h-80z" />
    <glyph glyph-name="Y" unicode="Y" horiz-adv-x="574" 
d="M252 0v302l-237 401h79l149 -255l43 -84h2q21 47 43 84l149 255h78l-236 -401v-302h-70z" />
    <glyph glyph-name="Z" unicode="Z" horiz-adv-x="595" 
d="M43 0v49l363 528l49 64v2q-17 -2 -51 -2h-342v62h479v-49l-363 -528q-12 -17 -24.5 -33t-19.5 -23l-6 -8v-2q18 2 52 2h364v-62h-501z" />
    <glyph glyph-name="bracketleft" unicode="[" horiz-adv-x="282" 
d="M107 -95v825h135v-56h-72v-713h72v-56h-135z" />
    <glyph glyph-name="backslash" unicode="\" horiz-adv-x="393" 
d="M288 -42l-254 784h64l253 -784h-63z" />
    <glyph glyph-name="bracketright" unicode="]" horiz-adv-x="282" 
d="M40 -39h72v713h-72v56h135v-825h-135v56z" />
    <glyph glyph-name="asciicircum" unicode="^" horiz-adv-x="606" 
d="M73 250l198 453h47l198 -453h-65l-156 370l-156 -370h-66z" />
    <glyph glyph-name="underscore" unicode="_" horiz-adv-x="584" 
d="M34 0h516v-58h-516v58z" />
    <glyph glyph-name="grave" unicode="`" horiz-adv-x="504" 
d="M264 752l-86 119h79l69 -119h-62z" />
    <glyph glyph-name="a" unicode="a" horiz-adv-x="520" 
d="M41 137q0 174 308 174h28v13q0 130 -125 130q-37 0 -72.5 -12t-52.5 -24l-17 -12l-32 52q7 6 21.5 15.5t61 25.5t96.5 16q91 0 139.5 -49.5t48.5 -143.5v-322h-65v55l2 42h-2q-2 -4 -5.5 -11.5t-17.5 -26.5t-31.5 -33t-48 -26t-65.5 -12q-69 0 -120 39t-51 110zM111 141
q0 -38 29.5 -66.5t82.5 -28.5q68 0 111 58t43 129v22h-29q-42 0 -72.5 -2.5t-73.5 -12.5t-67 -35t-24 -64z" />
    <glyph glyph-name="b" unicode="b" horiz-adv-x="589" 
d="M82 0v703h68v-244l-2 -41h2q2 4 5.5 10.5t17.5 23t32 29.5t49 23.5t67 10.5q100 0 159.5 -73t59.5 -191t-63.5 -190.5t-163.5 -72.5q-34 0 -63 10t-47 24.5t-31 29t-18 24.5l-6 10h-2q2 -17 2 -41v-45h-66zM148 250q0 -82 42 -142t118 -60q69 0 115.5 55t46.5 148
q0 92 -44 147t-115 55q-69 0 -116 -51t-47 -152z" />
    <glyph glyph-name="c" unicode="c" horiz-adv-x="549" 
d="M47 251q0 115 76 189.5t188 74.5q34 0 66 -7.5t52.5 -18t36 -21t22.5 -18.5l7 -7l-35 -51q-6 7 -18 17t-50.5 27t-78.5 17q-84 0 -140 -56.5t-56 -145.5q0 -88 57 -145t141 -57q29 0 56 7.5t45 17.5t32.5 20.5t21.5 17.5l6 8l31 -53q-3 -3 -8 -8.5t-24 -19t-40 -24
t-54.5 -19t-69.5 -8.5q-113 0 -188.5 73.5t-75.5 189.5z" />
    <glyph glyph-name="d" unicode="d" horiz-adv-x="589" 
d="M49 252q0 118 63 190.5t163 72.5q34 0 63.5 -10t47 -23.5t30.5 -27.5t18 -24l5 -10h2q-2 17 -2 38v245h68v-703h-66v53l2 36h-2l-5.5 -11t-17.5 -24.5t-32 -30.5t-49.5 -24t-68.5 -11q-100 0 -159.5 73t-59.5 191zM119 252q0 -92 44 -147.5t115 -55.5q69 0 116 51t47 152
q0 83 -42 142.5t-118 59.5q-69 0 -115.5 -55t-46.5 -147z" />
    <glyph glyph-name="e" unicode="e" horiz-adv-x="553" 
d="M47 251q0 120 71.5 192t176.5 72q100 0 155 -66.5t55 -165.5l-2 -35h-386q2 -93 57.5 -146t137.5 -53q41 0 79 15t56 30l18 16l31 -52q-8 -8 -23.5 -19.5t-64 -31t-98.5 -19.5q-113 0 -188 74t-75 189zM120 304h316q-3 75 -43 114.5t-100 39.5q-66 0 -113.5 -40.5
t-59.5 -113.5z" />
    <glyph glyph-name="f" unicode="f" horiz-adv-x="320" 
d="M105 0v440h-63v57h63v24q0 58 18.5 98.5t48.5 58t55 24t52 6.5l31 -2v-61q-10 2 -24 2q-18 0 -34.5 -4.5t-36 -16t-31 -39t-11.5 -66.5v-24h129v-57h-129v-440h-68z" />
    <glyph glyph-name="g" unicode="g" horiz-adv-x="582" 
d="M120 -114q62 -35 136 -35q79 0 127.5 39t48.5 119v46l2 36h-2q-47 -88 -159 -88q-101 0 -162.5 72t-61.5 186t59 184t159 70q37 0 68 -8.5t48.5 -21t29.5 -25t16 -20.5l4 -9h2q-1 6 -1 17v55h66v-491q0 -112 -69.5 -167t-171.5 -55q-87 0 -165 40zM284 64
q66 0 107.5 46.5t41.5 150.5q0 192 -159 192q-73 0 -114 -50.5t-41 -140.5t45 -144t120 -54z" />
    <glyph glyph-name="h" unicode="h" horiz-adv-x="593" 
d="M82 0v703h68v-272l-2 -41h2q18 45 70.5 85t129.5 40q90 0 129 -49t39 -146v-320h-68v302q0 71 -21.5 110t-87.5 39q-64 0 -115 -40t-68 -103q-8 -27 -8 -67v-241h-68z" />
    <glyph glyph-name="i" unicode="i" horiz-adv-x="232" 
d="M80 618v85h71v-85h-71zM82 0v503h68v-503h-68z" />
    <glyph glyph-name="j" unicode="j" horiz-adv-x="232" 
d="M81 618v85h70v-85h-70zM82 503h68v-522q0 -59 -18.5 -99t-49 -57.5t-55.5 -24t-52 -6.5l-30 3v59q9 -1 22 -1q18 0 35 4.5t36.5 16.5t31.5 40t12 68v519z" />
    <glyph glyph-name="k" unicode="k" horiz-adv-x="502" 
d="M82 0v703h68v-392h80l151 192h82l-175 -219v-2l192 -282h-81l-168 252h-81v-252h-68z" />
    <glyph glyph-name="l" unicode="l" horiz-adv-x="247" 
d="M77 119v584h68v-569q0 -76 56 -76l17 1v-61q-12 -2 -25 -2q-116 0 -116 123z" />
    <glyph glyph-name="m" unicode="m" horiz-adv-x="916" 
d="M82 0v503h67v-75l-2 -40h2q18 52 71 89.5t111 37.5q133 0 156 -126h2q21 53 72 89.5t113 36.5q89 0 128 -49t39 -146v-320h-68v303q0 71 -23 110.5t-86 39.5q-56 0 -100 -42t-59 -100q-9 -28 -9 -73v-238h-68v303q0 33 -3.5 56t-13.5 46.5t-32.5 35.5t-56.5 12
q-59 0 -103.5 -43t-61.5 -105q-7 -29 -7 -67v-238h-68z" />
    <glyph glyph-name="n" unicode="n" horiz-adv-x="593" 
d="M82 0v503h67v-75l-2 -40h2q18 46 70 86.5t131 40.5q90 0 129 -49t39 -146v-320h-68v302q0 71 -21.5 110t-87.5 39q-64 0 -115 -39.5t-68 -102.5q-8 -28 -8 -68v-241h-68z" />
    <glyph glyph-name="o" unicode="o" horiz-adv-x="622" 
d="M45 254q0 111 77.5 186t188.5 75t188.5 -75t77.5 -186q0 -113 -77.5 -189.5t-188.5 -76.5t-188.5 76.5t-77.5 189.5zM115 254q0 -87 57 -146t139 -59t139 59t57 146q0 85 -57 142t-139 57t-139 -57t-57 -142z" />
    <glyph glyph-name="p" unicode="p" horiz-adv-x="589" 
d="M82 -200v703h65v-49l-2 -39h2l5.5 11t17.5 24t32 30t50 24t69 11q100 0 159.5 -73t59.5 -191t-63 -190.5t-162 -72.5q-34 0 -63.5 10t-47 24t-30.5 28t-18 24l-6 10h-2q2 -18 2 -44v-240h-68zM148 250q0 -81 43 -141.5t117 -60.5q69 0 115.5 55t46.5 148q0 92 -44 147
t-115 55q-69 0 -116 -51t-47 -152z" />
    <glyph glyph-name="q" unicode="q" horiz-adv-x="589" 
d="M49 252q0 118 63 190.5t163 72.5q34 0 63.5 -10t47.5 -24.5t31 -28.5t18 -24l5 -10h2q-1 16 -1 38v47h66v-703h-68v242l2 44h-2q-2 -4 -5.5 -10.5t-17.5 -23.5t-32 -30t-49 -23.5t-67 -10.5q-100 0 -159.5 73t-59.5 191zM119 252q0 -92 44 -147.5t115 -55.5q69 0 116 51
t47 152q0 83 -42 142.5t-118 59.5q-69 0 -115.5 -55t-46.5 -147z" />
    <glyph glyph-name="r" unicode="r" horiz-adv-x="356" 
d="M82 0v503h67v-89l-2 -40h2q19 60 60.5 97t98.5 37l27 -3v-67q-12 2 -25 2q-52 0 -90.5 -36t-55.5 -94q-14 -45 -14 -98v-212h-68z" />
    <glyph glyph-name="s" unicode="s" horiz-adv-x="443" 
d="M41 61l37 49q6 -7 18 -17t51 -27t81 -17q43 0 72 21t29 59q0 30 -28 51.5t-67.5 36.5t-79.5 32.5t-68 49.5t-28 77q0 65 50 102t122 37q30 0 56.5 -5.5t44 -13.5t30.5 -16.5t19 -13.5l5 -6l-31 -52q-5 5 -14.5 12.5t-42 20.5t-69.5 13q-42 0 -71 -19.5t-29 -58.5
q0 -30 28 -51.5t68 -36t79.5 -32t67.5 -49.5t28 -78q0 -62 -48 -101.5t-124 -39.5q-34 0 -66 7.5t-52.5 18t-36.5 21.5t-24 19z" />
    <glyph glyph-name="t" unicode="t" horiz-adv-x="335" 
d="M101 183v257h-66v57h67v145h67v-145h126v-57h-126v-250q0 -34 8.5 -59t20.5 -39t28 -22t29 -10.5t27 -2.5l23 2v-61q-11 -2 -29 -2q-21 0 -41 3t-45.5 14.5t-44 30.5t-31.5 55t-13 84z" />
    <glyph glyph-name="u" unicode="u" horiz-adv-x="588" 
d="M75 183v320h68v-302q0 -71 21.5 -110t87.5 -39q83 0 134.5 62t51.5 148v241h68v-503h-66v75l2 40h-2q-19 -46 -70.5 -86.5t-126.5 -40.5q-88 0 -128 48t-40 147z" />
    <glyph glyph-name="v" unicode="v" horiz-adv-x="485" 
d="M206 0l-193 503h72l140 -369l17 -60h2q8 34 18 60l139 369h71l-192 -503h-74z" />
    <glyph glyph-name="w" unicode="w" horiz-adv-x="801" 
d="M187 0l-170 503h72l122 -375l15 -54h2q7 30 15 54l124 373h67l124 -373l15 -54h2q7 29 15 54l122 375h72l-170 -503h-74l-123 358l-16 54h-2q-7 -29 -15 -54l-123 -358h-74z" />
    <glyph glyph-name="x" unicode="x" horiz-adv-x="491" 
d="M245 217h-1q-8 -15 -17 -28l-122 -189h-80l177 262l-162 241h80l108 -169l17 -29h1q9 16 17 29l108 169h80l-162 -241l177 -262h-80l-122 189l-17 28h-2z" />
    <glyph glyph-name="y" unicode="y" horiz-adv-x="499" 
d="M7 -180l26 54q28 -23 60 -23q59 0 95 82l31 71l-210 499h75l148 -367l18 -53h2q7 28 17 53l145 367h74l-248 -608q-20 -49 -58 -77t-87 -28q-23 0 -45 7.5t-32 14.5z" />
    <glyph glyph-name="z" unicode="z" horiz-adv-x="509" 
d="M42 0v44l281 353l40 46v2q-17 -2 -50 -2h-259v60h401v-45l-281 -352l-41 -46v-2q18 2 51 2h281v-60h-423z" />
    <glyph glyph-name="braceleft" unicode="{" horiz-adv-x="336" 
d="M138 83v95q0 29 -9 51.5t-21 34t-24.5 18.5t-21.5 8l-9 2v62q3 0 9 1.5t20.5 9t26 18.5t20.5 34t9 52v82q0 47 12 82t28.5 53t39 28.5t38 13t31.5 2.5h15v-56h-9q-13 0 -25.5 -3.5t-29.5 -15t-27 -38.5t-10 -68v-98q0 -27 -8 -50.5t-20 -37t-24 -23t-20 -12.5l-8 -4v-2
q3 -1 8.5 -3.5t19.5 -12t24.5 -22.5t19 -36.5t8.5 -52.5v-110q0 -40 10.5 -67.5t27 -38.5t29 -15t25.5 -4h9v-56q-6 -1 -15 -1q-16 0 -31.5 2.5t-38 13.5t-39 29t-28.5 53t-12 82z" />
    <glyph glyph-name="bar" unicode="|" horiz-adv-x="275" 
d="M106 -157v945h63v-945h-63z" />
    <glyph glyph-name="braceright" unicode="}" horiz-adv-x="336" 
d="M34 -40h10q12 0 24.5 4t29 15t27 38.5t10.5 67.5v110q0 29 8 52.5t20 36.5t24 22.5t20 12.5l8 3v2q-3 1 -8.5 3.5t-19.5 13t-24.5 23.5t-19 36.5t-8.5 50.5v98q0 41 -10 68t-27 38.5t-29 15t-25 3.5h-10v56h16q15 0 30.5 -2.5t38 -13.5t39 -28.5t28.5 -52.5t12 -82v-82
q0 -47 21.5 -75.5t42.5 -33.5l21 -6v-62q-3 0 -9 -1.5t-20.5 -9t-26 -18.5t-20.5 -33.5t-9 -51.5v-95q0 -47 -12 -82t-28.5 -53t-39 -29t-38 -13.5t-30.5 -2.5l-16 1v56z" />
    <glyph glyph-name="asciitilde" unicode="~" horiz-adv-x="602" 
d="M74 209q0 79 34 117t93 38q30 0 54 -10.5t39.5 -26t30 -31t33.5 -26t42 -10.5q40 0 55.5 31t15.5 69h59q0 -79 -34 -117t-93 -38q-37 0 -65.5 16.5t-43.5 35.5t-38.5 35.5t-51.5 16.5q-40 0 -55.5 -31t-15.5 -69h-59z" />
    <glyph glyph-name="uni00A0" unicode="&#xa0;" horiz-adv-x="269" 
 />
    <glyph glyph-name="exclamdown" unicode="&#xa1;" horiz-adv-x="274" 
d="M98 426v77h77v-77h-77zM102 -200l3 519h64l3 -519h-70z" />
    <glyph glyph-name="cent" unicode="&#xa2;" horiz-adv-x="572" 
d="M270 -13v85q-99 11 -154.5 89t-55.5 191t55.5 190.5t154.5 88.5v84h56v-84q128 -15 187 -148l-64 -24q-50 108 -148 108q-83 0 -126.5 -60t-43.5 -155q0 -96 43 -155.5t127 -59.5q99 0 148 108l64 -25q-28 -62 -75.5 -102t-111.5 -46v-85h-56z" />
    <glyph glyph-name="sterling" unicode="&#xa3;" horiz-adv-x="589" 
d="M78 326v55h44v149q0 79 58.5 132t148.5 53q42 0 81 -14.5t57 -28.5l18 -14l-42 -50q-49 42 -114 42q-64 0 -100.5 -35.5t-36.5 -88.5v-145h192v-55h-192v-264h339v-62h-472v62h63v264h-44z" />
    <glyph glyph-name="yen" unicode="&#xa5;" horiz-adv-x="601" 
d="M103 350v51h106l-175 302h79l143 -249q10 -18 21 -40.5t17 -35.5l5 -14h2q20 50 43 90l144 249h79l-176 -302h105v-51h-133l-27 -48v-39h160v-52h-160v-211h-70v211h-163v52h163v39l-28 48h-135z" />
    <glyph glyph-name="section" unicode="&#xa7;" horiz-adv-x="412" 
d="M140 85l-68 434q-4 16 -4 35q0 70 47.5 115.5t124.5 45.5q31 0 60 -10.5t42 -20.5l14 -11l-35 -47q-34 29 -81 29t-78.5 -28.5t-31.5 -78.5q0 -16 4 -31l66 -432h-60zM55 -20l35 48q35 -30 82 -30t78 29.5t31 79.5q0 17 -4 32l-65 429h60l68 -434q4 -26 4 -35
q0 -70 -48 -115.5t-125 -45.5q-31 0 -60 10.5t-43 21.5z" />
    <glyph glyph-name="dieresis" unicode="&#xa8;" horiz-adv-x="504" 
d="M297 785v86h62v-86h-62zM146 785v86h61v-86h-61z" />
    <glyph glyph-name="copyright" unicode="&#xa9;" horiz-adv-x="831" 
d="M60 352q0 151 103.5 257t249.5 106q149 0 253.5 -106t104.5 -257q0 -153 -104 -258.5t-254 -105.5q-147 0 -250 106t-103 258zM119 352q0 -131 85 -220.5t209 -89.5q127 0 213.5 89.5t86.5 220.5q0 130 -86.5 219.5t-213.5 89.5q-124 0 -209 -89.5t-85 -219.5zM217 350
q0 84 56 145t150 61q31 0 59 -9.5t46 -23t32 -27.5t20 -24l6 -9l-46 -31l-5 7.5t-14 16.5t-23.5 21t-32 16.5t-40.5 7.5q-69 0 -109 -44t-40 -106t39.5 -106t109.5 -44q21 0 40.5 7t32.5 17.5t23 20.5t15 17l4 7l46 -31q-2 -4 -6.5 -10t-19.5 -22t-32.5 -28.5t-45.5 -22.5
t-59 -10q-95 0 -150.5 60.5t-55.5 143.5z" />
    <glyph glyph-name="ordfeminine" unicode="&#xaa;" horiz-adv-x="427" 
d="M193 382q-44 0 -77 25t-33 70q0 111 191 111h13v4q0 74 -71 74q-20 0 -41 -7t-32 -15l-11 -7l-26 39q44 37 115 37q59 0 89.5 -31.5t30.5 -91.5v-202h-52v49h-2q-3 -6 -9.5 -15t-31 -24.5t-53.5 -15.5zM201 430q38 0 61.5 32.5t23.5 72.5v9h-12q-135 0 -135 -62
q0 -22 16.5 -37t45.5 -15zM81 264v47h264v-47h-264z" />
    <glyph glyph-name="guillemotleft" unicode="&#xab;" horiz-adv-x="523" 
d="M229 282l164 206h74l-164 -206l164 -205h-74zM214 77l-164 205l164 206h73l-164 -206l164 -205h-73z" />
    <glyph glyph-name="logicalnot" unicode="&#xac;" horiz-adv-x="623" 
d="M73 342v58h466v-242h-61v184h-405z" />
    <glyph glyph-name="uni00AD" unicode="&#xad;" horiz-adv-x="432" 
d="M74 253v62h284v-62h-284z" />
    <glyph glyph-name="registered" unicode="&#xae;" horiz-adv-x="831" 
d="M60 352q0 151 103.5 257t249.5 106q149 0 253.5 -106t104.5 -257q0 -153 -104 -258.5t-254 -105.5q-147 0 -250 106t-103 258zM119 352q0 -131 85 -220.5t209 -89.5q127 0 213.5 89.5t86.5 220.5q0 130 -86.5 219.5t-213.5 89.5q-124 0 -209 -89.5t-85 -219.5zM295 157
v390h139q52 0 84.5 -32t32.5 -84q0 -41 -21.5 -68.5t-51.5 -34.5v-2q4 -5 13 -22l75 -147h-62l-78 158h-75v-158h-56zM351 359h73q32 0 50.5 19t18.5 53q0 33 -18.5 51t-50.5 18h-73v-141z" />
    <glyph glyph-name="macron" unicode="&#xaf;" horiz-adv-x="504" 
d="M129 785v55h246v-55h-246z" />
    <glyph glyph-name="degree" unicode="&#xb0;" horiz-adv-x="381" 
d="M190 436q-58 0 -99 40.5t-41 98.5q0 57 41 98t99 41t99.5 -41t41.5 -98q0 -58 -41 -98.5t-100 -40.5zM190 492q34 0 58 24t24 59q0 34 -24 58.5t-58 24.5t-57 -24.5t-23 -58.5q0 -35 23 -59t57 -24z" />
    <glyph glyph-name="plusminus" unicode="&#xb1;" horiz-adv-x="688" 
d="M83 255v58h231v255h61v-255h230v-58h-230v-255h-61v255h-231zM101 -104h486v-58h-486v58z" />
    <glyph glyph-name="twosuperior" unicode="&#xb2;" 
d="M53 423q-3 17 -3 31q0 46 22.5 82t54 59t63.5 43t54.5 45.5t22.5 56.5q0 32 -23 54.5t-59 22.5q-24 0 -46 -12.5t-33 -24.5l-10 -12l-36 35q5 7 14.5 18t42.5 29t70 18q62 0 99 -36t37 -91q0 -41 -21.5 -73t-52.5 -53t-62 -40t-53.5 -45t-24.5 -57h222v-50h-278z" />
    <glyph glyph-name="threesuperior" unicode="&#xb3;" 
d="M185 413q-27 0 -51.5 7t-40 16.5t-27.5 19t-18 16.5l-5 7l35 38q4 -6 12.5 -14.5t36 -23t57.5 -14.5q36 0 65 25.5t29 63.5t-29.5 61t-68.5 23h-33l-14 31l99 115l25 25v2q-19 -3 -37 -3h-154v50h263v-36l-119 -138q50 -6 87 -38t37 -92q0 -58 -43 -99.5t-106 -41.5z" />
    <glyph glyph-name="acute" unicode="&#xb4;" horiz-adv-x="504" 
d="M178 752l69 119h79l-86 -119h-62z" />
    <glyph glyph-name="mu" unicode="&#xb5;" horiz-adv-x="609" 
d="M89 -200v703h68v-302q0 -71 22 -110t88 -39q82 0 133.5 62.5t51.5 147.5v241h68v-503h-66v76l2 39h-2q-2 -5 -6.5 -13.5t-21 -30.5t-36.5 -39t-55.5 -30.5t-76.5 -13.5q-37 0 -65 10.5t-37 21.5l-9 10h-2q7 -51 7 -76v-154h-63z" />
    <glyph glyph-name="mu" unicode="&#x3bc;" horiz-adv-x="609" 
d="M89 -200v703h68v-302q0 -71 22 -110t88 -39q82 0 133.5 62.5t51.5 147.5v241h68v-503h-66v76l2 39h-2q-2 -5 -6.5 -13.5t-21 -30.5t-36.5 -39t-55.5 -30.5t-76.5 -13.5q-37 0 -65 10.5t-37 21.5l-9 10h-2q7 -51 7 -76v-154h-63z" />
    <glyph glyph-name="paragraph" unicode="&#xb6;" horiz-adv-x="573" 
d="M288 -50v291q-98 0 -168.5 67.5t-70.5 164.5t70 163.5t168 66.5h239v-62h-181v-691h-57zM407 -50v631h58v-631h-58z" />
    <glyph glyph-name="periodcentered" unicode="&#xb7;" horiz-adv-x="271" 
d="M97 248v80h77v-80h-77z" />
    <glyph glyph-name="cedilla" unicode="&#xb8;" horiz-adv-x="504" 
d="M226 20l40 -7v-8l-11 -60q31 -5 50.5 -23.5t19.5 -47.5q0 -41 -27.5 -60t-68.5 -19l-50 5v48q19 -6 42 -6q51 0 51 34t-57 34l-15 -1z" />
    <glyph glyph-name="onesuperior" unicode="&#xb9;" 
d="M74 423v50h95v289l1 24h-1q-4 -8 -21 -25l-40 -38l-35 37l99 98h52v-385h93v-50h-243z" />
    <glyph glyph-name="ordmasculine" unicode="&#xba;" horiz-adv-x="474" 
d="M236 383q-70 0 -118.5 48t-48.5 119q0 69 49 116.5t118 47.5t118 -47.5t49 -116.5q0 -71 -48.5 -119t-118.5 -48zM236 434q47 0 79.5 33t32.5 83q0 49 -32.5 81.5t-79.5 32.5t-79.5 -32.5t-32.5 -81.5q0 -50 32.5 -83t79.5 -33zM86 264v47h303v-47h-303z" />
    <glyph glyph-name="guillemotright" unicode="&#xbb;" horiz-adv-x="524" 
d="M236 77l164 205l-164 206h74l164 -206l-164 -205h-74zM56 77l164 205l-164 206h74l164 -206l-164 -205h-74z" />
    <glyph glyph-name="onequarter" unicode="&#xbc;" horiz-adv-x="944" 
d="M317 0h-59l336 703h58zM63 268v50h95v289l1 24h-1q-4 -8 -21 -25l-40 -38l-35 37l99 98h52v-385h93v-50h-243zM772 0v114h-212v38l212 283h55v-271h65v-50h-65v-114h-55zM628 164h144v136l3 62h-2q-16 -27 -32 -49l-113 -147v-2z" />
    <glyph glyph-name="onehalf" unicode="&#xbd;" horiz-adv-x="942" 
d="M318 0h-59l336 703h58zM63 268v50h95v289l1 24h-1q-4 -8 -21 -25l-40 -38l-35 37l99 98h52v-385h93v-50h-243zM592 0q-3 16 -3 31q0 46 22.5 82t54.5 59t63.5 43t54 45.5t22.5 56.5q0 32 -23 54.5t-59 22.5q-24 0 -46 -12t-32 -24l-11 -13l-36 35q5 7 14.5 18t42.5 29
t70 18q62 0 99 -36t37 -91q0 -41 -21.5 -73t-52.5 -53t-62 -40t-53.5 -45t-24.5 -57h222v-50h-278z" />
    <glyph glyph-name="threequarters" unicode="&#xbe;" horiz-adv-x="960" 
d="M333 0h-59l336 703h58zM788 0v114h-212v38l212 283h55v-271h65v-50h-65v-114h-55zM644 164h144v136l3 62h-2q-16 -27 -32 -49l-113 -147v-2zM189 258q-27 0 -51.5 7t-40 16.5t-27.5 19t-18 16.5l-5 7l35 38q4 -6 12.5 -14.5t36 -23t57.5 -14.5q36 0 65 25.5t29 63.5
t-29.5 61t-68.5 23h-33l-14 31l99 115l25 25v2q-19 -3 -37 -3h-154v50h263v-36l-119 -138q50 -6 87 -38t37 -92q0 -58 -43 -99.5t-106 -41.5z" />
    <glyph glyph-name="questiondown" unicode="&#xbf;" horiz-adv-x="440" 
d="M219 426v77h77v-77h-77zM45 -33q0 46 18.5 82.5t44.5 61.5t52.5 48t45 53.5t18.5 66.5v40h67v-43q0 -43 -18 -78.5t-43.5 -60.5t-51 -48.5t-43.5 -53.5t-18 -65q0 -49 37 -82t94 -33q30 0 60.5 10.5t45.5 20.5l15 11l37 -50q-7 -6 -20 -15.5t-55 -25.5t-86 -16
q-86 0 -143 50t-57 127z" />
    <glyph glyph-name="Agrave" unicode="&#xc0;" horiz-adv-x="616" 
d="M530 0l-81 224h-283l-80 -224h-73l258 703h74l258 -703h-73zM309 630h-2q-15 -58 -27 -91l-94 -255h242l-92 255zM278 752l-86 119h79l69 -119h-62z" />
    <glyph glyph-name="Aacute" unicode="&#xc1;" horiz-adv-x="616" 
d="M530 0l-81 224h-283l-80 -224h-73l258 703h74l258 -703h-73zM309 630h-2q-15 -58 -27 -91l-94 -255h242l-92 255zM276 752l69 119h79l-86 -119h-62z" />
    <glyph glyph-name="Acircumflex" unicode="&#xc2;" horiz-adv-x="616" 
d="M530 0l-81 224h-283l-80 -224h-73l258 703h74l258 -703h-73zM309 630h-2q-15 -58 -27 -91l-94 -255h242l-92 255zM187 752l83 119h75l84 -119h-66l-54 81h-2l-54 -81h-66z" />
    <glyph glyph-name="Atilde" unicode="&#xc3;" horiz-adv-x="616" 
d="M530 0l-81 224h-283l-80 -224h-73l258 703h74l258 -703h-73zM309 630h-2q-15 -58 -27 -91l-94 -255h242l-92 255zM152 755q0 117 92 117q29 0 50.5 -18t39.5 -36t36 -18q40 0 40 69h54q0 -117 -92 -117q-29 0 -50.5 18t-39.5 35.5t-36 17.5q-39 0 -39 -68h-55z" />
    <glyph glyph-name="Adieresis" unicode="&#xc4;" horiz-adv-x="616" 
d="M530 0l-81 224h-283l-80 -224h-73l258 703h74l258 -703h-73zM309 630h-2q-15 -58 -27 -91l-94 -255h242l-92 255zM353 785v86h62v-86h-62zM202 785v86h61v-86h-61z" />
    <glyph glyph-name="Aring" unicode="&#xc5;" horiz-adv-x="616" 
d="M530 0l-81 224h-283l-80 -224h-73l258 703h74l258 -703h-73zM309 630h-2q-15 -58 -27 -91l-94 -255h242l-92 255zM308 741q-31 0 -53 20t-22 51t22 51t53 20t53.5 -20t22.5 -51t-22.5 -51t-53.5 -20zM308 779q15 0 24 9.5t9 23.5q0 15 -9 24.5t-24 9.5q-14 0 -23 -9.5
t-9 -24.5q0 -14 9 -23.5t23 -9.5z" />
    <glyph glyph-name="AE" unicode="&#xc6;" horiz-adv-x="853" 
d="M10 0l289 703h481v-62h-327v-256h267v-62h-267v-261h345v-62h-414v324h-170l-131 -324h-73zM343 641l-104 -257h145v257h-41z" />
    <glyph glyph-name="Ccedilla" unicode="&#xc7;" horiz-adv-x="729" 
d="M56 356q0 153 101 256t252 103q47 0 90.5 -9.5t71.5 -22.5t49.5 -26.5t31.5 -22.5l10 -10l-37 -51q-3 3 -9.5 8.5t-28 19t-44.5 23.5t-59 18.5t-73 8.5q-123 0 -203 -84.5t-80 -209.5q0 -128 80.5 -216.5t204.5 -88.5q40 0 78 9.5t64 23.5t46.5 28t30.5 23l9 10l40 -49
l-11 -11t-32 -25.5t-53 -33t-72.5 -26.5t-90.5 -13l-8 -43q31 -5 50.5 -23.5t19.5 -47.5q0 -41 -27.5 -60t-68.5 -19l-50 5v48q19 -6 42 -6q51 0 51 34t-57 34l-15 -1l19 81q-142 12 -232 115.5t-90 250.5z" />
    <glyph glyph-name="Egrave" unicode="&#xc8;" horiz-adv-x="571" 
d="M102 0v703h396v-62h-327v-256h267v-62h-267v-261h345v-62h-414zM281 752l-86 119h79l69 -119h-62z" />
    <glyph glyph-name="Eacute" unicode="&#xc9;" horiz-adv-x="571" 
d="M102 0v703h396v-62h-327v-256h267v-62h-267v-261h345v-62h-414zM279 752l69 119h79l-86 -119h-62z" />
    <glyph glyph-name="Ecircumflex" unicode="&#xca;" horiz-adv-x="571" 
d="M102 0v703h396v-62h-327v-256h267v-62h-267v-261h345v-62h-414zM191 752l83 119h75l84 -119h-66l-54 81h-2l-54 -81h-66z" />
    <glyph glyph-name="Edieresis" unicode="&#xcb;" horiz-adv-x="571" 
d="M102 0v703h396v-62h-327v-256h267v-62h-267v-261h345v-62h-414zM357 785v86h62v-86h-62zM206 785v86h61v-86h-61z" />
    <glyph glyph-name="Igrave" unicode="&#xcc;" horiz-adv-x="273" 
d="M102 0v703h69v-703h-69zM107 752l-86 119h79l69 -119h-62z" />
    <glyph glyph-name="Iacute" unicode="&#xcd;" horiz-adv-x="273" 
d="M102 0v703h69v-703h-69zM104 752l69 119h79l-86 -119h-62z" />
    <glyph glyph-name="Icircumflex" unicode="&#xce;" horiz-adv-x="273" 
d="M102 0v703h69v-703h-69zM16 752l83 119h75l84 -119h-66l-54 81h-2l-54 -81h-66z" />
    <glyph glyph-name="Idieresis" unicode="&#xcf;" horiz-adv-x="273" 
d="M102 0v703h69v-703h-69zM182 785v86h62v-86h-62zM31 785v86h61v-86h-61z" />
    <glyph glyph-name="Eth" unicode="&#xd0;" horiz-adv-x="754" 
d="M58 323v60h60v320h226q161 0 257 -93.5t96 -257.5q0 -166 -96 -259t-257 -93h-226v323h-60zM187 62h150q132 0 210 75.5t78 214.5q0 138 -78 213.5t-210 75.5h-150v-258h167v-60h-167v-261z" />
    <glyph glyph-name="Ntilde" unicode="&#xd1;" horiz-adv-x="753" 
d="M102 0v703h67l359 -506l58 -95h2q-6 58 -6 95v506h69v-703h-67l-359 506l-58 95h-2q6 -58 6 -95v-506h-69zM221 755q0 117 92 117q29 0 50.5 -18t39.5 -36t36 -18q40 0 40 69h54q0 -117 -92 -117q-29 0 -50.5 18t-39.5 35.5t-36 17.5q-39 0 -39 -68h-55z" />
    <glyph glyph-name="Ograve" unicode="&#xd2;" horiz-adv-x="824" 
d="M54 356q0 151 104 255t254 104t254 -104t104 -255q0 -154 -104.5 -261t-253.5 -107t-253.5 107t-104.5 261zM126 356q0 -128 83 -216t203 -88q119 0 202.5 88t83.5 216q0 125 -83.5 210t-202.5 85q-120 0 -203 -85t-83 -210zM381 752l-86 119h79l69 -119h-62z" />
    <glyph glyph-name="Oacute" unicode="&#xd3;" horiz-adv-x="824" 
d="M54 356q0 151 104 255t254 104t254 -104t104 -255q0 -154 -104.5 -261t-253.5 -107t-253.5 107t-104.5 261zM126 356q0 -128 83 -216t203 -88q119 0 202.5 88t83.5 216q0 125 -83.5 210t-202.5 85q-120 0 -203 -85t-83 -210zM379 752l69 119h79l-86 -119h-62z" />
    <glyph glyph-name="Ocircumflex" unicode="&#xd4;" horiz-adv-x="824" 
d="M54 356q0 151 104 255t254 104t254 -104t104 -255q0 -154 -104.5 -261t-253.5 -107t-253.5 107t-104.5 261zM126 356q0 -128 83 -216t203 -88q119 0 202.5 88t83.5 216q0 125 -83.5 210t-202.5 85q-120 0 -203 -85t-83 -210zM291 752l83 119h75l84 -119h-66l-54 81h-2
l-54 -81h-66z" />
    <glyph glyph-name="Otilde" unicode="&#xd5;" horiz-adv-x="824" 
d="M54 356q0 151 104 255t254 104t254 -104t104 -255q0 -154 -104.5 -261t-253.5 -107t-253.5 107t-104.5 261zM126 356q0 -128 83 -216t203 -88q119 0 202.5 88t83.5 216q0 125 -83.5 210t-202.5 85q-120 0 -203 -85t-83 -210zM256 755q0 117 92 117q29 0 50.5 -18
t39.5 -36t36 -18q40 0 40 69h54q0 -117 -92 -117q-29 0 -50.5 18t-39.5 35.5t-36 17.5q-39 0 -39 -68h-55z" />
    <glyph glyph-name="Odieresis" unicode="&#xd6;" horiz-adv-x="824" 
d="M54 356q0 151 104 255t254 104t254 -104t104 -255q0 -154 -104.5 -261t-253.5 -107t-253.5 107t-104.5 261zM126 356q0 -128 83 -216t203 -88q119 0 202.5 88t83.5 216q0 125 -83.5 210t-202.5 85q-120 0 -203 -85t-83 -210zM457 785v86h62v-86h-62zM306 785v86h61v-86
h-61z" />
    <glyph glyph-name="multiply" unicode="&#xd7;" horiz-adv-x="655" 
d="M72 41l216 243l-216 243l41 41l214 -241l214 241l41 -41l-217 -243l217 -243l-41 -41l-214 241l-214 -241z" />
    <glyph glyph-name="Oslash" unicode="&#xd8;" horiz-adv-x="827" 
d="M56 356q0 151 104 255t254 104q101 0 189 -53l47 66l41 -30l-47 -66q60 -50 94 -122t34 -154q0 -154 -104.5 -261t-253.5 -107q-105 0 -192 56l-48 -68l-42 29l49 69q-59 51 -92 124.5t-33 157.5zM700 356q0 134 -95 221l-344 -479q70 -46 153 -46q119 0 202.5 88
t83.5 216zM128 356q0 -136 93 -226l343 478q-70 43 -150 43q-120 0 -203 -85t-83 -210z" />
    <glyph glyph-name="Ugrave" unicode="&#xd9;" horiz-adv-x="724" 
d="M93 245v458h70v-457q0 -90 54 -142t145 -52q92 0 146 52.5t54 143.5v455h69v-458q0 -116 -74 -186.5t-194 -70.5q-121 0 -195.5 70.5t-74.5 186.5zM332 752l-86 119h79l69 -119h-62z" />
    <glyph glyph-name="Uacute" unicode="&#xda;" horiz-adv-x="724" 
d="M93 245v458h70v-457q0 -90 54 -142t145 -52q92 0 146 52.5t54 143.5v455h69v-458q0 -116 -74 -186.5t-194 -70.5q-121 0 -195.5 70.5t-74.5 186.5zM330 752l69 119h79l-86 -119h-62z" />
    <glyph glyph-name="Ucircumflex" unicode="&#xdb;" horiz-adv-x="724" 
d="M93 245v458h70v-457q0 -90 54 -142t145 -52q92 0 146 52.5t54 143.5v455h69v-458q0 -116 -74 -186.5t-194 -70.5q-121 0 -195.5 70.5t-74.5 186.5zM241 752l83 119h75l84 -119h-66l-54 81h-2l-54 -81h-66z" />
    <glyph glyph-name="Udieresis" unicode="&#xdc;" horiz-adv-x="724" 
d="M93 245v458h70v-457q0 -90 54 -142t145 -52q92 0 146 52.5t54 143.5v455h69v-458q0 -116 -74 -186.5t-194 -70.5q-121 0 -195.5 70.5t-74.5 186.5zM407 785v86h62v-86h-62zM256 785v86h61v-86h-61z" />
    <glyph glyph-name="Yacute" unicode="&#xdd;" horiz-adv-x="574" 
d="M252 0v302l-237 401h79l149 -255l43 -84h2q21 47 43 84l149 255h78l-236 -401v-302h-70zM254 752l69 119h79l-86 -119h-62z" />
    <glyph glyph-name="Thorn" unicode="&#xde;" horiz-adv-x="599" 
d="M102 0v703h69v-125h174q95 0 156 -58t61 -155q0 -96 -61.5 -155t-157.5 -59h-172v-151h-69zM171 213h165q71 0 112.5 40.5t41.5 111.5t-41 111t-112 40h-166v-303z" />
    <glyph glyph-name="germandbls" unicode="&#xdf;" horiz-adv-x="573" 
d="M82 0v531q0 85 60 134.5t141 49.5q78 0 126.5 -44t48.5 -105q0 -35 -17.5 -65.5t-38 -48.5t-38 -40t-17.5 -43q0 -22 30.5 -47.5t67 -47t67 -58.5t30.5 -80q0 -68 -47 -105.5t-115 -37.5q-42 0 -79 8t-53 16l-16 8v65q60 -36 143 -36q41 0 69.5 21.5t28.5 62.5
q0 31 -30.5 60.5t-67.5 49.5t-67.5 52t-30.5 67q0 29 17.5 56t38 45t38 44t17.5 53q0 35 -28.5 61.5t-79.5 26.5q-52 0 -91 -34t-39 -93v-526h-68z" />
    <glyph glyph-name="agrave" unicode="&#xe0;" horiz-adv-x="520" 
d="M41 137q0 174 308 174h28v13q0 130 -125 130q-37 0 -72.5 -12t-52.5 -24l-17 -12l-32 52q7 6 21.5 15.5t61 25.5t96.5 16q91 0 139.5 -49.5t48.5 -143.5v-322h-65v55l2 42h-2q-2 -4 -5.5 -11.5t-17.5 -26.5t-31.5 -33t-48 -26t-65.5 -12q-69 0 -120 39t-51 110zM111 141
q0 -38 29.5 -66.5t82.5 -28.5q68 0 111 58t43 129v22h-29q-42 0 -72.5 -2.5t-73.5 -12.5t-67 -35t-24 -64zM228 584l-86 119h79l69 -119h-62z" />
    <glyph glyph-name="aacute" unicode="&#xe1;" horiz-adv-x="520" 
d="M41 137q0 174 308 174h28v13q0 130 -125 130q-37 0 -72.5 -12t-52.5 -24l-17 -12l-32 52q7 6 21.5 15.5t61 25.5t96.5 16q91 0 139.5 -49.5t48.5 -143.5v-322h-65v55l2 42h-2q-2 -4 -5.5 -11.5t-17.5 -26.5t-31.5 -33t-48 -26t-65.5 -12q-69 0 -120 39t-51 110zM111 141
q0 -38 29.5 -66.5t82.5 -28.5q68 0 111 58t43 129v22h-29q-42 0 -72.5 -2.5t-73.5 -12.5t-67 -35t-24 -64zM225 584l69 119h79l-86 -119h-62z" />
    <glyph glyph-name="acircumflex" unicode="&#xe2;" horiz-adv-x="520" 
d="M41 137q0 174 308 174h28v13q0 130 -125 130q-37 0 -72.5 -12t-52.5 -24l-17 -12l-32 52q7 6 21.5 15.5t61 25.5t96.5 16q91 0 139.5 -49.5t48.5 -143.5v-322h-65v55l2 42h-2q-2 -4 -5.5 -11.5t-17.5 -26.5t-31.5 -33t-48 -26t-65.5 -12q-69 0 -120 39t-51 110zM111 141
q0 -38 29.5 -66.5t82.5 -28.5q68 0 111 58t43 129v22h-29q-42 0 -72.5 -2.5t-73.5 -12.5t-67 -35t-24 -64zM138 584l83 119h75l84 -119h-66l-54 81h-2l-54 -81h-66z" />
    <glyph glyph-name="atilde" unicode="&#xe3;" horiz-adv-x="520" 
d="M41 137q0 174 308 174h28v13q0 130 -125 130q-37 0 -72.5 -12t-52.5 -24l-17 -12l-32 52q7 6 21.5 15.5t61 25.5t96.5 16q91 0 139.5 -49.5t48.5 -143.5v-322h-65v55l2 42h-2q-2 -4 -5.5 -11.5t-17.5 -26.5t-31.5 -33t-48 -26t-65.5 -12q-69 0 -120 39t-51 110zM111 141
q0 -38 29.5 -66.5t82.5 -28.5q68 0 111 58t43 129v22h-29q-42 0 -72.5 -2.5t-73.5 -12.5t-67 -35t-24 -64zM103 587q0 117 92 117q29 0 50.5 -18t39.5 -36t36 -18q40 0 40 69h54q0 -117 -92 -117q-29 0 -50.5 18t-39.5 35.5t-36 17.5q-39 0 -39 -68h-55z" />
    <glyph glyph-name="adieresis" unicode="&#xe4;" horiz-adv-x="520" 
d="M41 137q0 174 308 174h28v13q0 130 -125 130q-37 0 -72.5 -12t-52.5 -24l-17 -12l-32 52q7 6 21.5 15.5t61 25.5t96.5 16q91 0 139.5 -49.5t48.5 -143.5v-322h-65v55l2 42h-2q-2 -4 -5.5 -11.5t-17.5 -26.5t-31.5 -33t-48 -26t-65.5 -12q-69 0 -120 39t-51 110zM111 141
q0 -38 29.5 -66.5t82.5 -28.5q68 0 111 58t43 129v22h-29q-42 0 -72.5 -2.5t-73.5 -12.5t-67 -35t-24 -64zM304 617v86h62v-86h-62zM153 617v86h61v-86h-61z" />
    <glyph glyph-name="aring" unicode="&#xe5;" horiz-adv-x="520" 
d="M41 137q0 174 308 174h28v13q0 130 -125 130q-37 0 -72.5 -12t-52.5 -24l-17 -12l-32 52q7 6 21.5 15.5t61 25.5t96.5 16q91 0 139.5 -49.5t48.5 -143.5v-322h-65v55l2 42h-2q-2 -4 -5.5 -11.5t-17.5 -26.5t-31.5 -33t-48 -26t-65.5 -12q-69 0 -120 39t-51 110zM111 141
q0 -38 29.5 -66.5t82.5 -28.5q68 0 111 58t43 129v22h-29q-42 0 -72.5 -2.5t-73.5 -12.5t-67 -35t-24 -64zM258 573q-31 0 -53 20t-22 51t22 51t53 20t53.5 -20t22.5 -51t-22.5 -51t-53.5 -20zM258 611q15 0 24 9.5t9 23.5q0 15 -9 24.5t-24 9.5q-14 0 -23 -9.5t-9 -24.5
q0 -14 9 -23.5t23 -9.5z" />
    <glyph glyph-name="ae" unicode="&#xe6;" horiz-adv-x="870" 
d="M41 137q0 34 11.5 61t28.5 44.5t44.5 30.5t51.5 19.5t58 10t55.5 4t52.5 0.5h33v17q0 130 -128 130q-36 0 -70.5 -12t-51.5 -24l-17 -12l-31 51q7 6 21 16t59 26t94 16q137 0 170 -104h2q62 104 190 104q97 0 152.5 -65.5t55.5 -160.5l-2 -38h-378q2 -97 54 -149.5
t134 -52.5q40 0 78 15t56 30l18 16l31 -52q-8 -8 -23 -19.5t-63.5 -31t-99.5 -19.5q-77 0 -135 37t-86 103h-2q-3 -11 -9.5 -25t-22.5 -35.5t-35.5 -38t-52 -29t-70.5 -12.5q-73 0 -123 39.5t-50 109.5zM446 307h307q-3 74 -43.5 112t-98.5 38q-65 0 -109 -38.5t-56 -111.5z
M111 141q0 -39 30 -67t83 -28q68 0 110.5 58.5t42.5 129.5v17h-59q-40 0 -69.5 -3t-64.5 -13t-54 -34t-19 -60z" />
    <glyph glyph-name="ccedilla" unicode="&#xe7;" horiz-adv-x="550" 
d="M48 251q0 115 76 189.5t188 74.5q34 0 66 -7.5t52.5 -18t36 -21t22.5 -18.5l7 -7l-35 -51q-6 7 -18 17t-50.5 27t-78.5 17q-84 0 -140 -56.5t-56 -145.5q0 -88 57 -145t141 -57q29 0 56 7.5t45 17.5t32.5 20.5t20.5 17.5l7 8l31 -53q-7 -8 -21.5 -21t-63 -34.5
t-102.5 -23.5l-8 -43q31 -5 50.5 -23.5t19.5 -47.5q0 -41 -27.5 -60t-68.5 -19l-50 5v48q19 -6 42 -6q51 0 51 34t-57 34l-15 -1l19 81q-101 11 -165 83t-64 178z" />
    <glyph glyph-name="egrave" unicode="&#xe8;" horiz-adv-x="553" 
d="M47 251q0 120 71.5 192t176.5 72q100 0 155 -66.5t55 -165.5l-2 -35h-386q2 -93 57.5 -146t137.5 -53q41 0 79 15t56 30l18 16l31 -52q-8 -8 -23.5 -19.5t-64 -31t-98.5 -19.5q-113 0 -188 74t-75 189zM120 304h316q-3 75 -43 114.5t-100 39.5q-66 0 -113.5 -40.5
t-59.5 -113.5zM266 584l-86 119h79l69 -119h-62z" />
    <glyph glyph-name="eacute" unicode="&#xe9;" horiz-adv-x="553" 
d="M47 251q0 120 71.5 192t176.5 72q100 0 155 -66.5t55 -165.5l-2 -35h-386q2 -93 57.5 -146t137.5 -53q41 0 79 15t56 30l18 16l31 -52q-8 -8 -23.5 -19.5t-64 -31t-98.5 -19.5q-113 0 -188 74t-75 189zM120 304h316q-3 75 -43 114.5t-100 39.5q-66 0 -113.5 -40.5
t-59.5 -113.5zM263 584l69 119h79l-86 -119h-62z" />
    <glyph glyph-name="ecircumflex" unicode="&#xea;" horiz-adv-x="553" 
d="M47 251q0 120 71.5 192t176.5 72q100 0 155 -66.5t55 -165.5l-2 -35h-386q2 -93 57.5 -146t137.5 -53q41 0 79 15t56 30l18 16l31 -52q-8 -8 -23.5 -19.5t-64 -31t-98.5 -19.5q-113 0 -188 74t-75 189zM120 304h316q-3 75 -43 114.5t-100 39.5q-66 0 -113.5 -40.5
t-59.5 -113.5zM175 584l83 119h75l84 -119h-66l-54 81h-2l-54 -81h-66z" />
    <glyph glyph-name="edieresis" unicode="&#xeb;" horiz-adv-x="553" 
d="M47 251q0 120 71.5 192t176.5 72q100 0 155 -66.5t55 -165.5l-2 -35h-386q2 -93 57.5 -146t137.5 -53q41 0 79 15t56 30l18 16l31 -52q-8 -8 -23.5 -19.5t-64 -31t-98.5 -19.5q-113 0 -188 74t-75 189zM120 304h316q-3 75 -43 114.5t-100 39.5q-66 0 -113.5 -40.5
t-59.5 -113.5zM341 617v86h62v-86h-62zM190 617v86h61v-86h-61z" />
    <glyph glyph-name="igrave" unicode="&#xec;" horiz-adv-x="232" 
d="M86 584l-86 119h79l69 -119h-62zM82 0v503h68v-503h-68z" />
    <glyph glyph-name="iacute" unicode="&#xed;" horiz-adv-x="232" 
d="M84 584l69 119h79l-86 -119h-62zM82 0v503h68v-503h-68z" />
    <glyph glyph-name="icircumflex" unicode="&#xee;" horiz-adv-x="232" 
d="M82 0v503h68v-503h-68zM-4 584l83 119h75l84 -119h-66l-54 81h-2l-54 -81h-66z" />
    <glyph glyph-name="idieresis" unicode="&#xef;" horiz-adv-x="232" 
d="M162 617v86h62v-86h-62zM11 617v86h61v-86h-61zM82 0v503h68v-503h-68z" />
    <glyph glyph-name="eth" unicode="&#xf0;" horiz-adv-x="588" 
d="M49 232q0 96 63.5 165.5t175.5 69.5q43 0 79 -13.5t51 -27.5l14 -13h2q-34 97 -124 159l-176 -80l-13 48l135 63q-64 33 -142 51l20 58q115 -29 196 -77l131 59l13 -48l-97 -45q151 -118 151 -328q0 -52 -14.5 -101t-43.5 -91t-78 -67.5t-112 -25.5q-105 0 -168 73
t-63 171zM119 231q0 -74 44 -128t119 -54q86 0 131 64.5t45 146.5q0 65 -45 107t-118 42q-85 0 -130.5 -52.5t-45.5 -125.5z" />
    <glyph glyph-name="ntilde" unicode="&#xf1;" horiz-adv-x="593" 
d="M82 0v503h67v-75l-2 -40h2q18 46 70 86.5t131 40.5q90 0 129 -49t39 -146v-320h-68v302q0 71 -21.5 110t-87.5 39q-64 0 -115 -39.5t-68 -102.5q-8 -28 -8 -68v-241h-68zM155 587q0 117 92 117q29 0 50.5 -18t39.5 -36t36 -18q40 0 40 69h54q0 -117 -92 -117
q-29 0 -50.5 18t-39.5 35.5t-36 17.5q-39 0 -39 -68h-55z" />
    <glyph glyph-name="ograve" unicode="&#xf2;" horiz-adv-x="622" 
d="M45 254q0 111 77.5 186t188.5 75t188.5 -75t77.5 -186q0 -113 -77.5 -189.5t-188.5 -76.5t-188.5 76.5t-77.5 189.5zM115 254q0 -87 57 -146t139 -59t139 59t57 146q0 85 -57 142t-139 57t-139 -57t-57 -142zM281 584l-86 119h79l69 -119h-62z" />
    <glyph glyph-name="oacute" unicode="&#xf3;" horiz-adv-x="622" 
d="M45 254q0 111 77.5 186t188.5 75t188.5 -75t77.5 -186q0 -113 -77.5 -189.5t-188.5 -76.5t-188.5 76.5t-77.5 189.5zM115 254q0 -87 57 -146t139 -59t139 59t57 146q0 85 -57 142t-139 57t-139 -57t-57 -142zM279 584l69 119h79l-86 -119h-62z" />
    <glyph glyph-name="ocircumflex" unicode="&#xf4;" horiz-adv-x="622" 
d="M45 254q0 111 77.5 186t188.5 75t188.5 -75t77.5 -186q0 -113 -77.5 -189.5t-188.5 -76.5t-188.5 76.5t-77.5 189.5zM115 254q0 -87 57 -146t139 -59t139 59t57 146q0 85 -57 142t-139 57t-139 -57t-57 -142zM190 584l83 119h75l84 -119h-66l-54 81h-2l-54 -81h-66z" />
    <glyph glyph-name="otilde" unicode="&#xf5;" horiz-adv-x="622" 
d="M45 254q0 111 77.5 186t188.5 75t188.5 -75t77.5 -186q0 -113 -77.5 -189.5t-188.5 -76.5t-188.5 76.5t-77.5 189.5zM115 254q0 -87 57 -146t139 -59t139 59t57 146q0 85 -57 142t-139 57t-139 -57t-57 -142zM155 587q0 117 92 117q29 0 50.5 -18t39.5 -36t36 -18
q40 0 40 69h54q0 -117 -92 -117q-29 0 -50.5 18t-39.5 35.5t-36 17.5q-39 0 -39 -68h-55z" />
    <glyph glyph-name="odieresis" unicode="&#xf6;" horiz-adv-x="622" 
d="M45 254q0 111 77.5 186t188.5 75t188.5 -75t77.5 -186q0 -113 -77.5 -189.5t-188.5 -76.5t-188.5 76.5t-77.5 189.5zM115 254q0 -87 57 -146t139 -59t139 59t57 146q0 85 -57 142t-139 57t-139 -57t-57 -142zM356 617v86h62v-86h-62zM205 617v86h61v-86h-61z" />
    <glyph glyph-name="divide" unicode="&#xf7;" horiz-adv-x="646" 
d="M285 433v74h75v-74h-75zM78 255v58h490v-58h-490zM285 61v74h75v-74h-75z" />
    <glyph glyph-name="oslash" unicode="&#xf8;" horiz-adv-x="624" 
d="M46 254q0 111 77.5 186t188.5 75q73 0 136 -36l39 54l41 -30l-38 -54q88 -77 88 -195q0 -113 -77.5 -189.5t-188.5 -76.5q-68 0 -129 32l-38 -53l-41 30l37 51q-95 79 -95 206zM116 254q0 -92 63 -152l232 324q-46 27 -99 27q-82 0 -139 -57t-57 -142zM508 254
q0 84 -57 141l-231 -323q41 -23 92 -23q82 0 139 59t57 146z" />
    <glyph glyph-name="ugrave" unicode="&#xf9;" horiz-adv-x="588" 
d="M75 183v320h68v-302q0 -71 21.5 -110t87.5 -39q83 0 134.5 62t51.5 148v241h68v-503h-66v75l2 40h-2q-19 -46 -70.5 -86.5t-126.5 -40.5q-88 0 -128 48t-40 147zM261 584l-86 119h79l69 -119h-62z" />
    <glyph glyph-name="uacute" unicode="&#xfa;" horiz-adv-x="588" 
d="M75 183v320h68v-302q0 -71 21.5 -110t87.5 -39q83 0 134.5 62t51.5 148v241h68v-503h-66v75l2 40h-2q-19 -46 -70.5 -86.5t-126.5 -40.5q-88 0 -128 48t-40 147zM258 584l69 119h79l-86 -119h-62z" />
    <glyph glyph-name="ucircumflex" unicode="&#xfb;" horiz-adv-x="588" 
d="M75 183v320h68v-302q0 -71 21.5 -110t87.5 -39q83 0 134.5 62t51.5 148v241h68v-503h-66v75l2 40h-2q-19 -46 -70.5 -86.5t-126.5 -40.5q-88 0 -128 48t-40 147zM170 584l83 119h75l84 -119h-66l-54 81h-2l-54 -81h-66z" />
    <glyph glyph-name="udieresis" unicode="&#xfc;" horiz-adv-x="588" 
d="M75 183v320h68v-302q0 -71 21.5 -110t87.5 -39q83 0 134.5 62t51.5 148v241h68v-503h-66v75l2 40h-2q-19 -46 -70.5 -86.5t-126.5 -40.5q-88 0 -128 48t-40 147zM336 617v86h62v-86h-62zM185 617v86h61v-86h-61z" />
    <glyph glyph-name="yacute" unicode="&#xfd;" horiz-adv-x="499" 
d="M7 -180l26 54q28 -23 60 -23q59 0 95 82l31 71l-210 499h75l148 -367l18 -53h2q7 28 17 53l145 367h74l-248 -608q-20 -49 -58 -77t-87 -28q-23 0 -45 7.5t-32 14.5zM218 584l69 119h79l-86 -119h-62z" />
    <glyph glyph-name="thorn" unicode="&#xfe;" horiz-adv-x="589" 
d="M82 -200v903h68v-243l-1 -41h2l6 9q6 9 13 19t21.5 22.5t31.5 22t42.5 16.5t54.5 7q101 0 160.5 -73t59.5 -190q0 -118 -63 -191t-162 -73q-34 0 -64 10t-47.5 24t-30.5 28t-18 24l-5 10h-2q2 -18 2 -44v-240h-68zM148 251q0 -85 43.5 -143.5t117.5 -58.5q69 0 115 55.5
t46 147.5q0 90 -44 145.5t-114 55.5q-71 0 -117.5 -50t-46.5 -152z" />
    <glyph glyph-name="ydieresis" unicode="&#xff;" horiz-adv-x="499" 
d="M7 -180l26 54q28 -23 60 -23q59 0 95 82l31 71l-210 499h75l148 -367l18 -53h2q7 28 17 53l145 367h74l-248 -608q-20 -49 -58 -77t-87 -28q-23 0 -45 7.5t-32 14.5zM296 617v86h62v-86h-62zM145 617v86h61v-86h-61z" />
    <glyph glyph-name="Amacron" unicode="&#x100;" horiz-adv-x="616" 
d="M530 0l-81 224h-283l-80 -224h-73l258 703h74l258 -703h-73zM309 630h-2q-15 -58 -27 -91l-94 -255h242l-92 255zM185 785v55h246v-55h-246z" />
    <glyph glyph-name="amacron" unicode="&#x101;" horiz-adv-x="520" 
d="M41 137q0 174 308 174h28v13q0 130 -125 130q-37 0 -72.5 -12t-52.5 -24l-17 -12l-32 52q7 6 21.5 15.5t61 25.5t96.5 16q91 0 139.5 -49.5t48.5 -143.5v-322h-65v55l2 42h-2q-2 -4 -5.5 -11.5t-17.5 -26.5t-31.5 -33t-48 -26t-65.5 -12q-69 0 -120 39t-51 110zM111 141
q0 -38 29.5 -66.5t82.5 -28.5q68 0 111 58t43 129v22h-29q-42 0 -72.5 -2.5t-73.5 -12.5t-67 -35t-24 -64zM136 617v55h246v-55h-246z" />
    <glyph glyph-name="Abreve" unicode="&#x102;" horiz-adv-x="616" 
d="M530 0l-81 224h-283l-80 -224h-73l258 703h74l258 -703h-73zM309 630h-2q-15 -58 -27 -91l-94 -255h242l-92 255zM308 749q-47 0 -81 28t-34 79v15h55v-13q0 -31 17.5 -46.5t42.5 -15.5q26 0 43.5 15.5t17.5 46.5v13h55v-15q0 -51 -34 -79t-82 -28z" />
    <glyph glyph-name="abreve" unicode="&#x103;" horiz-adv-x="520" 
d="M41 137q0 174 308 174h28v13q0 130 -125 130q-37 0 -72.5 -12t-52.5 -24l-17 -12l-32 52q7 6 21.5 15.5t61 25.5t96.5 16q91 0 139.5 -49.5t48.5 -143.5v-322h-65v55l2 42h-2q-2 -4 -5.5 -11.5t-17.5 -26.5t-31.5 -33t-48 -26t-65.5 -12q-69 0 -120 39t-51 110zM111 141
q0 -38 29.5 -66.5t82.5 -28.5q68 0 111 58t43 129v22h-29q-42 0 -72.5 -2.5t-73.5 -12.5t-67 -35t-24 -64zM258 581q-47 0 -81 28t-34 79v15h55v-13q0 -31 17.5 -46.5t42.5 -15.5q26 0 43.5 15.5t17.5 46.5v13h55v-15q0 -51 -34 -79t-82 -28z" />
    <glyph glyph-name="Aogonek" unicode="&#x104;" horiz-adv-x="616" 
d="M467 -113q0 58 64 109l-82 228h-283l-80 -224h-73l258 703h74l258 -703q-73 -56 -73 -99q0 -20 15.5 -32.5t30.5 -14.5l16 -3l-15 -56q-4 0 -11.5 1t-26.5 7t-33.5 15t-26.5 27t-12 42zM309 630h-2q-15 -58 -27 -91l-94 -255h242l-92 255z" />
    <glyph glyph-name="aogonek" unicode="&#x105;" horiz-adv-x="520" 
d="M41 137q0 174 308 174h28v13q0 130 -125 130q-37 0 -72.5 -12t-52.5 -24l-17 -12l-32 52q7 6 21.5 15.5t61 25.5t96.5 16q91 0 139.5 -49.5t48.5 -143.5v-322q-73 -56 -73 -99q0 -20 15.5 -32.5t30.5 -14.5l16 -3l-15 -56q-4 0 -11.5 1t-26.5 7t-33.5 15t-26.5 27t-12 42
q0 61 71 114v54l2 42h-2q-2 -4 -5.5 -11.5t-17.5 -26.5t-31.5 -33t-48 -26t-65.5 -12q-69 0 -120 39t-51 110zM111 141q0 -38 29.5 -66.5t82.5 -28.5q68 0 111 58t43 129v22h-29q-42 0 -72.5 -2.5t-73.5 -12.5t-67 -35t-24 -64z" />
    <glyph glyph-name="Cacute" unicode="&#x106;" horiz-adv-x="728" 
d="M55 356q0 153 101 256t252 103q47 0 90.5 -9.5t71.5 -22.5t49.5 -26.5t31.5 -22.5l10 -10l-37 -51q-3 3 -9.5 8.5t-28 19t-44.5 23.5t-59 18.5t-73 8.5q-123 0 -203 -84.5t-80 -209.5q0 -128 80.5 -216.5t204.5 -88.5q40 0 78 9.5t64 23.5t46.5 28t29.5 23l10 10l40 -49
l-11.5 -11.5t-33.5 -26.5t-55 -33t-75 -26t-94 -12q-154 0 -255 106t-101 262zM369 752l69 119h79l-86 -119h-62z" />
    <glyph glyph-name="cacute" unicode="&#x107;" horiz-adv-x="549" 
d="M47 251q0 115 76 189.5t188 74.5q34 0 66 -7.5t52.5 -18t36 -21t22.5 -18.5l7 -7l-35 -51q-6 7 -18 17t-50.5 27t-78.5 17q-84 0 -140 -56.5t-56 -145.5q0 -88 57 -145t141 -57q29 0 56 7.5t45 17.5t32.5 20.5t21.5 17.5l6 8l31 -53q-3 -3 -8 -8.5t-24 -19t-40 -24
t-54.5 -19t-69.5 -8.5q-113 0 -188.5 73.5t-75.5 189.5zM261 584l69 119h79l-86 -119h-62z" />
    <glyph glyph-name="Ccircumflex" unicode="&#x108;" horiz-adv-x="728" 
d="M55 356q0 153 101 256t252 103q47 0 90.5 -9.5t71.5 -22.5t49.5 -26.5t31.5 -22.5l10 -10l-37 -51q-3 3 -9.5 8.5t-28 19t-44.5 23.5t-59 18.5t-73 8.5q-123 0 -203 -84.5t-80 -209.5q0 -128 80.5 -216.5t204.5 -88.5q40 0 78 9.5t64 23.5t46.5 28t29.5 23l10 10l40 -49
l-11.5 -11.5t-33.5 -26.5t-55 -33t-75 -26t-94 -12q-154 0 -255 106t-101 262zM281 752l83 119h75l84 -119h-66l-54 81h-2l-54 -81h-66z" />
    <glyph glyph-name="ccircumflex" unicode="&#x109;" horiz-adv-x="549" 
d="M47 251q0 115 76 189.5t188 74.5q34 0 66 -7.5t52.5 -18t36 -21t22.5 -18.5l7 -7l-35 -51q-6 7 -18 17t-50.5 27t-78.5 17q-84 0 -140 -56.5t-56 -145.5q0 -88 57 -145t141 -57q29 0 56 7.5t45 17.5t32.5 20.5t21.5 17.5l6 8l31 -53q-3 -3 -8 -8.5t-24 -19t-40 -24
t-54.5 -19t-69.5 -8.5q-113 0 -188.5 73.5t-75.5 189.5zM173 584l83 119h75l84 -119h-66l-54 81h-2l-54 -81h-66z" />
    <glyph glyph-name="Cdotaccent" unicode="&#x10a;" horiz-adv-x="728" 
d="M55 356q0 153 101 256t252 103q47 0 90.5 -9.5t71.5 -22.5t49.5 -26.5t31.5 -22.5l10 -10l-37 -51q-3 3 -9.5 8.5t-28 19t-44.5 23.5t-59 18.5t-73 8.5q-123 0 -203 -84.5t-80 -209.5q0 -128 80.5 -216.5t204.5 -88.5q40 0 78 9.5t64 23.5t46.5 28t29.5 23l10 10l40 -49
l-11.5 -11.5t-33.5 -26.5t-55 -33t-75 -26t-94 -12q-154 0 -255 106t-101 262zM369 786v85h65v-85h-65z" />
    <glyph glyph-name="cdotaccent" unicode="&#x10b;" horiz-adv-x="549" 
d="M47 251q0 115 76 189.5t188 74.5q34 0 66 -7.5t52.5 -18t36 -21t22.5 -18.5l7 -7l-35 -51q-6 7 -18 17t-50.5 27t-78.5 17q-84 0 -140 -56.5t-56 -145.5q0 -88 57 -145t141 -57q29 0 56 7.5t45 17.5t32.5 20.5t21.5 17.5l6 8l31 -53q-3 -3 -8 -8.5t-24 -19t-40 -24
t-54.5 -19t-69.5 -8.5q-113 0 -188.5 73.5t-75.5 189.5zM261 618v85h65v-85h-65z" />
    <glyph glyph-name="Ccaron" unicode="&#x10c;" horiz-adv-x="728" 
d="M55 356q0 153 101 256t252 103q47 0 90.5 -9.5t71.5 -22.5t49.5 -26.5t31.5 -22.5l10 -10l-37 -51q-3 3 -9.5 8.5t-28 19t-44.5 23.5t-59 18.5t-73 8.5q-123 0 -203 -84.5t-80 -209.5q0 -128 80.5 -216.5t204.5 -88.5q40 0 78 9.5t64 23.5t46.5 28t29.5 23l10 10l40 -49
l-11.5 -11.5t-33.5 -26.5t-55 -33t-75 -26t-94 -12q-154 0 -255 106t-101 262zM364 752l-83 119h66l54 -80h2l54 80h66l-84 -119h-75z" />
    <glyph glyph-name="ccaron" unicode="&#x10d;" horiz-adv-x="549" 
d="M47 251q0 115 76 189.5t188 74.5q34 0 66 -7.5t52.5 -18t36 -21t22.5 -18.5l7 -7l-35 -51q-6 7 -18 17t-50.5 27t-78.5 17q-84 0 -140 -56.5t-56 -145.5q0 -88 57 -145t141 -57q29 0 56 7.5t45 17.5t32.5 20.5t21.5 17.5l6 8l31 -53q-3 -3 -8 -8.5t-24 -19t-40 -24
t-54.5 -19t-69.5 -8.5q-113 0 -188.5 73.5t-75.5 189.5zM256 584l-83 119h66l54 -80h2l54 80h66l-84 -119h-75z" />
    <glyph glyph-name="Dcaron" unicode="&#x10e;" horiz-adv-x="740" 
d="M102 0v703h227q160 0 256.5 -93.5t96.5 -257.5q0 -166 -96 -259t-257 -93h-227zM171 62h151q132 0 210 75.5t78 214.5q0 138 -78 213.5t-210 75.5h-151v-579zM305 752l-83 119h66l54 -80h2l54 80h66l-84 -119h-75z" />
    <glyph glyph-name="dcaron" unicode="&#x10f;" horiz-adv-x="619" 
d="M49 252q0 118 63 190.5t163 72.5q34 0 63.5 -10t47 -23.5t30.5 -27.5t18 -24l5 -10h2q-2 17 -2 38v245h68v-703h-66v53l2 36h-2l-5.5 -11t-17.5 -24.5t-32 -30.5t-49.5 -24t-68.5 -11q-100 0 -159.5 73t-59.5 191zM119 252q0 -92 44 -147.5t115 -55.5q69 0 116 51t47 152
q0 83 -42 142.5t-118 59.5q-69 0 -115.5 -55t-46.5 -147zM570 703h65q6 -26 6 -49q0 -39 -23 -90h-56q19 48 19 81q0 28 -11 58z" />
    <glyph glyph-name="Dcroat" unicode="&#x110;" horiz-adv-x="754" 
d="M58 323v60h60v320h226q161 0 257 -93.5t96 -257.5q0 -166 -96 -259t-257 -93h-226v323h-60zM187 62h150q132 0 210 75.5t78 214.5q0 138 -78 213.5t-210 75.5h-150v-258h167v-60h-167v-261z" />
    <glyph glyph-name="dcroat" unicode="&#x111;" horiz-adv-x="589" 
d="M307 566v51h132v86h68v-86h80v-51h-80v-566h-66v53l2 36h-2l-5.5 -11t-17.5 -24.5t-32 -30.5t-49.5 -24t-68.5 -11q-100 0 -159.5 73t-59.5 191t63 190.5t163 72.5q34 0 63.5 -10t47 -23.5t30.5 -27.5t18 -24l5 -10h2q-2 17 -2 38v108h-132zM119 252q0 -92 44 -147.5
t115 -55.5q69 0 116 51t47 152q0 83 -42 142.5t-118 59.5q-69 0 -115.5 -55t-46.5 -147z" />
    <glyph glyph-name="Emacron" unicode="&#x112;" horiz-adv-x="571" 
d="M102 0v703h396v-62h-327v-256h267v-62h-267v-261h345v-62h-414zM189 785v55h246v-55h-246z" />
    <glyph glyph-name="emacron" unicode="&#x113;" horiz-adv-x="553" 
d="M47 251q0 120 71.5 192t176.5 72q100 0 155 -66.5t55 -165.5l-2 -35h-386q2 -93 57.5 -146t137.5 -53q41 0 79 15t56 30l18 16l31 -52q-8 -8 -23.5 -19.5t-64 -31t-98.5 -19.5q-113 0 -188 74t-75 189zM120 304h316q-3 75 -43 114.5t-100 39.5q-66 0 -113.5 -40.5
t-59.5 -113.5zM173 617v55h246v-55h-246z" />
    <glyph glyph-name="Ebreve" unicode="&#x114;" horiz-adv-x="571" 
d="M102 0v703h396v-62h-327v-256h267v-62h-267v-261h345v-62h-414zM311 749q-47 0 -81 28t-34 79v15h55v-13q0 -31 17.5 -46.5t42.5 -15.5q26 0 43.5 15.5t17.5 46.5v13h55v-15q0 -51 -34 -79t-82 -28z" />
    <glyph glyph-name="ebreve" unicode="&#x115;" horiz-adv-x="553" 
d="M47 251q0 120 71.5 192t176.5 72q100 0 155 -66.5t55 -165.5l-2 -35h-386q2 -93 57.5 -146t137.5 -53q41 0 79 15t56 30l18 16l31 -52q-8 -8 -23.5 -19.5t-64 -31t-98.5 -19.5q-113 0 -188 74t-75 189zM120 304h316q-3 75 -43 114.5t-100 39.5q-66 0 -113.5 -40.5
t-59.5 -113.5zM295 581q-47 0 -81 28t-34 79v15h55v-13q0 -31 17.5 -46.5t42.5 -15.5q26 0 43.5 15.5t17.5 46.5v13h55v-15q0 -51 -34 -79t-82 -28z" />
    <glyph glyph-name="Edotaccent" unicode="&#x116;" horiz-adv-x="571" 
d="M102 0v703h396v-62h-327v-256h267v-62h-267v-261h345v-62h-414zM279 786v85h65v-85h-65z" />
    <glyph glyph-name="edotaccent" unicode="&#x117;" horiz-adv-x="553" 
d="M47 251q0 120 71.5 192t176.5 72q100 0 155 -66.5t55 -165.5l-2 -35h-386q2 -93 57.5 -146t137.5 -53q41 0 79 15t56 30l18 16l31 -52q-8 -8 -23.5 -19.5t-64 -31t-98.5 -19.5q-113 0 -188 74t-75 189zM120 304h316q-3 75 -43 114.5t-100 39.5q-66 0 -113.5 -40.5
t-59.5 -113.5zM263 618v85h65v-85h-65z" />
    <glyph glyph-name="Eogonek" unicode="&#x118;" horiz-adv-x="571" 
d="M102 0v703h396v-62h-327v-256h267v-62h-267v-261h345v-62q-73 -56 -73 -99q0 -20 15.5 -32.5t31.5 -14.5l15 -3l-15 -56q-4 0 -11.5 1t-26.5 7t-33.5 15t-26.5 27t-12 42q0 58 70 111v2h-348z" />
    <glyph glyph-name="eogonek" unicode="&#x119;" horiz-adv-x="554" 
d="M47 251q0 120 71.5 192t176.5 72q100 0 155 -66.5t55 -165.5l-2 -35h-386q2 -93 57.5 -146t137.5 -53q41 0 79 15t56 30l18 16l31 -52q-10 -10 -52.5 -39.5t-67.5 -58t-25 -59.5q0 -20 15.5 -32.5t31.5 -14.5l15 -3l-15 -56q-4 0 -11.5 1t-26.5 7t-33.5 15t-26.5 27
t-12 42q0 52 54 102v2q-15 -3 -32 -3q-113 0 -188 74t-75 189zM120 304h316q-3 75 -43 114.5t-100 39.5q-66 0 -113.5 -40.5t-59.5 -113.5z" />
    <glyph glyph-name="Ecaron" unicode="&#x11a;" horiz-adv-x="571" 
d="M102 0v703h396v-62h-327v-256h267v-62h-267v-261h345v-62h-414zM274 752l-83 119h66l54 -80h2l54 80h66l-84 -119h-75z" />
    <glyph glyph-name="ecaron" unicode="&#x11b;" horiz-adv-x="553" 
d="M47 251q0 120 71.5 192t176.5 72q100 0 155 -66.5t55 -165.5l-2 -35h-386q2 -93 57.5 -146t137.5 -53q41 0 79 15t56 30l18 16l31 -52q-8 -8 -23.5 -19.5t-64 -31t-98.5 -19.5q-113 0 -188 74t-75 189zM120 304h316q-3 75 -43 114.5t-100 39.5q-66 0 -113.5 -40.5
t-59.5 -113.5zM258 584l-83 119h66l54 -80h2l54 80h66l-84 -119h-75z" />
    <glyph glyph-name="Gcircumflex" unicode="&#x11c;" horiz-adv-x="758" 
d="M55 352q0 153 101.5 258t252.5 105q72 0 134.5 -20.5t88.5 -40.5l27 -21l-37 -52q-9 8 -26.5 19.5t-72 31t-111.5 19.5q-126 0 -205.5 -85.5t-79.5 -212.5q0 -130 79.5 -215.5t199.5 -85.5q61 0 116 26t80 52l25 25v119h-120v62h186v-336h-64v53l1 30h-2
q-3 -4 -9.5 -10.5t-28.5 -22.5t-46.5 -28.5t-64 -23t-80.5 -10.5q-145 0 -244.5 104t-99.5 260zM277 752l83 119h75l84 -119h-66l-54 81h-2l-54 -81h-66z" />
    <glyph glyph-name="gcircumflex" unicode="&#x11d;" horiz-adv-x="582" 
d="M120 -114q62 -35 136 -35q79 0 127.5 39t48.5 119v46l2 36h-2q-47 -88 -159 -88q-101 0 -162.5 72t-61.5 186t59 184t159 70q37 0 68 -8.5t48.5 -21t29.5 -25t16 -20.5l4 -9h2q-1 6 -1 17v55h66v-491q0 -112 -69.5 -167t-171.5 -55q-87 0 -165 40zM284 64
q66 0 107.5 46.5t41.5 150.5q0 192 -159 192q-73 0 -114 -50.5t-41 -140.5t45 -144t120 -54zM164 584l83 119h75l84 -119h-66l-54 81h-2l-54 -81h-66z" />
    <glyph glyph-name="Gbreve" unicode="&#x11e;" horiz-adv-x="758" 
d="M55 352q0 153 101.5 258t252.5 105q72 0 134.5 -20.5t88.5 -40.5l27 -21l-37 -52q-9 8 -26.5 19.5t-72 31t-111.5 19.5q-126 0 -205.5 -85.5t-79.5 -212.5q0 -130 79.5 -215.5t199.5 -85.5q61 0 116 26t80 52l25 25v119h-120v62h186v-336h-64v53l1 30h-2
q-3 -4 -9.5 -10.5t-28.5 -22.5t-46.5 -28.5t-64 -23t-80.5 -10.5q-145 0 -244.5 104t-99.5 260zM398 749q-47 0 -81 28t-34 79v15h55v-13q0 -31 17.5 -46.5t42.5 -15.5q26 0 43.5 15.5t17.5 46.5v13h55v-15q0 -51 -34 -79t-82 -28z" />
    <glyph glyph-name="gbreve" unicode="&#x11f;" horiz-adv-x="582" 
d="M120 -114q62 -35 136 -35q79 0 127.5 39t48.5 119v46l2 36h-2q-47 -88 -159 -88q-101 0 -162.5 72t-61.5 186t59 184t159 70q37 0 68 -8.5t48.5 -21t29.5 -25t16 -20.5l4 -9h2q-1 6 -1 17v55h66v-491q0 -112 -69.5 -167t-171.5 -55q-87 0 -165 40zM284 64
q66 0 107.5 46.5t41.5 150.5q0 192 -159 192q-73 0 -114 -50.5t-41 -140.5t45 -144t120 -54zM284 581q-47 0 -81 28t-34 79v15h55v-13q0 -31 17.5 -46.5t42.5 -15.5q26 0 43.5 15.5t17.5 46.5v13h55v-15q0 -51 -34 -79t-82 -28z" />
    <glyph glyph-name="Gdotaccent" unicode="&#x120;" horiz-adv-x="758" 
d="M55 352q0 153 101.5 258t252.5 105q72 0 134.5 -20.5t88.5 -40.5l27 -21l-37 -52q-9 8 -26.5 19.5t-72 31t-111.5 19.5q-126 0 -205.5 -85.5t-79.5 -212.5q0 -130 79.5 -215.5t199.5 -85.5q61 0 116 26t80 52l25 25v119h-120v62h186v-336h-64v53l1 30h-2
q-3 -4 -9.5 -10.5t-28.5 -22.5t-46.5 -28.5t-64 -23t-80.5 -10.5q-145 0 -244.5 104t-99.5 260zM366 786v85h65v-85h-65z" />
    <glyph glyph-name="gdotaccent" unicode="&#x121;" horiz-adv-x="582" 
d="M120 -114q62 -35 136 -35q79 0 127.5 39t48.5 119v46l2 36h-2q-47 -88 -159 -88q-101 0 -162.5 72t-61.5 186t59 184t159 70q37 0 68 -8.5t48.5 -21t29.5 -25t16 -20.5l4 -9h2q-1 6 -1 17v55h66v-491q0 -112 -69.5 -167t-171.5 -55q-87 0 -165 40zM284 64
q66 0 107.5 46.5t41.5 150.5q0 192 -159 192q-73 0 -114 -50.5t-41 -140.5t45 -144t120 -54zM252 618v85h65v-85h-65z" />
    <glyph glyph-name="Gcommaaccent" unicode="&#x122;" horiz-adv-x="758" 
d="M55 352q0 153 101.5 258t252.5 105q72 0 134.5 -20.5t88.5 -40.5l27 -21l-37 -52q-9 8 -26.5 19.5t-72 31t-111.5 19.5q-126 0 -205.5 -85.5t-79.5 -212.5q0 -130 79.5 -215.5t199.5 -85.5q61 0 116 26t80 52l25 25v119h-120v62h186v-336h-64v53l1 30h-2
q-3 -4 -9.5 -10.5t-28.5 -22.5t-46.5 -28.5t-64 -23t-80.5 -10.5q-145 0 -244.5 104t-99.5 260zM366 -63h65q6 -25 6 -49q0 -39 -23 -90h-56q19 47 19 81q0 28 -11 58z" />
    <glyph glyph-name="gcommaaccent" unicode="&#x123;" horiz-adv-x="582" 
d="M120 -114q62 -35 136 -35q79 0 127.5 39t48.5 119v46l2 36h-2q-47 -88 -159 -88q-101 0 -162.5 72t-61.5 186t59 184t159 70q37 0 68 -8.5t48.5 -21t29.5 -25t16 -20.5l4 -9h2q-1 6 -1 17v55h66v-491q0 -112 -69.5 -167t-171.5 -55q-87 0 -165 40zM284 64
q66 0 107.5 46.5t41.5 150.5q0 192 -159 192q-73 0 -114 -50.5t-41 -140.5t45 -144t120 -54zM319 566h-65q-6 24 -6 48q0 39 23 90h56q-19 -48 -19 -81q0 -28 11 -57z" />
    <glyph glyph-name="Hcircumflex" unicode="&#x124;" horiz-adv-x="750" 
d="M102 0v703h69v-320h408v320h69v-703h-69v321h-408v-321h-69zM254 752l83 119h75l84 -119h-66l-54 81h-2l-54 -81h-66z" />
    <glyph glyph-name="hcircumflex" unicode="&#x125;" horiz-adv-x="593" 
d="M82 0v703h68v-272l-2 -41h2q18 45 70.5 85t129.5 40q90 0 129 -49t39 -146v-320h-68v302q0 71 -21.5 110t-87.5 39q-64 0 -115 -40t-68 -103q-8 -27 -8 -67v-241h-68zM-4 752l83 119h75l84 -119h-66l-54 81h-2l-54 -81h-66z" />
    <glyph glyph-name="Hbar" unicode="&#x126;" horiz-adv-x="794" 
d="M125 0v512h-66v54h66v137h70v-137h404v137h70v-137h65v-54h-65v-512h-70v321h-404v-321h-70zM195 383h404v129h-404v-129z" />
    <glyph glyph-name="hbar" unicode="&#x127;" horiz-adv-x="593" 
d="M6 566v51h76v86h68v-86h133v-51h-133v-135l-2 -41h2q18 45 70.5 85t129.5 40q90 0 129 -49t39 -146v-320h-68v302q0 71 -21.5 110t-87.5 39q-64 0 -115 -40t-68 -103q-8 -27 -8 -67v-241h-68v566h-76z" />
    <glyph glyph-name="Itilde" unicode="&#x128;" horiz-adv-x="273" 
d="M102 0v703h69v-703h-69zM-19 755q0 117 92 117q29 0 50.5 -18t39.5 -36t36 -18q40 0 40 69h54q0 -117 -92 -117q-29 0 -50.5 18t-39.5 35.5t-36 17.5q-39 0 -39 -68h-55z" />
    <glyph glyph-name="itilde" unicode="&#x129;" horiz-adv-x="232" 
d="M-39 587q0 117 92 117q29 0 50.5 -18t39.5 -36t36 -18q40 0 40 69h54q0 -117 -92 -117q-29 0 -50.5 18t-39.5 35.5t-36 17.5q-39 0 -39 -68h-55zM82 0v503h68v-503h-68z" />
    <glyph glyph-name="Imacron" unicode="&#x12a;" horiz-adv-x="273" 
d="M102 0v703h69v-703h-69zM14 785v55h246v-55h-246z" />
    <glyph glyph-name="imacron" unicode="&#x12b;" horiz-adv-x="232" 
d="M-6 617v55h246v-55h-246zM82 0v503h68v-503h-68z" />
    <glyph glyph-name="Ibreve" unicode="&#x12c;" horiz-adv-x="273" 
d="M102 0v703h69v-703h-69zM137 749q-47 0 -81 28t-34 79v15h55v-13q0 -31 17.5 -46.5t42.5 -15.5q26 0 43.5 15.5t17.5 46.5v13h55v-15q0 -51 -34 -79t-82 -28z" />
    <glyph glyph-name="ibreve" unicode="&#x12d;" horiz-adv-x="232" 
d="M116 581q-47 0 -81 28t-34 79v15h55v-13q0 -31 17.5 -46.5t42.5 -15.5q26 0 43.5 15.5t17.5 46.5v13h55v-15q0 -51 -34 -79t-82 -28zM82 0v503h68v-503h-68z" />
    <glyph glyph-name="Iogonek" unicode="&#x12e;" horiz-adv-x="273" 
d="M43 -113q0 59 59 112v704h69v-703q-64 -54 -64 -99q0 -20 15.5 -32.5t31.5 -14.5l15 -3l-16 -56q-4 0 -11.5 1t-26.5 7t-33.5 15t-26.5 27t-12 42z" />
    <glyph glyph-name="iogonek" unicode="&#x12f;" horiz-adv-x="232" 
d="M22 -113q0 57 60 112v504h68v-503q-64 -54 -64 -99q0 -20 15.5 -32.5t30.5 -14.5l16 -3l-16 -56q-4 0 -11.5 1t-26.5 7t-33.5 15t-26.5 27t-12 42zM80 618v85h71v-85h-71z" />
    <glyph glyph-name="Idotaccent" unicode="&#x130;" horiz-adv-x="273" 
d="M102 0v703h69v-703h-69zM105 786v85h65v-85h-65z" />
    <glyph glyph-name="dotlessi" unicode="&#x131;" horiz-adv-x="232" 
d="M82 0v503h68v-503h-68z" />
    <glyph glyph-name="IJ" unicode="&#x132;" horiz-adv-x="582" 
d="M272 -5v65q146 0 146 168v475h70v-475q0 -233 -216 -233zM102 0v703h69v-703h-69z" />
    <glyph glyph-name="ij" unicode="&#x133;" horiz-adv-x="464" 
d="M80 618v85h71v-85h-71zM82 0v503h68v-503h-68zM313 618v85h70v-85h-70zM314 503h68v-522q0 -59 -18.5 -99t-49 -57.5t-55.5 -24t-52 -6.5l-30 3v59q9 -1 22 -1q18 0 35 4.5t36.5 16.5t31.5 40t12 68v519z" />
    <glyph glyph-name="Jcircumflex" unicode="&#x134;" horiz-adv-x="524" 
d="M35 197v28h69v-26q0 -75 37.5 -111t91.5 -36q53 0 90.5 35t37.5 110v444h-172v62h241v-506q0 -106 -58 -157.5t-140 -51.5q-81 0 -139 52t-58 157zM188 752l83 119h75l84 -119h-66l-54 81h-2l-54 -81h-66z" />
    <glyph glyph-name="jcircumflex" unicode="&#x135;" horiz-adv-x="232" 
d="M82 503h68v-522q0 -59 -18.5 -99t-49 -57.5t-55.5 -24t-52 -6.5l-30 3v59q9 -1 22 -1q18 0 35 4.5t36.5 16.5t31.5 40t12 68v519zM-7 584l84 119h72l84 -119h-65l-54 81h-2l-54 -81h-65z" />
    <glyph glyph-name="Kcommaaccent" unicode="&#x136;" horiz-adv-x="601" 
d="M102 0v703h69v-305h119l189 305h79l-210 -332v-2l224 -369h-81l-201 336h-119v-336h-69zM277 -63h65q6 -25 6 -49q0 -39 -23 -90h-56q19 47 19 81q0 28 -11 58z" />
    <glyph glyph-name="kcommaaccent" unicode="&#x137;" horiz-adv-x="502" 
d="M82 0v703h68v-392h80l151 192h82l-175 -219v-2l192 -282h-81l-168 252h-81v-252h-68zM228 -63h65q6 -25 6 -49q0 -39 -23 -90h-56q19 47 19 81q0 28 -11 58z" />
    <glyph glyph-name="kgreenlandic" unicode="&#x138;" horiz-adv-x="504" 
d="M82 0v503h68v-206h79l159 206h83l-183 -233v-2l183 -268h-84l-157 238h-80v-238h-68z" />
    <glyph glyph-name="Lacute" unicode="&#x139;" horiz-adv-x="518" 
d="M102 0v703h69v-641h326v-62h-395zM104 752l69 119h79l-86 -119h-62z" />
    <glyph glyph-name="lacute" unicode="&#x13a;" horiz-adv-x="247" 
d="M77 119v584h68v-569q0 -76 56 -76l17 1v-61q-12 -2 -25 -2q-116 0 -116 123zM80 752l69 119h79l-86 -119h-62z" />
    <glyph glyph-name="Lcommaaccent" unicode="&#x13b;" horiz-adv-x="518" 
d="M102 0v703h69v-641h326v-62h-395zM272 -63h65q6 -25 6 -49q0 -39 -23 -90h-56q19 47 19 81q0 28 -11 58z" />
    <glyph glyph-name="lcommaaccent" unicode="&#x13c;" horiz-adv-x="247" 
d="M77 119v584h68v-569q0 -76 56 -76l17 1v-61q-12 -2 -25 -2q-116 0 -116 123zM112 -63h65q6 -25 6 -49q0 -39 -23 -90h-56q19 47 19 81q0 28 -11 58z" />
    <glyph glyph-name="Lcaron" unicode="&#x13d;" horiz-adv-x="518" 
d="M102 0v703h69v-641h326v-62h-395zM263 703h65q6 -26 6 -49q0 -39 -23 -90h-56q19 48 19 81q0 28 -11 58z" />
    <glyph glyph-name="lcaron" unicode="&#x13e;" horiz-adv-x="277" 
d="M77 119v584h68v-569q0 -76 56 -76l17 1v-61q-12 -2 -25 -2q-116 0 -116 123zM208 703h65q6 -26 6 -49q0 -39 -23 -90h-56q19 48 19 81q0 28 -11 58z" />
    <glyph glyph-name="Ldot" unicode="&#x13f;" horiz-adv-x="518" 
d="M102 0v703h69v-641h326v-62h-395zM298 332v80h77v-80h-77z" />
    <glyph glyph-name="ldot" unicode="&#x140;" horiz-adv-x="299" 
d="M77 119v584h68v-569q0 -76 56 -76l17 1v-61q-12 -2 -25 -2q-116 0 -116 123zM213 332v80h77v-80h-77z" />
    <glyph glyph-name="Lslash" unicode="&#x141;" horiz-adv-x="544" 
d="M65 302v70l63 36v295h69v-255l112 65v-72l-112 -64v-315h326v-62h-395v338z" />
    <glyph glyph-name="lslash" unicode="&#x142;" horiz-adv-x="308" 
d="M36 306v70l82 47v280h68v-240l87 50v-72l-87 -50v-257q0 -76 56 -76l17 1v-61q-12 -2 -25 -2q-116 0 -116 123v233z" />
    <glyph glyph-name="Nacute" unicode="&#x143;" horiz-adv-x="753" 
d="M102 0v703h67l359 -506l58 -95h2q-6 58 -6 95v506h69v-703h-67l-359 506l-58 95h-2q6 -58 6 -95v-506h-69zM344 752l69 119h79l-86 -119h-62z" />
    <glyph glyph-name="nacute" unicode="&#x144;" horiz-adv-x="593" 
d="M82 0v503h67v-75l-2 -40h2q18 46 70 86.5t131 40.5q90 0 129 -49t39 -146v-320h-68v302q0 71 -21.5 110t-87.5 39q-64 0 -115 -39.5t-68 -102.5q-8 -28 -8 -68v-241h-68zM278 584l69 119h79l-86 -119h-62z" />
    <glyph glyph-name="Ncommaaccent" unicode="&#x145;" horiz-adv-x="753" 
d="M102 0v703h67l359 -506l58 -95h2q-6 58 -6 95v506h69v-703h-67l-359 506l-58 95h-2q6 -58 6 -95v-506h-69zM343 -63h65q6 -25 6 -49q0 -39 -23 -90h-56q19 47 19 81q0 28 -11 58z" />
    <glyph glyph-name="ncommaaccent" unicode="&#x146;" horiz-adv-x="593" 
d="M82 0v503h67v-75l-2 -40h2q18 46 70 86.5t131 40.5q90 0 129 -49t39 -146v-320h-68v302q0 71 -21.5 110t-87.5 39q-64 0 -115 -39.5t-68 -102.5q-8 -28 -8 -68v-241h-68zM266 -63h65q6 -25 6 -49q0 -39 -23 -90h-56q19 47 19 81q0 28 -11 58z" />
    <glyph glyph-name="Ncaron" unicode="&#x147;" horiz-adv-x="753" 
d="M102 0v703h67l359 -506l58 -95h2q-6 58 -6 95v506h69v-703h-67l-359 506l-58 95h-2q6 -58 6 -95v-506h-69zM339 752l-83 119h66l54 -80h2l54 80h66l-84 -119h-75z" />
    <glyph glyph-name="ncaron" unicode="&#x148;" horiz-adv-x="593" 
d="M82 0v503h67v-75l-2 -40h2q18 46 70 86.5t131 40.5q90 0 129 -49t39 -146v-320h-68v302q0 71 -21.5 110t-87.5 39q-64 0 -115 -39.5t-68 -102.5q-8 -28 -8 -68v-241h-68zM272 584l-83 119h66l54 -80h2l54 80h66l-84 -119h-75z" />
    <glyph glyph-name="napostrophe" unicode="&#x149;" horiz-adv-x="593" 
d="M82 0v503h67v-75l-2 -40h2q18 46 70 86.5t131 40.5q90 0 129 -49t39 -146v-320h-68v302q0 71 -21.5 110t-87.5 39q-64 0 -115 -39.5t-68 -102.5q-8 -28 -8 -68v-241h-68zM19 703h65q6 -25 6 -49q0 -39 -23 -90h-56q19 48 19 81q0 28 -11 58z" />
    <glyph glyph-name="Eng" unicode="&#x14a;" horiz-adv-x="753" 
d="M102 0v703h67l359 -506l58 -95h2q-6 58 -6 95v506h69v-691q0 -114 -61 -165.5t-147 -51.5v65q54 0 95 35t43 110l-356 501l-58 95h-2q6 -58 6 -95v-506h-69z" />
    <glyph glyph-name="eng" unicode="&#x14b;" horiz-adv-x="593" 
d="M82 0v503h67v-79l-2 -36h2q18 46 70 86.5t131 40.5q90 0 129 -49t39 -146v-343q0 -59 -18.5 -99t-48.5 -57.5t-55.5 -24t-52.5 -6.5l-29 3v59q9 -1 22 -1q18 0 35 4.5t36.5 16.5t31 40t11.5 68v322q0 71 -21.5 110t-87.5 39q-64 0 -115 -39.5t-68 -102.5q-8 -28 -8 -68
v-241h-68z" />
    <glyph glyph-name="Omacron" unicode="&#x14c;" horiz-adv-x="824" 
d="M54 356q0 151 104 255t254 104t254 -104t104 -255q0 -154 -104.5 -261t-253.5 -107t-253.5 107t-104.5 261zM126 356q0 -128 83 -216t203 -88q119 0 202.5 88t83.5 216q0 125 -83.5 210t-202.5 85q-120 0 -203 -85t-83 -210zM289 785v55h246v-55h-246z" />
    <glyph glyph-name="omacron" unicode="&#x14d;" horiz-adv-x="622" 
d="M45 254q0 111 77.5 186t188.5 75t188.5 -75t77.5 -186q0 -113 -77.5 -189.5t-188.5 -76.5t-188.5 76.5t-77.5 189.5zM115 254q0 -87 57 -146t139 -59t139 59t57 146q0 85 -57 142t-139 57t-139 -57t-57 -142zM188 617v55h246v-55h-246z" />
    <glyph glyph-name="Obreve" unicode="&#x14e;" horiz-adv-x="824" 
d="M54 356q0 151 104 255t254 104t254 -104t104 -255q0 -154 -104.5 -261t-253.5 -107t-253.5 107t-104.5 261zM126 356q0 -128 83 -216t203 -88q119 0 202.5 88t83.5 216q0 125 -83.5 210t-202.5 85q-120 0 -203 -85t-83 -210zM411 749q-47 0 -81 28t-34 79v15h55v-13
q0 -31 17.5 -46.5t42.5 -15.5q26 0 43.5 15.5t17.5 46.5v13h55v-15q0 -51 -34 -79t-82 -28z" />
    <glyph glyph-name="obreve" unicode="&#x14f;" horiz-adv-x="622" 
d="M45 254q0 111 77.5 186t188.5 75t188.5 -75t77.5 -186q0 -113 -77.5 -189.5t-188.5 -76.5t-188.5 76.5t-77.5 189.5zM115 254q0 -87 57 -146t139 -59t139 59t57 146q0 85 -57 142t-139 57t-139 -57t-57 -142zM311 581q-47 0 -81 28t-34 79v15h55v-13q0 -31 17.5 -46.5
t42.5 -15.5q26 0 43.5 15.5t17.5 46.5v13h55v-15q0 -51 -34 -79t-82 -28z" />
    <glyph glyph-name="Ohungarumlaut" unicode="&#x150;" horiz-adv-x="824" 
d="M54 356q0 151 104 255t254 104t254 -104t104 -255q0 -154 -104.5 -261t-253.5 -107t-253.5 107t-104.5 261zM126 356q0 -128 83 -216t203 -88q119 0 202.5 88t83.5 216q0 125 -83.5 210t-202.5 85q-120 0 -203 -85t-83 -210zM433 752l70 119h77l-87 -119h-60zM299 752
l65 119h68l-68 -119h-65z" />
    <glyph glyph-name="ohungarumlaut" unicode="&#x151;" horiz-adv-x="622" 
d="M45 254q0 111 77.5 186t188.5 75t188.5 -75t77.5 -186q0 -113 -77.5 -189.5t-188.5 -76.5t-188.5 76.5t-77.5 189.5zM115 254q0 -87 57 -146t139 -59t139 59t57 146q0 85 -57 142t-139 57t-139 -57t-57 -142zM332 584l70 119h77l-87 -119h-60zM198 584l65 119h68
l-68 -119h-65z" />
    <glyph glyph-name="OE" unicode="&#x152;" horiz-adv-x="953" 
d="M55 352q0 153 101.5 257t256.5 104q22 0 63 -5t56 -5h347v-62h-326v-256h266v-62h-266v-261h344v-62h-364q-14 0 -56 -5t-64 -5q-155 0 -256.5 104t-101.5 258zM127 352q0 -128 79.5 -213.5t206.5 -85.5q17 0 34.5 1.5t26.5 3.5l9 2v582q-32 8 -70 8q-127 0 -206.5 -85
t-79.5 -213z" />
    <glyph glyph-name="oe" unicode="&#x153;" horiz-adv-x="1013" 
d="M46 250q0 117 77 191t187 74q75 0 134.5 -36t92.5 -99h2q29 64 85.5 99.5t129.5 35.5q100 0 155.5 -66.5t55.5 -165.5l-2 -35h-386q4 -95 59.5 -147t135.5 -52q41 0 79 15t55 30l18 16l32 -52q-8 -8 -23.5 -19.5t-64 -31t-99.5 -19.5q-78 0 -138 36.5t-91 100.5h-2
q-32 -64 -92 -100.5t-136 -36.5q-110 0 -187 73t-77 189zM580 304h315q-3 75 -42.5 114.5t-99.5 39.5q-66 0 -113.5 -40.5t-59.5 -113.5zM116 250q0 -89 56.5 -145t138.5 -56t138.5 57t56.5 148q0 89 -57 144t-138 55q-82 0 -138.5 -56.5t-56.5 -146.5z" />
    <glyph glyph-name="Racute" unicode="&#x154;" horiz-adv-x="628" 
d="M102 0v703h208q88 0 132 -19q50 -22 78 -69.5t28 -111.5q0 -71 -36.5 -122t-96.5 -68v-2q7 -9 18 -28l153 -283h-79l-159 296h-177v-296h-69zM171 358h167q64 0 101.5 38.5t37.5 104.5q0 89 -64 123q-32 17 -100 17h-142v-283zM270 752l69 119h79l-86 -119h-62z" />
    <glyph glyph-name="racute" unicode="&#x155;" horiz-adv-x="356" 
d="M82 0v503h67v-89l-2 -40h2q19 60 60.5 97t98.5 37l27 -3v-67q-12 2 -25 2q-52 0 -90.5 -36t-55.5 -94q-14 -45 -14 -98v-212h-68zM181 584l69 119h79l-86 -119h-62z" />
    <glyph glyph-name="Rcommaaccent" unicode="&#x156;" horiz-adv-x="628" 
d="M102 0v703h208q88 0 132 -19q50 -22 78 -69.5t28 -111.5q0 -71 -36.5 -122t-96.5 -68v-2q7 -9 18 -28l153 -283h-79l-159 296h-177v-296h-69zM171 358h167q64 0 101.5 38.5t37.5 104.5q0 89 -64 123q-32 17 -100 17h-142v-283zM289 -63h65q6 -25 6 -49q0 -39 -23 -90h-56
q19 47 19 81q0 28 -11 58z" />
    <glyph glyph-name="rcommaaccent" unicode="&#x157;" horiz-adv-x="356" 
d="M82 0v503h67v-89l-2 -40h2q19 60 60.5 97t98.5 37l27 -3v-67q-12 2 -25 2q-52 0 -90.5 -36t-55.5 -94q-14 -45 -14 -98v-212h-68zM84 -63h65q6 -25 6 -49q0 -39 -23 -90h-56q19 47 19 81q0 28 -11 58z" />
    <glyph glyph-name="Rcaron" unicode="&#x158;" horiz-adv-x="628" 
d="M102 0v703h208q88 0 132 -19q50 -22 78 -69.5t28 -111.5q0 -71 -36.5 -122t-96.5 -68v-2q7 -9 18 -28l153 -283h-79l-159 296h-177v-296h-69zM171 358h167q64 0 101.5 38.5t37.5 104.5q0 89 -64 123q-32 17 -100 17h-142v-283zM264 752l-83 119h66l54 -80h2l54 80h66
l-84 -119h-75z" />
    <glyph glyph-name="rcaron" unicode="&#x159;" horiz-adv-x="356" 
d="M82 0v503h67v-89l-2 -40h2q19 60 60.5 97t98.5 37l27 -3v-67q-12 2 -25 2q-52 0 -90.5 -36t-55.5 -94q-14 -45 -14 -98v-212h-68zM177 584l-83 119h66l54 -80h2l54 80h66l-84 -119h-75z" />
    <glyph glyph-name="Sacute" unicode="&#x15a;" horiz-adv-x="538" 
d="M50 78l41 53l8.5 -8.5t24 -18.5t38.5 -23t51 -18.5t62 -8.5q60 0 100 33.5t40 88.5q0 48 -36 82t-87.5 55.5t-103.5 45t-88 65.5t-36 102q0 78 62 133.5t157 55.5q54 0 101 -17t67 -34l20 -17l-34 -58q-7 7 -20 17t-53 26.5t-81 16.5q-65 0 -106.5 -36t-41.5 -85
q0 -46 36 -77.5t87.5 -52.5t103.5 -44.5t88 -67.5t36 -108q0 -81 -58 -135.5t-155 -54.5q-64 0 -119.5 22.5t-79.5 45.5zM239 752l69 119h79l-86 -119h-62z" />
    <glyph glyph-name="sacute" unicode="&#x15b;" horiz-adv-x="443" 
d="M41 61l37 49q6 -7 18 -17t51 -27t81 -17q43 0 72 21t29 59q0 30 -28 51.5t-67.5 36.5t-79.5 32.5t-68 49.5t-28 77q0 65 50 102t122 37q30 0 56.5 -5.5t44 -13.5t30.5 -16.5t19 -13.5l5 -6l-31 -52q-5 5 -14.5 12.5t-42 20.5t-69.5 13q-42 0 -71 -19.5t-29 -58.5
q0 -30 28 -51.5t68 -36t79.5 -32t67.5 -49.5t28 -78q0 -62 -48 -101.5t-124 -39.5q-34 0 -66 7.5t-52.5 18t-36.5 21.5t-24 19zM194 584l69 119h79l-86 -119h-62z" />
    <glyph glyph-name="Scircumflex" unicode="&#x15c;" horiz-adv-x="538" 
d="M50 78l41 53l8.5 -8.5t24 -18.5t38.5 -23t51 -18.5t62 -8.5q60 0 100 33.5t40 88.5q0 48 -36 82t-87.5 55.5t-103.5 45t-88 65.5t-36 102q0 78 62 133.5t157 55.5q54 0 101 -17t67 -34l20 -17l-34 -58q-7 7 -20 17t-53 26.5t-81 16.5q-65 0 -106.5 -36t-41.5 -85
q0 -46 36 -77.5t87.5 -52.5t103.5 -44.5t88 -67.5t36 -108q0 -81 -58 -135.5t-155 -54.5q-64 0 -119.5 22.5t-79.5 45.5zM151 752l83 119h75l84 -119h-66l-54 81h-2l-54 -81h-66z" />
    <glyph glyph-name="scircumflex" unicode="&#x15d;" horiz-adv-x="443" 
d="M41 61l37 49q6 -7 18 -17t51 -27t81 -17q43 0 72 21t29 59q0 30 -28 51.5t-67.5 36.5t-79.5 32.5t-68 49.5t-28 77q0 65 50 102t122 37q30 0 56.5 -5.5t44 -13.5t30.5 -16.5t19 -13.5l5 -6l-31 -52q-5 5 -14.5 12.5t-42 20.5t-69.5 13q-42 0 -71 -19.5t-29 -58.5
q0 -30 28 -51.5t68 -36t79.5 -32t67.5 -49.5t28 -78q0 -62 -48 -101.5t-124 -39.5q-34 0 -66 7.5t-52.5 18t-36.5 21.5t-24 19zM107 584l83 119h75l84 -119h-66l-54 81h-2l-54 -81h-66z" />
    <glyph glyph-name="Scedilla" unicode="&#x15e;" horiz-adv-x="538" 
d="M50 78l41 53l8.5 -8.5t24 -18.5t38.5 -23t51 -18.5t62 -8.5q60 0 100 33.5t40 88.5q0 48 -36 82t-87.5 55.5t-103.5 45t-88 65.5t-36 102q0 78 62 133.5t157 55.5q54 0 101 -17t67 -34l20 -17l-34 -58q-7 7 -20 17t-53 26.5t-81 16.5q-65 0 -106.5 -36t-41.5 -85
q0 -46 36 -77.5t87.5 -52.5t103.5 -44.5t88 -67.5t36 -108q0 -77 -52.5 -130t-140.5 -59l-8 -44q31 -5 50.5 -23.5t19.5 -47.5q0 -41 -27.5 -60t-68.5 -19l-50 5v48q19 -6 42 -6q51 0 51 34t-57 34l-15 -1l18 80q-57 4 -106.5 26.5t-70.5 42.5z" />
    <glyph glyph-name="scedilla" unicode="&#x15f;" horiz-adv-x="443" 
d="M41 61l37 49q6 -7 18 -17t51 -27t81 -17q43 0 72 21t29 59q0 30 -28 51.5t-67.5 36.5t-79.5 32.5t-68 49.5t-28 77q0 65 50 102t122 37q30 0 56.5 -5.5t44 -13.5t30.5 -16.5t19 -13.5l5 -6l-31 -52q-5 5 -14.5 12.5t-42 20.5t-69.5 13q-42 0 -71 -19.5t-29 -58.5
q0 -30 28 -51.5t68 -36t79.5 -32t67.5 -49.5t28 -78q0 -58 -43 -96.5t-111 -43.5l-8 -44q31 -5 50.5 -23.5t19.5 -47.5q0 -41 -27.5 -60t-68.5 -19l-50 5v48q19 -6 42 -6q51 0 51 34t-57 34l-15 -1l18 80q-47 4 -86.5 22t-55.5 34z" />
    <glyph glyph-name="Scaron" unicode="&#x160;" horiz-adv-x="538" 
d="M50 78l41 53l8.5 -8.5t24 -18.5t38.5 -23t51 -18.5t62 -8.5q60 0 100 33.5t40 88.5q0 48 -36 82t-87.5 55.5t-103.5 45t-88 65.5t-36 102q0 78 62 133.5t157 55.5q54 0 101 -17t67 -34l20 -17l-34 -58q-7 7 -20 17t-53 26.5t-81 16.5q-65 0 -106.5 -36t-41.5 -85
q0 -46 36 -77.5t87.5 -52.5t103.5 -44.5t88 -67.5t36 -108q0 -81 -58 -135.5t-155 -54.5q-64 0 -119.5 22.5t-79.5 45.5zM234 752l-83 119h66l54 -80h2l54 80h66l-84 -119h-75z" />
    <glyph glyph-name="scaron" unicode="&#x161;" horiz-adv-x="443" 
d="M41 61l37 49q6 -7 18 -17t51 -27t81 -17q43 0 72 21t29 59q0 30 -28 51.5t-67.5 36.5t-79.5 32.5t-68 49.5t-28 77q0 65 50 102t122 37q30 0 56.5 -5.5t44 -13.5t30.5 -16.5t19 -13.5l5 -6l-31 -52q-5 5 -14.5 12.5t-42 20.5t-69.5 13q-42 0 -71 -19.5t-29 -58.5
q0 -30 28 -51.5t68 -36t79.5 -32t67.5 -49.5t28 -78q0 -62 -48 -101.5t-124 -39.5q-34 0 -66 7.5t-52.5 18t-36.5 21.5t-24 19zM190 584l-83 119h66l54 -80h2l54 80h66l-84 -119h-75z" />
    <glyph glyph-name="Tcommaaccent" unicode="&#x162;" horiz-adv-x="588" 
d="M260 0v641h-253v62h574v-62h-252v-641h-14l-10 -55q31 -5 50.5 -23.5t19.5 -47.5q0 -41 -27.5 -60t-68.5 -19l-50 5v48q19 -6 42 -6q51 0 51 34t-57 34l-15 -1l21 91h-11z" />
    <glyph glyph-name="tcommaaccent" unicode="&#x163;" horiz-adv-x="336" 
d="M102 183v257h-66v57h67v145h67v-145h126v-57h-126v-250q0 -34 8.5 -59t20.5 -39t28 -22t29 -10.5t27 -2.5l23 2v-61q-11 -2 -29 -2q-25 0 -56 6l-10 -57q31 -5 50.5 -23.5t19.5 -47.5q0 -41 -27.5 -60t-68.5 -19l-50 5v48q19 -6 42 -6q51 0 51 34t-57 34l-15 -1l25 109
q-79 43 -79 165z" />
    <glyph glyph-name="Tcaron" unicode="&#x164;" horiz-adv-x="588" 
d="M260 0v641h-253v62h574v-62h-252v-641h-69zM256 752l-83 119h66l54 -80h2l54 80h66l-84 -119h-75z" />
    <glyph glyph-name="tcaron" unicode="&#x165;" horiz-adv-x="335" 
d="M101 183v257h-66v57h67v145h67v-145h126v-57h-126v-250q0 -34 8.5 -59t20.5 -39t28 -22t29 -10.5t27 -2.5l23 2v-61q-11 -2 -29 -2q-21 0 -41 3t-45.5 14.5t-44 30.5t-31.5 55t-13 84zM236 703h65q6 -26 6 -49q0 -38 -23 -89h-56q19 47 19 80q0 28 -11 58z" />
    <glyph glyph-name="Tbar" unicode="&#x166;" horiz-adv-x="611" 
d="M109 324v57h162v260h-253v62h574v-62h-252v-260h166v-57h-166v-324h-69v324h-162z" />
    <glyph glyph-name="tbar" unicode="&#x167;" horiz-adv-x="360" 
d="M45 278v53h68v109h-66v57h67v145h67v-145h126v-57h-126v-109h124v-53h-124v-90q0 -40 12 -68.5t31 -41t35.5 -17t34.5 -4.5l23 2v-61q-11 -2 -29 -2q-21 0 -41 3t-45.5 14.5t-44 30.5t-31.5 55t-13 84v95h-68z" />
    <glyph glyph-name="Utilde" unicode="&#x168;" horiz-adv-x="724" 
d="M93 245v458h70v-457q0 -90 54 -142t145 -52q92 0 146 52.5t54 143.5v455h69v-458q0 -116 -74 -186.5t-194 -70.5q-121 0 -195.5 70.5t-74.5 186.5zM206 755q0 117 92 117q29 0 50.5 -18t39.5 -36t36 -18q40 0 40 69h54q0 -117 -92 -117q-29 0 -50.5 18t-39.5 35.5
t-36 17.5q-39 0 -39 -68h-55z" />
    <glyph glyph-name="utilde" unicode="&#x169;" horiz-adv-x="588" 
d="M75 183v320h68v-302q0 -71 21.5 -110t87.5 -39q83 0 134.5 62t51.5 148v241h68v-503h-66v75l2 40h-2q-19 -46 -70.5 -86.5t-126.5 -40.5q-88 0 -128 48t-40 147zM135 587q0 117 92 117q29 0 50.5 -18t39.5 -36t36 -18q40 0 40 69h54q0 -117 -92 -117q-29 0 -50.5 18
t-39.5 35.5t-36 17.5q-39 0 -39 -68h-55z" />
    <glyph glyph-name="Umacron" unicode="&#x16a;" horiz-adv-x="724" 
d="M93 245v458h70v-457q0 -90 54 -142t145 -52q92 0 146 52.5t54 143.5v455h69v-458q0 -116 -74 -186.5t-194 -70.5q-121 0 -195.5 70.5t-74.5 186.5zM239 785v55h246v-55h-246z" />
    <glyph glyph-name="umacron" unicode="&#x16b;" horiz-adv-x="588" 
d="M75 183v320h68v-302q0 -71 21.5 -110t87.5 -39q83 0 134.5 62t51.5 148v241h68v-503h-66v75l2 40h-2q-19 -46 -70.5 -86.5t-126.5 -40.5q-88 0 -128 48t-40 147zM168 617v55h246v-55h-246z" />
    <glyph glyph-name="Ubreve" unicode="&#x16c;" horiz-adv-x="724" 
d="M93 245v458h70v-457q0 -90 54 -142t145 -52q92 0 146 52.5t54 143.5v455h69v-458q0 -116 -74 -186.5t-194 -70.5q-121 0 -195.5 70.5t-74.5 186.5zM362 749q-47 0 -81 28t-34 79v15h55v-13q0 -31 17.5 -46.5t42.5 -15.5q26 0 43.5 15.5t17.5 46.5v13h55v-15
q0 -51 -34 -79t-82 -28z" />
    <glyph glyph-name="ubreve" unicode="&#x16d;" horiz-adv-x="588" 
d="M75 183v320h68v-302q0 -71 21.5 -110t87.5 -39q83 0 134.5 62t51.5 148v241h68v-503h-66v75l2 40h-2q-19 -46 -70.5 -86.5t-126.5 -40.5q-88 0 -128 48t-40 147zM290 581q-47 0 -81 28t-34 79v15h55v-13q0 -31 17.5 -46.5t42.5 -15.5q26 0 43.5 15.5t17.5 46.5v13h55v-15
q0 -51 -34 -79t-82 -28z" />
    <glyph glyph-name="Uring" unicode="&#x16e;" horiz-adv-x="724" 
d="M93 245v458h70v-457q0 -90 54 -142t145 -52q92 0 146 52.5t54 143.5v455h69v-458q0 -116 -74 -186.5t-194 -70.5q-121 0 -195.5 70.5t-74.5 186.5zM362 741q-31 0 -53 20t-22 51t22 51t53 20t53.5 -20t22.5 -51t-22.5 -51t-53.5 -20zM362 779q15 0 24 9.5t9 23.5
q0 15 -9 24.5t-24 9.5q-14 0 -23 -9.5t-9 -24.5q0 -14 9 -23.5t23 -9.5z" />
    <glyph glyph-name="uring" unicode="&#x16f;" horiz-adv-x="588" 
d="M75 183v320h68v-302q0 -71 21.5 -110t87.5 -39q83 0 134.5 62t51.5 148v241h68v-503h-66v75l2 40h-2q-19 -46 -70.5 -86.5t-126.5 -40.5q-88 0 -128 48t-40 147zM290 573q-31 0 -53 20t-22 51t22 51t53 20t53.5 -20t22.5 -51t-22.5 -51t-53.5 -20zM290 611q15 0 24 9.5
t9 23.5q0 15 -9 24.5t-24 9.5q-14 0 -23 -9.5t-9 -24.5q0 -14 9 -23.5t23 -9.5z" />
    <glyph glyph-name="Uhungarumlaut" unicode="&#x170;" horiz-adv-x="724" 
d="M93 245v458h70v-457q0 -90 54 -142t145 -52q92 0 146 52.5t54 143.5v455h69v-458q0 -116 -74 -186.5t-194 -70.5q-121 0 -195.5 70.5t-74.5 186.5zM383 752l70 119h77l-87 -119h-60zM249 752l65 119h68l-68 -119h-65z" />
    <glyph glyph-name="uhungarumlaut" unicode="&#x171;" horiz-adv-x="588" 
d="M75 183v320h68v-302q0 -71 21.5 -110t87.5 -39q83 0 134.5 62t51.5 148v241h68v-503h-66v75l2 40h-2q-19 -46 -70.5 -86.5t-126.5 -40.5q-88 0 -128 48t-40 147zM312 584l70 119h77l-87 -119h-60zM178 584l65 119h68l-68 -119h-65z" />
    <glyph glyph-name="Uogonek" unicode="&#x172;" horiz-adv-x="724" 
d="M329 -113q0 52 52 102q-6 -1 -18 -1q-121 0 -195.5 70.5t-74.5 186.5v458h70v-457q0 -90 54 -142t145 -52q92 0 146 52.5t54 143.5v455h69v-458q0 -46 -11 -83.5t-32 -64.5t-41 -44.5t-48 -35.5q-35 -22 -54 -36t-36 -36t-17 -44q0 -20 15.5 -32.5t30.5 -14.5l16 -3
l-15 -56q-4 0 -11.5 1t-26.5 7t-33.5 15t-26.5 27t-12 42z" />
    <glyph glyph-name="uogonek" unicode="&#x173;" horiz-adv-x="588" 
d="M75 183v320h68v-302q0 -71 21.5 -110t87.5 -39q83 0 134.5 62t51.5 148v241h68v-503q-72 -58 -72 -99q0 -20 15.5 -32.5t30.5 -14.5l16 -3l-16 -56q-4 0 -11.5 1t-26.5 7t-33 15t-26 27t-12 42q0 58 69 113v75l2 40h-2q-19 -46 -70.5 -86.5t-126.5 -40.5q-88 0 -128 48
t-40 147z" />
    <glyph glyph-name="Wcircumflex" unicode="&#x174;" horiz-adv-x="927" 
d="M463 600h-2q-11 -60 -23 -105l-134 -495h-83l-182 703h72l136 -546l16 -75h2l2 10q2 11 6 30t8 35l148 546h66l148 -546q4 -16 8 -35t6 -30l2 -10h2q7 39 16 75l141 546h72l-187 -703h-83l-134 495zM346 752l83 119h75l84 -119h-66l-54 81h-2l-54 -81h-66z" />
    <glyph glyph-name="wcircumflex" unicode="&#x175;" horiz-adv-x="801" 
d="M187 0l-170 503h72l122 -375l15 -54h2q7 30 15 54l124 373h67l124 -373l15 -54h2q7 29 15 54l122 375h72l-170 -503h-74l-123 358l-16 54h-2q-7 -29 -15 -54l-123 -358h-74zM279 584l83 119h75l84 -119h-66l-54 81h-2l-54 -81h-66z" />
    <glyph glyph-name="Ycircumflex" unicode="&#x176;" horiz-adv-x="574" 
d="M252 0v302l-237 401h79l149 -255l43 -84h2q21 47 43 84l149 255h78l-236 -401v-302h-70zM166 752l83 119h75l84 -119h-66l-54 81h-2l-54 -81h-66z" />
    <glyph glyph-name="ycircumflex" unicode="&#x177;" horiz-adv-x="499" 
d="M7 -180l26 54q28 -23 60 -23q59 0 95 82l31 71l-210 499h75l148 -367l18 -53h2q7 28 17 53l145 367h74l-248 -608q-20 -49 -58 -77t-87 -28q-23 0 -45 7.5t-32 14.5zM130 584l83 119h75l84 -119h-66l-54 81h-2l-54 -81h-66z" />
    <glyph glyph-name="Ydieresis" unicode="&#x178;" horiz-adv-x="574" 
d="M252 0v302l-237 401h79l149 -255l43 -84h2q21 47 43 84l149 255h78l-236 -401v-302h-70zM327 785v86h62v-86h-62zM176 785v86h61v-86h-61z" />
    <glyph glyph-name="Zacute" unicode="&#x179;" horiz-adv-x="595" 
d="M43 0v49l363 528l49 64v2q-17 -2 -51 -2h-342v62h479v-49l-363 -528q-12 -17 -24.5 -33t-19.5 -23l-6 -8v-2q18 2 52 2h364v-62h-501zM275 752l69 119h79l-86 -119h-62z" />
    <glyph glyph-name="zacute" unicode="&#x17a;" horiz-adv-x="509" 
d="M42 0v44l281 353l40 46v2q-17 -2 -50 -2h-259v60h401v-45l-281 -352l-41 -46v-2q18 2 51 2h281v-60h-423zM219 584l69 119h79l-86 -119h-62z" />
    <glyph glyph-name="Zdotaccent" unicode="&#x17b;" horiz-adv-x="595" 
d="M43 0v49l363 528l49 64v2q-17 -2 -51 -2h-342v62h479v-49l-363 -528q-12 -17 -24.5 -33t-19.5 -23l-6 -8v-2q18 2 52 2h364v-62h-501zM276 786v85h65v-85h-65z" />
    <glyph glyph-name="zdotaccent" unicode="&#x17c;" horiz-adv-x="509" 
d="M42 0v44l281 353l40 46v2q-17 -2 -50 -2h-259v60h401v-45l-281 -352l-41 -46v-2q18 2 51 2h281v-60h-423zM220 618v85h65v-85h-65z" />
    <glyph glyph-name="Zcaron" unicode="&#x17d;" horiz-adv-x="595" 
d="M43 0v49l363 528l49 64v2q-17 -2 -51 -2h-342v62h479v-49l-363 -528q-12 -17 -24.5 -33t-19.5 -23l-6 -8v-2q18 2 52 2h364v-62h-501zM270 752l-83 119h66l54 -80h2l54 80h66l-84 -119h-75z" />
    <glyph glyph-name="zcaron" unicode="&#x17e;" horiz-adv-x="509" 
d="M42 0v44l281 353l40 46v2q-17 -2 -50 -2h-259v60h401v-45l-281 -352l-41 -46v-2q18 2 51 2h281v-60h-423zM214 584l-83 119h66l54 -80h2l54 80h66l-84 -119h-75z" />
    <glyph glyph-name="longs" unicode="&#x17f;" horiz-adv-x="255" 
d="M105 0v440h-63v57h63v24q0 58 18.5 98.5t48 58t55 24t51.5 6.5l31 -2v-61q-9 2 -24 2q-18 0 -34 -4.5t-35.5 -16t-31 -39t-11.5 -66.5v-521h-68z" />
    <glyph glyph-name="florin" unicode="&#x192;" horiz-adv-x="567" 
d="M34 -40q32 -5 64 -5q18 0 34.5 4.5t37 16.5t34 39.5t17.5 67.5l24 281h-89v58h95l10 107q5 58 27 98t53 57.5t56.5 24t52.5 6.5l83 -7v-61q-46 7 -81 7q-18 0 -35 -4.5t-37 -16.5t-34 -39.5t-18 -67.5l-10 -104h126v-58h-131l-25 -284q-4 -47 -20 -82.5t-36 -54.5
t-46.5 -31t-46 -15t-40.5 -3l-65 6v60z" />
    <glyph glyph-name="Scommaaccent" unicode="&#x218;" horiz-adv-x="538" 
d="M50 78l41 53l8.5 -8.5t24 -18.5t38.5 -23t51 -18.5t62 -8.5q60 0 100 33.5t40 88.5q0 48 -36 82t-87.5 55.5t-103.5 45t-88 65.5t-36 102q0 78 62 133.5t157 55.5q54 0 101 -17t67 -34l20 -17l-34 -58q-7 7 -20 17t-53 26.5t-81 16.5q-65 0 -106.5 -36t-41.5 -85
q0 -46 36 -77.5t87.5 -52.5t103.5 -44.5t88 -67.5t36 -108q0 -81 -58 -135.5t-155 -54.5q-64 0 -119.5 22.5t-79.5 45.5zM235 -63h65q6 -25 6 -49q0 -39 -23 -90h-56q19 47 19 81q0 28 -11 58z" />
    <glyph glyph-name="scommaaccent" unicode="&#x219;" horiz-adv-x="443" 
d="M41 61l37 49q6 -7 18 -17t51 -27t81 -17q43 0 72 21t29 59q0 30 -28 51.5t-67.5 36.5t-79.5 32.5t-68 49.5t-28 77q0 65 50 102t122 37q30 0 56.5 -5.5t44 -13.5t30.5 -16.5t19 -13.5l5 -6l-31 -52q-5 5 -14.5 12.5t-42 20.5t-69.5 13q-42 0 -71 -19.5t-29 -58.5
q0 -30 28 -51.5t68 -36t79.5 -32t67.5 -49.5t28 -78q0 -62 -48 -101.5t-124 -39.5q-34 0 -66 7.5t-52.5 18t-36.5 21.5t-24 19zM192 -63h65q6 -25 6 -49q0 -39 -23 -90h-56q19 47 19 81q0 28 -11 58z" />
    <glyph glyph-name="uni021A" unicode="&#x21a;" horiz-adv-x="588" 
d="M260 0v641h-253v62h574v-62h-252v-641h-69zM260 -63h65q6 -25 6 -49q0 -39 -23 -90h-56q19 47 19 81q0 28 -11 58z" />
    <glyph glyph-name="uni021B" unicode="&#x21b;" horiz-adv-x="335" 
d="M101 183v257h-66v57h67v145h67v-145h126v-57h-126v-250q0 -34 8.5 -59t20.5 -39t28 -22t29 -10.5t27 -2.5l23 2v-61q-11 -2 -29 -2q-21 0 -41 3t-45.5 14.5t-44 30.5t-31.5 55t-13 84zM180 -63h65q6 -25 6 -49q0 -39 -23 -90h-56q19 47 19 81q0 28 -11 58z" />
    <glyph glyph-name="circumflex" unicode="&#x2c6;" horiz-adv-x="504" 
d="M131 752l83 119h75l84 -119h-66l-54 81h-2l-54 -81h-66z" />
    <glyph glyph-name="caron" unicode="&#x2c7;" horiz-adv-x="504" 
d="M214 752l-83 119h66l54 -80h2l54 80h66l-84 -119h-75z" />
    <glyph glyph-name="breve" unicode="&#x2d8;" horiz-adv-x="505" 
d="M252 749q-47 0 -81 28t-34 79v15h55v-13q0 -31 17.5 -46.5t42.5 -15.5q26 0 43.5 15.5t17.5 46.5v13h55v-15q0 -51 -34 -79t-82 -28z" />
    <glyph glyph-name="dotaccent" unicode="&#x2d9;" horiz-adv-x="505" 
d="M220 786v85h65v-85h-65z" />
    <glyph glyph-name="ring" unicode="&#x2da;" horiz-adv-x="505" 
d="M252 741q-31 0 -53 20t-22 51t22 51t53 20t53.5 -20t22.5 -51t-22.5 -51t-53.5 -20zM252 779q15 0 24 9.5t9 23.5q0 15 -9 24.5t-24 9.5q-14 0 -23 -9.5t-9 -24.5q0 -14 9 -23.5t23 -9.5z" />
    <glyph glyph-name="ogonek" unicode="&#x2db;" horiz-adv-x="504" 
d="M179 -113q0 36 24.5 69.5t48.5 49.5l24 16l50 -14l-9 -6t-20.5 -16.5t-25.5 -25t-20 -29t-9 -30.5q0 -20 15.5 -32.5t30.5 -14.5l16 -3l-15 -56q-4 0 -11.5 1t-26.5 7t-33.5 15t-26.5 27t-12 42z" />
    <glyph glyph-name="tilde" unicode="&#x2dc;" horiz-adv-x="504" 
d="M96 755q0 117 92 117q29 0 50.5 -18t39.5 -36t36 -18q40 0 40 69h54q0 -117 -92 -117q-29 0 -50.5 18t-39.5 35.5t-36 17.5q-39 0 -39 -68h-55z" />
    <glyph glyph-name="hungarumlaut" unicode="&#x2dd;" horiz-adv-x="504" 
d="M246 752l70 119h77l-87 -119h-60zM112 752l65 119h68l-68 -119h-65z" />
    <glyph glyph-name="uni1E9E" unicode="&#x1e9e;" horiz-adv-x="678" 
d="M94 0v516q0 80 54 133.5t134 53.5h310v-48l-157 -223l-26 -35v-2h21q83 0 137 -58t54 -137q0 -83 -59 -141.5t-142 -58.5h-145v62h141q58 0 95.5 40.5t37.5 97.5q0 58 -38.5 97.5t-102.5 39.5h-81v49l136 196l44 59v2q-7 -2 -43 -2h-177q-54 0 -88.5 -35.5t-34.5 -88.5
v-517h-70z" />
    <glyph glyph-name="thinspace" unicode="&#x2009;" horiz-adv-x="12" 
 />
    <glyph glyph-name="endash" unicode="&#x2013;" horiz-adv-x="708" 
d="M104 255v58h500v-58h-500z" />
    <glyph glyph-name="emdash" unicode="&#x2014;" horiz-adv-x="908" 
d="M104 255v58h700v-58h-700z" />
    <glyph glyph-name="quoteleft" unicode="&#x2018;" horiz-adv-x="215" 
d="M56 540l57 172h54l-39 -172h-72z" />
    <glyph glyph-name="quoteright" unicode="&#x2019;" horiz-adv-x="209" 
d="M57 541l39 172h72l-56 -172h-55z" />
    <glyph glyph-name="quotesinglbase" unicode="&#x201a;" horiz-adv-x="238" 
d="M51 -90l39 172h71l-56 -172h-54z" />
    <glyph glyph-name="quotedblleft" unicode="&#x201c;" horiz-adv-x="335" 
d="M176 540l56 172h55l-39 -172h-72zM56 540l57 172h54l-39 -172h-72z" />
    <glyph glyph-name="quotedblright" unicode="&#x201d;" horiz-adv-x="329" 
d="M177 541l39 172h72l-56 -172h-55zM57 541l39 172h72l-56 -172h-55z" />
    <glyph glyph-name="quotedblbase" unicode="&#x201e;" horiz-adv-x="356" 
d="M169 -90l39 172h71l-56 -172h-54zM51 -90l39 172h71l-56 -172h-54z" />
    <glyph glyph-name="dagger" unicode="&#x2020;" horiz-adv-x="395" 
d="M162 -50v495h-117v58h117v200h67v-200h121v-58h-121v-495h-67z" />
    <glyph glyph-name="daggerdbl" unicode="&#x2021;" horiz-adv-x="433" 
d="M64 179v58h117v208h-117v58h117v200h67v-200h121v-58h-121v-208h121v-58h-121v-229h-67v229h-117z" />
    <glyph glyph-name="bullet" unicode="&#x2022;" horiz-adv-x="401" 
d="M201 148q-59 0 -101 42t-42 101t42 101t101 42t100.5 -42t41.5 -101t-41.5 -101t-100.5 -42z" />
    <glyph glyph-name="ellipsis" unicode="&#x2026;" horiz-adv-x="715" 
d="M554 0v80h77v-80h-77zM319 0v80h77v-80h-77zM84 0v80h77v-80h-77z" />
    <glyph glyph-name="perthousand" unicode="&#x2030;" horiz-adv-x="1063" 
d="M196 437q-58 0 -99 40.5t-41 98.5q0 57 41 98t99 41t99.5 -41t41.5 -98q0 -58 -41 -98.5t-100 -40.5zM62 0l536 703h71l-535 -703h-72zM196 493q34 0 58 24t24 59q0 34 -24 58.5t-58 24.5t-57.5 -24.5t-23.5 -58.5q0 -35 23.5 -59t57.5 -24zM730 126q0 58 41 99t99 41
t99.5 -41t41.5 -99q0 -57 -41.5 -97.5t-99.5 -40.5t-99 40.5t-41 97.5zM394 126q0 58 41 99t99 41t99.5 -41t41.5 -99q0 -57 -41.5 -97.5t-99.5 -40.5t-99 40.5t-41 97.5zM790 127q0 -35 23 -59t57 -24t58 24t24 59q0 34 -24 58.5t-58 24.5t-57 -24.5t-23 -58.5zM454 127
q0 -35 23 -59t57 -24t58 24t24 59q0 34 -24 58.5t-58 24.5t-57 -24.5t-23 -58.5z" />
    <glyph glyph-name="guilsinglleft" unicode="&#x2039;" horiz-adv-x="343" 
d="M214 77l-164 205l164 206h73l-164 -206l164 -205h-73z" />
    <glyph glyph-name="guilsinglright" unicode="&#x203a;" horiz-adv-x="344" 
d="M56 77l164 205l-164 206h74l164 -206l-164 -205h-74z" />
    <glyph glyph-name="fraction" unicode="&#x2044;" horiz-adv-x="158" 
d="M-59 0h-59l336 703h58z" />
    <glyph glyph-name="zerosuperior" unicode="&#x2070;" 
d="M191 413q-152 0 -152 228q0 227 152 227t152 -227q0 -228 -152 -228zM191 465q96 0 96 176q0 175 -96 175t-96 -175q0 -176 96 -176z" />
    <glyph glyph-name="foursuperior" unicode="&#x2074;" 
d="M236 423v114h-212v38l212 283h55v-271h65v-50h-65v-114h-55zM92 587h144v136l3 62h-2q-16 -27 -32 -49l-113 -147v-2z" />
    <glyph glyph-name="fivesuperior" unicode="&#x2075;" 
d="M182 413q-40 0 -74 17.5t-48 34.5l-14 17l38 35q4 -6 11 -14.5t32 -23t53 -14.5q42 0 71.5 27.5t29.5 67.5t-29.5 68t-72.5 28q-20 0 -39.5 -6t-29.5 -12l-9 -6l-33 13l24 213h218v-50h-172l-8 -78l-6 -37h2q25 12 60 12q65 0 108.5 -42.5t43.5 -102.5q0 -61 -45 -104
t-111 -43z" />
    <glyph glyph-name="sixsuperior" unicode="&#x2076;" 
d="M202 413q-71 0 -114.5 56t-43.5 145q0 44 11 87t33 81.5t60 62t87 23.5q22 0 44 -5t33 -10l11 -5l-22 -48q-31 16 -65 16q-53 0 -87.5 -44t-43.5 -108h2q15 17 42.5 28t52.5 11q63 0 102.5 -39t39.5 -102q0 -69 -40.5 -109t-101.5 -40zM202 465q40 0 63 28t23 69
q0 43 -25 69t-66 26q-37 0 -66 -21t-29 -45q0 -45 28.5 -85.5t71.5 -40.5z" />
    <glyph glyph-name="sevensuperior" unicode="&#x2077;" 
d="M65 423l174 328l33 57v2q-19 -2 -50 -2h-175v50h290v-37l-210 -398h-62z" />
    <glyph glyph-name="eightsuperior" unicode="&#x2078;" 
d="M40 547q0 70 72 117q-53 36 -53 92q0 53 40 82.5t95 29.5t96 -30.5t41 -84.5q0 -59 -57 -116q67 -39 67 -99q0 -53 -43 -89t-105 -36t-107.5 36t-45.5 98zM285 539q0 15 -7 28t-23 23.5t-28 17t-37.5 18t-36.5 16.5q-57 -40 -57 -93q0 -39 29 -62.5t68 -23.5
q35 0 63.5 22t28.5 54zM114 754q0 -10 3 -18.5t7 -15t12.5 -13.5t14.5 -11t19 -10.5t19 -9t21.5 -9.5t21.5 -9q44 44 44 93q0 32 -24.5 49.5t-58.5 17.5q-32 0 -55.5 -16.5t-23.5 -47.5z" />
    <glyph glyph-name="ninesuperior" unicode="&#x2079;" 
d="M38 720q0 68 40.5 108t101.5 40q71 0 114.5 -56t43.5 -145q0 -60 -18.5 -115.5t-63.5 -97t-109 -41.5q-22 0 -44 5.5t-33 10.5l-11 5l22 47q31 -16 65 -16q53 0 87.5 44t43.5 109h-2q-16 -17 -43 -28.5t-52 -11.5q-63 0 -102.5 39.5t-39.5 102.5zM94 719
q0 -42 25.5 -68.5t65.5 -26.5q37 0 66 21t29 46q0 45 -28.5 85.5t-71.5 40.5q-40 0 -63 -28t-23 -70z" />
    <glyph glyph-name="zeroinferior" unicode="&#x2080;" 
d="M191 -167q-152 0 -152 228q0 227 152 227t152 -227q0 -228 -152 -228zM191 -115q96 0 96 176q0 175 -96 175t-96 -175q0 -176 96 -176z" />
    <glyph glyph-name="oneinferior" unicode="&#x2081;" 
d="M74 -157v50h95v289l1 24h-1q-4 -8 -21 -25l-40 -38l-35 37l99 98h52v-385h93v-50h-243z" />
    <glyph glyph-name="twoinferior" unicode="&#x2082;" 
d="M53 -157q-3 17 -3 31q0 46 22.5 82t54 59t63.5 43t54.5 45.5t22.5 56.5q0 32 -23 54.5t-59 22.5q-24 0 -46 -12.5t-33 -24.5l-10 -12l-36 35q5 7 14.5 18t42.5 29t70 18q62 0 99 -36t37 -91q0 -41 -21.5 -73t-52.5 -53t-62 -40t-53.5 -45t-24.5 -57h222v-50h-278z" />
    <glyph glyph-name="threeinferior" unicode="&#x2083;" 
d="M185 -167q-27 0 -51.5 7t-40 16.5t-27.5 19t-18 16.5l-5 7l35 38q4 -6 12.5 -14.5t36 -23t57.5 -14.5q36 0 65 25.5t29 63.5t-29.5 61t-68.5 23h-33l-14 31l99 115l25 25v2q-19 -3 -37 -3h-154v50h263v-36l-119 -138q50 -6 87 -38t37 -92q0 -58 -43 -99.5t-106 -41.5z
" />
    <glyph glyph-name="fourinferior" unicode="&#x2084;" 
d="M236 -157v114h-212v38l212 283h55v-271h65v-50h-65v-114h-55zM92 7h144v136l3 62h-2q-16 -27 -32 -49l-113 -147v-2z" />
    <glyph glyph-name="fiveinferior" unicode="&#x2085;" 
d="M182 -167q-40 0 -74 17.5t-48 34.5l-14 17l38 35q4 -6 11 -14.5t32 -23t53 -14.5q42 0 71.5 27.5t29.5 67.5t-29.5 68t-72.5 28q-20 0 -39.5 -6t-29.5 -12l-9 -6l-33 13l24 213h218v-50h-172l-8 -78l-6 -37h2q25 12 60 12q65 0 108.5 -42.5t43.5 -102.5q0 -61 -45 -104
t-111 -43z" />
    <glyph glyph-name="sixinferior" unicode="&#x2086;" 
d="M202 -167q-71 0 -114.5 56t-43.5 145q0 44 11 87t33 81.5t60 62t87 23.5q22 0 44 -5t33 -10l11 -5l-22 -48q-31 16 -65 16q-53 0 -87.5 -44t-43.5 -108h2q15 17 42.5 28t52.5 11q63 0 102.5 -39t39.5 -102q0 -69 -40.5 -109t-101.5 -40zM202 -115q40 0 63 28t23 69
q0 43 -25 69t-66 26q-37 0 -66 -21t-29 -45q0 -45 28.5 -85.5t71.5 -40.5z" />
    <glyph glyph-name="seveninferior" unicode="&#x2087;" 
d="M65 -157l174 328l33 57v2q-19 -2 -50 -2h-175v50h290v-37l-210 -398h-62z" />
    <glyph glyph-name="eightinferior" unicode="&#x2088;" 
d="M40 -33q0 70 72 117q-53 36 -53 92q0 53 40 82.5t95 29.5t96 -30.5t41 -84.5q0 -59 -57 -116q67 -39 67 -99q0 -53 -43 -89t-105 -36t-107.5 36t-45.5 98zM285 -41q0 15 -7 28t-23 23.5t-28 17t-37.5 18t-36.5 16.5q-57 -40 -57 -93q0 -39 29 -62.5t68 -23.5
q35 0 63.5 22t28.5 54zM114 174q0 -10 3 -18.5t7 -15t12.5 -13.5t14.5 -11t19 -10.5t19 -9t21.5 -9.5t21.5 -9q44 44 44 93q0 32 -24.5 49.5t-58.5 17.5q-32 0 -55.5 -16.5t-23.5 -47.5z" />
    <glyph glyph-name="nineinferior" unicode="&#x2089;" 
d="M38 140q0 68 40.5 108t101.5 40q71 0 114.5 -56t43.5 -145q0 -60 -18.5 -115.5t-63.5 -97t-109 -41.5q-22 0 -44 5.5t-33 10.5l-11 5l22 47q31 -16 65 -16q53 0 87.5 44t43.5 109h-2q-16 -17 -43 -28.5t-52 -11.5q-63 0 -102.5 39.5t-39.5 102.5zM94 139
q0 -42 25.5 -68.5t65.5 -26.5q37 0 66 21t29 46q0 45 -28.5 85.5t-71.5 40.5q-40 0 -63 -28t-23 -70z" />
    <glyph glyph-name="Euro" unicode="&#x20ac;" horiz-adv-x="590" 
d="M41 266v51h55q-6 35 0 81h-55v51h64q30 118 122 192t214 74q24 0 47.5 -3t35.5 -6l12 -3l-17 -65q-37 11 -79 11q-95 0 -165 -55t-96 -145h306l-10 -51h-307q-6 -38 -1 -81h293l-10 -51h-272q24 -95 95.5 -153.5t168.5 -58.5q22 0 44.5 3.5t33.5 6.5l11 4l16 -65
q-46 -15 -106 -15q-126 0 -218.5 77.5t-119.5 200.5h-62z" />
    <glyph glyph-name="trademark" unicode="&#x2122;" horiz-adv-x="932" 
d="M433 265l35 438h52l115 -251l14 -41h2q5 22 14 41l115 251h52l34 -438h-55l-25 297l1 29h-2l-112 -244h-46l-112 244h-2l1 -29l-25 -297h-56zM183 265v386h-156v52h370v-52h-157v-386h-57z" />
    <glyph glyph-name="minus" unicode="&#x2212;" horiz-adv-x="606" 
d="M50 255v58h506v-58h-506z" />
    <glyph glyph-name="infinity" unicode="&#x221e;" horiz-adv-x="499" 
d="M250 176q-71 0 -122 51t-51 122q0 72 50.5 122t122.5 50t122 -50t50 -122t-50 -122.5t-122 -50.5z" />
    <glyph glyph-name="approxequal" unicode="&#x2248;" horiz-adv-x="606" 
d="M91 321l-33 44q69 69 146 69q50 0 107.5 -35t90.5 -35q61 0 113 56l33 -44q-67 -69 -146 -69q-50 0 -107.5 35t-90.5 35q-57 0 -113 -56zM91 147l-33 44q69 69 146 69q50 0 107.5 -35t90.5 -35q59 0 113 56l33 -44q-67 -69 -146 -69q-50 0 -107.5 35t-90.5 35
q-57 0 -113 -56z" />
    <glyph glyph-name="notequal" unicode="&#x2260;" horiz-adv-x="606" 
d="M126 83l62 85h-118v58h159l86 116h-245v58h285l86 117l42 -30l-65 -87h118v-58h-158l-86 -116h244v-58h-284l-84 -114z" />
    <glyph glyph-name="lessequal" unicode="&#x2264;" horiz-adv-x="606" 
d="M69 259v50l452 202v-67l-367 -159v-2l367 -159v-67zM70 -104h451v-58h-451v58z" />
    <glyph glyph-name="greaterequal" unicode="&#x2265;" horiz-adv-x="606" 
d="M85 57v67l368 159v2l-368 159v67l452 -202v-50zM85 -104h451v-58h-451v58z" />
    <glyph glyph-name="commaaccent" horiz-adv-x="335" 
d="M135 -63h65q6 -25 6 -49q0 -39 -23 -90h-56q19 47 19 81q0 28 -11 58z" />
    <glyph glyph-name="apple" horiz-adv-x="1130" 
d="M168 -5v152l-126 72v278l126 71v151l265 142l134 -71l132 71l265 -142v-151l124 -71v-278l-124 -72v-152l-265 -141l-132 71l-134 -71zM208 30l238 -126l121 66l118 -66l238 126v139l114 64v249l-114 66v136l-238 126l-118 -64l-121 64l-238 -126v-136l-114 -66v-249
l114 -64v-139zM242 64v121l-99 60v225l99 58v123l215 114l110 -59l107 59l214 -114v-123l100 -58v-225l-100 -60v-121l-214 -114l-107 58l-110 -58zM443 91h60v217h218v53h-218v179h176q16 0 21.5 -6t5.5 -21v-38h56v64q0 29 -12.5 42t-43.5 13h-325v-54h62v-449z" />
    <glyph glyph-name="zero.tnum" horiz-adv-x="565" 
d="M284 -12q-243 0 -243 364q0 107 21.5 185t77.5 128t144 50q242 0 242 -363q0 -364 -242 -364zM284 53q170 0 170 299q0 298 -170 298q-171 0 -171 -298q0 -299 171 -299z" />
    <glyph glyph-name="one.tnum" horiz-adv-x="565" 
d="M103 0v62h158v516l1 39h-2q-7 -15 -35 -42l-75 -75l-44 45l159 158h64v-641h155v-62h-381z" />
    <glyph glyph-name="two.tnum" horiz-adv-x="565" 
d="M73 0q-4 21 -4 45q0 50 20 93.5t51.5 75t70 60t77 54.5t70 52.5t51.5 61t20 72.5q0 59 -40.5 97t-105.5 38q-29 0 -55.5 -10t-44.5 -24t-31.5 -28t-19.5 -24l-6 -10l-52 35q3 5 8 13.5t24 30.5t41.5 39t60 30.5t79.5 13.5q98 0 156 -56t58 -141q0 -48 -19.5 -89.5
t-51 -72t-69.5 -58t-75.5 -53t-69 -52t-51.5 -60t-20 -71.5h367v-62h-439z" />
    <glyph glyph-name="three.tnum" horiz-adv-x="565" 
d="M52 84l42 53q8 -9 23 -23t62 -37t95 -23q65 0 113 43t48 109q0 71 -51.5 110.5t-125.5 39.5h-48l-17 41l176 206l37 39v2q-20 -3 -57 -3h-264v62h411v-46l-210 -242q37 -2 72.5 -13.5t70 -34.5t56 -64t21.5 -95q0 -91 -66 -155.5t-165 -64.5q-39 0 -76 10t-62.5 24
t-45.5 28t-29 24z" />
    <glyph glyph-name="four.tnum" horiz-adv-x="565" 
d="M24 195v45l346 463h75v-447h100v-61h-100v-195h-69v195h-352zM108 256h268v294l3 66h-2q-16 -28 -35 -53l-234 -305v-2z" />
    <glyph glyph-name="five.tnum" horiz-adv-x="565" 
d="M58 88l44 48q2 -3 6 -8.5t19 -20t32 -25t44.5 -19.5t57.5 -9q74 0 124.5 47t50.5 118t-51 118t-127 47q-33 0 -65 -9.5t-47 -18.5l-16 -10l-44 16l38 341h340v-62h-280l-20 -180l-7 -40h2q44 27 107 27q105 0 173.5 -66.5t68.5 -162.5q0 -97 -70.5 -164t-173.5 -67
q-39 0 -74.5 10.5t-58.5 25t-40.5 29t-24.5 25.5z" />
    <glyph glyph-name="six.tnum" horiz-adv-x="565" 
d="M302 -12q-114 0 -184 93t-70 237q0 69 18.5 137t54 127t97 96t139.5 37q35 0 67 -7.5t47 -14.5l15 -7l-26 -61q-44 25 -102 25q-70 0 -122.5 -43t-79 -104.5t-32.5 -134.5h2q25 37 74 59.5t104 22.5q96 0 157.5 -63.5t61.5 -163.5q0 -107 -63 -171t-158 -64zM301 53
q70 0 110.5 47.5t40.5 121.5q0 75 -43.5 120.5t-115.5 45.5q-68 0 -119 -38t-51 -82q0 -76 52 -145.5t126 -69.5z" />
    <glyph glyph-name="seven.tnum" horiz-adv-x="565" 
d="M122 0l284 576q8 17 18 33t16 24l5 8v2q-18 -2 -53 -2h-329v62h457v-48l-326 -655h-72z" />
    <glyph glyph-name="eight.tnum" horiz-adv-x="565" 
d="M47 202q0 39 15 75t37.5 60.5t37 37t25.5 19.5q-87 57 -87 143q0 74 55.5 126t156.5 52q98 0 156.5 -50t58.5 -133q0 -45 -22 -92.5t-37 -66.5t-27 -31q102 -58 102 -151q0 -84 -66.5 -143.5t-166.5 -59.5q-99 0 -168.5 58.5t-69.5 155.5zM447 192q0 26 -12.5 47
t-39.5 39t-49.5 29.5t-64.5 29t-62 27.5q-12 -7 -25.5 -18.5t-32.5 -31.5t-31 -49t-12 -60q0 -68 50 -110.5t117 -42.5q65 0 113.5 40t48.5 100zM145 536q0 -22 10 -41.5t22 -32t38.5 -27.5t42 -22t51.5 -22t50 -21q12 11 25.5 28t30.5 55t17 76q0 56 -40.5 89t-104.5 33
q-65 0 -103.5 -33t-38.5 -82z" />
    <glyph glyph-name="nine.tnum" horiz-adv-x="565" 
d="M209 -12q-34 0 -66.5 7t-47.5 15l-15 7l26 61q44 -25 102 -25q103 0 163.5 83.5t71.5 198.5h-2q-26 -37 -75 -59.5t-104 -22.5q-96 0 -157 63.5t-61 163.5q0 107 62.5 171t157.5 64q114 0 184 -93t70 -237q0 -69 -18.5 -136.5t-54 -127t-97 -96.5t-139.5 -37zM273 315
q69 0 119.5 38t50.5 82q0 76 -52 145.5t-126 69.5q-70 0 -110.5 -47.5t-40.5 -121.5q0 -75 43.5 -120.5t115.5 -45.5z" />
    <glyph glyph-name="hyphen.case" horiz-adv-x="528" 
d="M122 318v62h284v-62h-284z" />
    <glyph glyph-name="parenleft.case" horiz-adv-x="327" 
d="M274 -65h-64q-112 195 -112 432q0 208 112 393h64q-113 -189 -113 -393q0 -231 113 -432z" />
    <glyph glyph-name="parenright.case" horiz-adv-x="327" 
d="M117 -65h-64q113 201 113 432q0 204 -113 393h64q112 -185 112 -393q0 -237 -112 -432z" />
    <glyph glyph-name="bracketleft.case" horiz-adv-x="318" 
d="M126 -65v825h135v-56h-72v-713h72v-56h-135z" />
    <glyph glyph-name="bracketright.case" horiz-adv-x="318" 
d="M192 760v-825h-135v56h72v713h-72v56h135z" />
    <glyph glyph-name="braceleft.case" horiz-adv-x="375" 
d="M157 113v95q0 46 -21.5 74.5t-42.5 33.5l-21 6v62q3 0 9 1.5t20.5 9t26 18.5t20.5 34t9 52v82q0 47 12 82t28.5 53t39 28.5t38 13t31.5 2.5h15v-56h-9q-13 0 -25.5 -3.5t-29.5 -15t-27 -38.5t-10 -68v-98q0 -27 -8 -50.5t-20 -37t-24 -23t-20 -12.5l-8 -4v-2
q3 -1 8.5 -3.5t19.5 -12t24.5 -22.5t19 -36.5t8.5 -52.5v-110q0 -40 10.5 -67.5t27 -38.5t29 -15t25.5 -4h9v-56q-6 -1 -15 -1q-16 0 -31.5 2.5t-38 13.5t-39 29t-28.5 53t-12 82z" />
    <glyph glyph-name="braceright.case" horiz-adv-x="375" 
d="M54 -10h10q12 0 24.5 4t29 15t27 38.5t10.5 67.5v110q0 29 8 52.5t20 36.5t24 22.5t20 12.5l8 3v2q-3 1 -8.5 3.5t-19.5 13t-24.5 23.5t-19 36.5t-8.5 50.5v98q0 41 -10 68t-27 38.5t-29 15t-25 3.5h-10v56h16q15 0 30.5 -2.5t38 -13.5t39 -28.5t28.5 -52.5t12 -82v-82
q0 -29 9 -52t21 -34t24.5 -18.5t21.5 -8.5l9 -2v-62q-3 0 -9 -1.5t-20.5 -9t-26 -18.5t-20.5 -33.5t-9 -51.5v-95q0 -47 -12 -82t-28.5 -53t-39 -29t-38 -13.5t-30.5 -2.5l-16 1v56z" />
    <glyph glyph-name="at.case" horiz-adv-x="821" 
d="M80 351q0 153 104.5 260t251.5 107q126 0 185.5 -54t59.5 -135v-315h71v-56h-269q-85 0 -142.5 56.5t-57.5 135.5t57 135.5t143 56.5h130q-2 50 -45 83.5t-127 33.5q-122 0 -206.5 -90.5t-84.5 -217.5q0 -129 84.5 -217.5t211.5 -88.5v-60q-155 0 -260.5 106t-105.5 260z
M353 350q0 -57 39.5 -96.5t96.5 -39.5h124v275h-122q-59 0 -98.5 -40.5t-39.5 -98.5z" />
    <glyph glyph-name="guillemotleft.case" horiz-adv-x="560" 
d="M412 137l-164 205l164 206h74l-164 -206l164 -205h-74zM233 137l-164 205l164 206h73l-164 -206l164 -205h-73z" />
    <glyph glyph-name="guillemotright.case" horiz-adv-x="561" 
d="M254 137l164 205l-164 206h74l164 -206l-164 -205h-74zM74 137l164 205l-164 206h74l164 -206l-164 -205h-74z" />
    <glyph glyph-name="guilsinglleft.case" horiz-adv-x="380" 
d="M233 137l-164 205l164 206h73l-164 -206l164 -205h-73z" />
    <glyph glyph-name="guilsinglright.case" horiz-adv-x="381" 
d="M74 137l164 205l-164 206h74l164 -206l-164 -205h-74z" />
    <glyph glyph-name="endash.case" horiz-adv-x="744" 
d="M122 315v58h500v-58h-500z" />
    <glyph glyph-name="emdash.case" horiz-adv-x="944" 
d="M122 315v58h700v-58h-700z" />
    <glyph glyph-name="periodcentered.case" horiz-adv-x="309" 
d="M116 306v80h77v-80h-77z" />
    <glyph glyph-name="questiondown.case" horiz-adv-x="502" 
d="M251 626v77h77v-77h-77zM77 165q0 46 18.5 82.5t44.5 61.5t52.5 48t45 53.5t18.5 66.5v42h67v-45q0 -43 -18 -78.5t-43.5 -60.5t-51 -48.5t-43.5 -53.5t-18 -65q0 -49 37 -82t94 -33q30 0 60.5 10.5t45.5 20.5l15 11l37 -50q-7 -6 -20 -15.5t-55 -25.5t-86 -16
q-86 0 -143 50t-57 127z" />
    <glyph glyph-name="exclamdown.case" horiz-adv-x="342" 
d="M132 626v77h77v-77h-77zM136 0l3 519h64l3 -519h-70z" />
    <glyph glyph-name="bullet.case" horiz-adv-x="439" 
d="M220 209q-59 0 -101 42t-42 101t42 101t101 42t100.5 -42t41.5 -101t-41.5 -101t-100.5 -42z" />
    <glyph glyph-name="zero.p_osf" horiz-adv-x="586" 
d="M58 270q0 116 61.5 200.5t173.5 84.5t173.5 -84.5t61.5 -200.5t-61 -199t-174 -83t-174 83.5t-61 198.5zM128 272q0 -91 43 -157t122 -66t122.5 66t43.5 156q0 91 -43.5 156.5t-122.5 65.5t-122 -65.5t-43 -155.5z" />
    <glyph glyph-name="one.p_osf" horiz-adv-x="459" 
d="M68 0v60h156v360l1 53h-2q-16 -13 -39 -27l-105 -63l-32 48l181 112h62v-483h139v-60h-361z" />
    <glyph glyph-name="two.p_osf" horiz-adv-x="527" 
d="M59 0v49q169 113 245.5 187.5t76.5 143.5q0 56 -38 84.5t-96 28.5q-40 0 -79 -19.5t-58 -39.5l-20 -19l-39 47q3 4 9 10t26 22t42 28.5t56.5 22.5t70.5 10q92 0 144 -49.5t52 -117.5q0 -85 -67 -159.5t-216 -169.5v-2q20 3 57 3h252v-60h-418z" />
    <glyph glyph-name="three.p_osf" horiz-adv-x="510" 
d="M18 -38l41 48q2 -3 7 -8.5t21 -18.5t33.5 -23t46 -18.5t57.5 -8.5q65 0 112.5 39.5t47.5 103.5q0 68 -52 103.5t-124 35.5h-49l-17 42l169 190l38 36v2q-20 -2 -57 -2h-232v60h384v-42l-211 -229q37 -2 72.5 -12t70.5 -30.5t56.5 -59.5t21.5 -91q0 -91 -65.5 -149
t-164.5 -58q-38 0 -73 9.5t-58 22.5t-41 26t-26 22z" />
    <glyph glyph-name="four.p_osf" horiz-adv-x="582" 
d="M30 37v45l330 461h75v-445h108v-61h-108v-153h-68v153h-337zM112 98h255v294l4 66h-2q-17 -33 -35 -58z" />
    <glyph glyph-name="five.p_osf" horiz-adv-x="525" 
d="M34 -28l43 44q6 -8 17.5 -20.5t51.5 -33t85 -20.5q70 0 122 41t52 112t-50.5 111t-120.5 40q-32 0 -64 -9t-48 -17l-16 -9l-43 15l38 317h328v-60h-269l-20 -164l-6 -38h2q45 24 109 24q97 0 163.5 -55.5t66.5 -151.5q0 -99 -68.5 -158t-171.5 -59q-38 0 -73 9.5
t-57.5 22.5t-39 26.5t-23.5 22.5z" />
    <glyph glyph-name="six.p_osf" horiz-adv-x="583" 
d="M66 290q0 66 18 131t53.5 122t96.5 92.5t138 35.5q34 0 66.5 -6.5t47.5 -13.5l15 -7l-26 -57q-44 22 -102 22q-70 0 -122.5 -41t-79 -100t-32.5 -129h2q26 38 74.5 59.5t104.5 21.5q96 0 157 -59t61 -152q0 -100 -63 -160.5t-157 -60.5q-113 0 -182.5 84.5t-69.5 217.5z
M139 248q0 -71 51 -135t127 -64q70 0 110.5 44.5t40.5 114.5q0 69 -43.5 111t-115.5 42q-68 0 -119 -36t-51 -77z" />
    <glyph glyph-name="seven.p_osf" horiz-adv-x="504" 
d="M92 -116l272 539l34 60v2q-17 -2 -52 -2h-314v60h444v-45l-311 -614h-73z" />
    <glyph glyph-name="eight.p_osf" horiz-adv-x="580" 
d="M58 189q0 35 13.5 67t35.5 55t37.5 36t29.5 22q-88 53 -88 135q0 69 54.5 118.5t152.5 49.5q95 0 152.5 -47.5t57.5 -124.5q0 -92 -86 -178q103 -55 103 -143q0 -79 -65.5 -135t-163.5 -56q-97 0 -165 55t-68 146zM450 179q0 24 -11.5 44t-38 36.5t-47.5 27t-62 27.5
t-60 25q-19 -10 -38.5 -25.5t-42 -49.5t-22.5 -72q0 -64 48.5 -103.5t114.5 -39.5q63 0 111 37t48 93zM154 503q0 -20 9.5 -38t21 -29.5t37 -26t40 -20.5t50 -20.5t48.5 -19.5q12 10 26 26t31.5 51.5t17.5 70.5q0 52 -40 82.5t-103 30.5q-62 0 -100 -30.5t-38 -76.5z" />
    <glyph glyph-name="nine.p_osf" horiz-adv-x="583" 
d="M108 -44q43 -23 102 -23q102 0 163 80.5t71 190.5h-2q-26 -38 -75 -59.5t-104 -21.5q-96 0 -157 58.5t-61 152.5q0 100 62.5 160.5t157.5 60.5q113 0 182.5 -84.5t69.5 -217.5q0 -52 -11 -104t-35 -102.5t-59 -89t-87 -62t-114 -23.5q-35 0 -67.5 7t-47.5 13l-15 7z
M273 182q68 0 119 36t51 77q0 71 -51 134.5t-127 63.5q-70 0 -110.5 -44t-40.5 -114q0 -69 43.5 -111t115.5 -42z" />
    <glyph glyph-name="zero.t_osf" horiz-adv-x="565" 
d="M48 270q0 116 61.5 200.5t173.5 84.5t173.5 -84.5t61.5 -200.5t-61 -199t-174 -83t-174 83.5t-61 198.5zM118 272q0 -91 43 -157t122 -66t122.5 66t43.5 156q0 91 -43.5 156.5t-122.5 65.5t-122 -65.5t-43 -155.5z" />
    <glyph glyph-name="one.t_osf" horiz-adv-x="565" 
d="M130 0v60h156v360l1 53h-2q-16 -13 -39 -27l-105 -63l-32 48l181 112h62v-483h139v-60h-361z" />
    <glyph glyph-name="two.t_osf" horiz-adv-x="565" 
d="M85 0v49q169 113 245.5 187.5t76.5 143.5q0 56 -38 84.5t-96 28.5q-40 0 -79 -19.5t-58 -39.5l-20 -19l-39 47q3 4 9 10t26 22t42 28.5t56.5 22.5t70.5 10q92 0 144 -49.5t52 -117.5q0 -85 -67 -159.5t-216 -169.5v-2q20 3 57 3h252v-60h-418z" />
    <glyph glyph-name="three.t_osf" horiz-adv-x="565" 
d="M55 -38l41 48q2 -3 7 -8.5t21 -18.5t33.5 -23t46 -18.5t57.5 -8.5q65 0 112.5 39.5t47.5 103.5q0 68 -52 103.5t-124 35.5h-49l-17 42l169 190l38 36v2q-20 -2 -57 -2h-232v60h384v-42l-211 -229q37 -2 72.5 -12t70.5 -30.5t56.5 -59.5t21.5 -91q0 -91 -65.5 -149
t-164.5 -58q-38 0 -73 9.5t-58 22.5t-41 26t-26 22z" />
    <glyph glyph-name="four.t_osf" horiz-adv-x="565" 
d="M31 37v45l330 461h75v-445h108v-61h-108v-153h-68v153h-337zM113 98h255v294l4 66h-2q-17 -33 -35 -58z" />
    <glyph glyph-name="five.t_osf" horiz-adv-x="565" 
d="M61 -28l43 44q6 -8 17.5 -20.5t51.5 -33t85 -20.5q70 0 122 41t52 112t-50.5 111t-120.5 40q-32 0 -64 -9t-48 -17l-16 -9l-43 15l38 317h328v-60h-269l-20 -164l-6 -38h2q45 24 109 24q97 0 163.5 -55.5t66.5 -151.5q0 -99 -68.5 -158t-171.5 -59q-38 0 -73 9.5
t-57.5 22.5t-39 26.5t-24.5 22.5z" />
    <glyph glyph-name="six.t_osf" horiz-adv-x="565" 
d="M47 290q0 66 18 131t53.5 122t96.5 92.5t138 35.5q34 0 66.5 -6.5t47.5 -13.5l15 -7l-26 -57q-44 22 -102 22q-70 0 -122.5 -41t-79 -100t-32.5 -129h2q26 38 74.5 59.5t104.5 21.5q96 0 157 -59t61 -152q0 -100 -63 -160.5t-157 -60.5q-113 0 -182.5 84.5t-69.5 217.5z
M120 248q0 -71 51 -135t127 -64q70 0 110.5 44.5t40.5 114.5q0 69 -43.5 111t-115.5 42q-68 0 -119 -36t-51 -77z" />
    <glyph glyph-name="seven.t_osf" horiz-adv-x="565" 
d="M122 -116l272 539l34 60v2q-17 -2 -52 -2h-314v60h444v-45l-311 -614h-73z" />
    <glyph glyph-name="eight.t_osf" horiz-adv-x="565" 
d="M52 189q0 35 13.5 67t35.5 55t37.5 36t29.5 22q-88 53 -88 135q0 69 54.5 118.5t152.5 49.5q95 0 152.5 -47.5t57.5 -124.5q0 -92 -86 -178q103 -55 103 -143q0 -79 -65.5 -135t-163.5 -56q-97 0 -165 55t-68 146zM444 179q0 24 -11.5 44t-38 36.5t-47.5 27t-62 27.5
t-60 25q-19 -10 -38.5 -25.5t-42 -49.5t-22.5 -72q0 -64 48.5 -103.5t114.5 -39.5q63 0 111 37t48 93zM148 503q0 -20 9.5 -38t21 -29.5t37 -26t40 -20.5t50 -20.5t48.5 -19.5q12 10 26 26t31.5 51.5t17.5 70.5q0 52 -40 82.5t-103 30.5q-62 0 -100 -30.5t-38 -76.5z" />
    <glyph glyph-name="nine.t_osf" horiz-adv-x="565" 
d="M109 -44q43 -23 102 -23q102 0 163 80.5t71 190.5h-2q-26 -38 -75 -59.5t-104 -21.5q-96 0 -157 58.5t-61 152.5q0 100 62.5 160.5t157.5 60.5q113 0 182.5 -84.5t69.5 -217.5q0 -52 -11 -104t-35 -102.5t-59 -89t-87 -62t-114 -23.5q-35 0 -67.5 7t-47.5 13l-15 7z
M274 182q68 0 119 36t51 77q0 71 -51 134.5t-127 63.5q-70 0 -110.5 -44t-40.5 -114q0 -69 43.5 -111t115.5 -42z" />
    <glyph glyph-name="dollar.osf" horiz-adv-x="521" 
d="M54 85l42 49q3 -3 8 -9t22 -20t35.5 -25t47.5 -20t59 -9q52 0 87 26t35 71q0 35 -32 60.5t-77.5 42.5t-90.5 36.5t-77 55t-32 86.5q0 68 46 108.5t118 47.5v86h56v-85q44 -4 80.5 -19t50.5 -29l15 -13l-34 -54q-6 6 -17 15t-47 23.5t-76 14.5q-52 0 -86.5 -23t-34.5 -71
q0 -35 32 -60.5t77 -42t90.5 -36t77.5 -55.5t32 -88q0 -65 -47.5 -109t-122.5 -49v-93h-56v93q-33 4 -64 15t-51 24t-36 26t-23 21z" />
    <glyph glyph-name="cent.osf" horiz-adv-x="569" 
d="M59 298q0 97 60.5 163t155.5 78v86h57v-84q49 -3 91 -22.5t60 -36.5l18 -18l-34 -53q-6 8 -17.5 19t-50.5 30t-83 19q-80 0 -133.5 -50.5t-53.5 -129.5t53.5 -130t133.5 -51q44 0 81.5 17t53.5 34l16 17l34 -53q-7 -8 -20 -20t-57 -33t-92 -25v-81h-57v83
q-95 12 -155.5 78t-60.5 163z" />
    <glyph glyph-name="sterling.osf" horiz-adv-x="616" 
d="M61 0v60h64v185h-45v52h45v106q0 78 60 131t152 53q44 0 85 -13t60 -26l19 -13l-37 -52q-55 41 -127 41q-66 0 -104.5 -36t-38.5 -89v-102h230v-52h-230v-185h338v-60h-471z" />
    <glyph glyph-name="yen.osf" horiz-adv-x="603" 
d="M101 280v51h104l-150 246h79l124 -209l43 -83h2q21 46 43 83l123 209h79l-149 -246h104v-51h-135l-31 -53v-23h166v-51h-166v-153h-70v153h-166v51h166v23l-32 53h-134z" />
    <glyph glyph-name="florin.osf" horiz-adv-x="569" 
d="M34 -62q32 -5 63 -5q18 0 35 4.5t37.5 16.5t34 40t17.5 68l22 256h-89v57h95l9 110q4 47 20 83t36 55t46.5 30.5t46.5 15t41 3.5q18 0 38.5 -2t31.5 -4l12 -1v-61q-45 7 -81 7q-18 0 -35 -4.5t-37 -16.5t-34 -40t-18 -68l-10 -107h126v-57h-130l-23 -259
q-4 -48 -20 -83.5t-36 -54.5t-46.5 -31t-46 -15t-40.5 -3l-65 6v60z" />
    <glyph glyph-name="Euro.osf" horiz-adv-x="621" 
d="M61 203v49h64q-2 26 -2 39q0 19 1 29h-63v49h72q24 95 101.5 156.5t203.5 61.5q23 0 46.5 -3t35.5 -6l12 -3l-16 -59q-38 10 -79 10q-91 0 -150 -44t-82 -113h279l-11 -49h-279q-2 -11 -2 -32q0 -12 2 -36h268l-10 -49h-246q24 -68 84 -110.5t149 -42.5q22 0 44 3t33 7
l10 3l15 -60q-44 -15 -103 -15q-120 0 -198.5 60.5t-104.5 154.5h-74z" />
    <glyph glyph-name="zero.numerator" 
d="M191 258q-152 0 -152 228q0 227 152 227t152 -227q0 -228 -152 -228zM191 310q96 0 96 176q0 175 -96 175t-96 -175q0 -176 96 -176z" />
    <glyph glyph-name="one.numerator" 
d="M74 268v50h95v289l1 24h-1q-4 -8 -21 -25l-40 -38l-35 37l99 98h52v-385h93v-50h-243z" />
    <glyph glyph-name="two.numerator" 
d="M53 268q-3 16 -3 31q0 46 22.5 82t54 59t63.5 43t54.5 45.5t22.5 56.5q0 32 -23 54.5t-59 22.5q-24 0 -46 -12t-33 -24l-10 -13l-36 35q5 7 14.5 18t42.5 29t70 18q62 0 99 -36t37 -91q0 -41 -21.5 -73t-52.5 -53t-62 -40t-53.5 -45t-24.5 -57h222v-50h-278z" />
    <glyph glyph-name="three.numerator" 
d="M185 258q-27 0 -51.5 7t-40 16.5t-27.5 19t-18 16.5l-5 7l35 38q4 -6 12.5 -14.5t36 -23t57.5 -14.5q36 0 65 25.5t29 63.5t-29.5 61t-68.5 23h-33l-14 31l99 115l25 25v2q-19 -3 -37 -3h-154v50h263v-36l-119 -138q50 -6 87 -38t37 -92q0 -58 -43 -99.5t-106 -41.5z" />
    <glyph glyph-name="four.numerator" 
d="M236 268v114h-212v38l212 283h55v-271h65v-50h-65v-114h-55zM92 432h144v136l3 62h-2q-16 -27 -32 -49l-113 -147v-2z" />
    <glyph glyph-name="five.numerator" 
d="M182 258q-25 0 -48.5 7t-38.5 17t-26.5 20.5t-16.5 17.5l-6 7l38 35q4 -6 11 -14.5t32 -23t53 -14.5q42 0 71.5 27.5t29.5 67.5t-29.5 68t-72.5 28q-20 0 -39.5 -6t-29.5 -12l-9 -6l-33 13l24 213h218v-50h-172l-8 -78l-6 -37h2q25 12 60 12q65 0 108.5 -42.5
t43.5 -102.5q0 -61 -45 -104t-111 -43z" />
    <glyph glyph-name="six.numerator" 
d="M202 258q-71 0 -114.5 56t-43.5 145q0 44 11 87t33 81.5t60 62t87 23.5q22 0 44 -5t33 -10l11 -5l-22 -48q-31 16 -65 16q-53 0 -87.5 -44t-43.5 -108h2q15 17 42.5 28t52.5 11q63 0 102.5 -39t39.5 -102q0 -69 -40.5 -109t-101.5 -40zM202 310q40 0 63 28t23 69
q0 43 -25 69t-66 26q-37 0 -66 -21t-29 -45q0 -45 28.5 -85.5t71.5 -40.5z" />
    <glyph glyph-name="seven.numerator" 
d="M65 268l174 328l33 57v2q-19 -2 -50 -2h-175v50h290v-37l-210 -398h-62z" />
    <glyph glyph-name="eight.numerator" 
d="M40 392q0 70 72 117q-53 36 -53 92q0 53 40 82.5t95 29.5t96 -30.5t41 -84.5q0 -59 -57 -116q67 -39 67 -99q0 -53 -43 -89t-105 -36t-107.5 36t-45.5 98zM285 384q0 15 -7 28t-23 23.5t-28 17t-37.5 18t-36.5 16.5q-57 -40 -57 -93q0 -39 29 -62.5t68 -23.5
q35 0 63.5 22t28.5 54zM114 599q0 -10 3 -18.5t7 -15t12.5 -13.5t14.5 -11t19 -10.5t19 -9t21.5 -9.5t21.5 -9q44 44 44 93q0 32 -24.5 49.5t-58.5 17.5q-32 0 -55.5 -16.5t-23.5 -47.5z" />
    <glyph glyph-name="nine.numerator" 
d="M38 565q0 68 40.5 108t101.5 40q71 0 114.5 -56t43.5 -145q0 -60 -18.5 -115.5t-63.5 -97t-109 -41.5q-22 0 -44 5t-33 11l-11 5l22 47q31 -16 65 -16q53 0 87.5 44t43.5 109h-2q-16 -17 -43 -28.5t-52 -11.5q-63 0 -102.5 39.5t-39.5 102.5zM94 564q0 -42 25.5 -68.5
t65.5 -26.5q37 0 66 21t29 46q0 45 -28.5 85.5t-71.5 40.5q-40 0 -63 -28t-23 -70z" />
    <glyph glyph-name="zero.denominator" 
d="M191 -10q-152 0 -152 228q0 227 152 227t152 -227q0 -228 -152 -228zM191 42q96 0 96 176q0 175 -96 175t-96 -175q0 -176 96 -176z" />
    <glyph glyph-name="one.denominator" 
d="M74 0v50h95v289l1 24h-1q-4 -8 -21 -25l-40 -38l-35 37l99 98h52v-385h93v-50h-243z" />
    <glyph glyph-name="two.denominator" 
d="M53 0q-3 16 -3 31q0 46 22.5 82t54 59t63.5 43t54.5 45.5t22.5 56.5q0 32 -23 54.5t-59 22.5q-24 0 -46 -12t-33 -24l-10 -13l-36 35q5 7 14.5 18t42.5 29t70 18q62 0 99 -36t37 -91q0 -41 -21.5 -73t-52.5 -53t-62 -40t-53.5 -45t-24.5 -57h222v-50h-278z" />
    <glyph glyph-name="three.denominator" 
d="M185 -10q-27 0 -51.5 7t-40 16.5t-27.5 19t-18 16.5l-5 7l35 38q4 -6 12.5 -14.5t36 -23t57.5 -14.5q36 0 65 25.5t29 63.5t-29.5 61t-68.5 23h-33l-14 31l99 115l25 25v2q-19 -3 -37 -3h-154v50h263v-36l-119 -138q50 -6 87 -38t37 -92q0 -58 -43 -99.5t-106 -41.5z" />
    <glyph glyph-name="four.denominator" 
d="M236 0v114h-212v38l212 283h55v-271h65v-50h-65v-114h-55zM92 164h144v136l3 62h-2q-16 -27 -32 -49l-113 -147v-2z" />
    <glyph glyph-name="five.denominator" 
d="M182 -10q-25 0 -48.5 7t-38.5 17t-26.5 20.5t-16.5 17.5l-6 7l38 35q4 -6 11 -14.5t32 -23t53 -14.5q42 0 71.5 27.5t29.5 67.5t-29.5 68t-72.5 28q-20 0 -39.5 -6t-29.5 -12l-9 -6l-33 13l24 213h218v-50h-172l-8 -78l-6 -37h2q25 12 60 12q65 0 108.5 -42.5
t43.5 -102.5q0 -61 -45 -104t-111 -43z" />
    <glyph glyph-name="six.denominator" 
d="M202 -10q-71 0 -114.5 56t-43.5 145q0 44 11 87t33 81.5t60 62t87 23.5q22 0 44 -5t33 -10l11 -5l-22 -48q-31 16 -65 16q-53 0 -87.5 -44t-43.5 -108h2q15 17 42.5 28t52.5 11q63 0 102.5 -39t39.5 -102q0 -69 -40.5 -109t-101.5 -40zM202 42q40 0 63 28t23 69
q0 43 -25 69t-66 26q-37 0 -66 -21t-29 -45q0 -45 28.5 -85.5t71.5 -40.5z" />
    <glyph glyph-name="seven.denominator" 
d="M65 0l174 328l33 57v2q-19 -2 -50 -2h-175v50h290v-37l-210 -398h-62z" />
    <glyph glyph-name="eight.denominator" 
d="M40 124q0 70 72 117q-53 36 -53 92q0 53 40 82.5t95 29.5t96 -30.5t41 -84.5q0 -59 -57 -116q67 -39 67 -99q0 -53 -43 -89t-105 -36t-107.5 36t-45.5 98zM285 116q0 15 -7 28t-23 23.5t-28 17t-37.5 18t-36.5 16.5q-57 -40 -57 -93q0 -39 29 -62.5t68 -23.5
q35 0 63.5 22t28.5 54zM114 331q0 -10 3 -18.5t7 -15t12.5 -13.5t14.5 -11t19 -10.5t19 -9t21.5 -9.5t21.5 -9q44 44 44 93q0 32 -24.5 49.5t-58.5 17.5q-32 0 -55.5 -16.5t-23.5 -47.5z" />
    <glyph glyph-name="nine.denominator" 
d="M38 297q0 68 40.5 108t101.5 40q71 0 114.5 -56t43.5 -145q0 -60 -18.5 -115.5t-63.5 -97t-109 -41.5q-22 0 -44 5t-33 11l-11 5l22 47q31 -16 65 -16q53 0 87.5 44t43.5 109h-2q-16 -17 -43 -28.5t-52 -11.5q-63 0 -102.5 39.5t-39.5 102.5zM94 296q0 -42 25.5 -68.5
t65.5 -26.5q37 0 66 21t29 46q0 45 -28.5 85.5t-71.5 40.5q-40 0 -63 -28t-23 -70z" />
    </font>
</defs>
</svg>
