<?xml version="1.0" standalone="no"?>
<!DOCTYPE svg PUBLIC "-//W3C//DTD SVG 1.1//EN" "http://www.w3.org/Graphics/SVG/1.1/DTD/svg11.dtd" >
<svg xmlns="http://www.w3.org/2000/svg" xmlns:xlink="http://www.w3.org/1999/xlink" version="1.1">
<metadata>
Created by FontForge 20170731 at Fri Sep 12 14:40:39 2008
 By Aleksey,,,
Copyright (c) 2008 by Jos Buivenga. All rights reserved.
</metadata>
<defs>
<font id="MuseoSans-100" horiz-adv-x="376" >
  <font-face 
    font-family="Museo Sans 100"
    font-weight="250"
    font-stretch="normal"
    units-per-em="1000"
    panose-1="2 0 0 0 0 0 0 0 0 0"
    ascent="750"
    descent="-250"
    x-height="500"
    cap-height="700"
    bbox="-115 -210 1088 874"
    underline-thickness="50"
    underline-position="-200"
    unicode-range="U+0020-FB04"
  />
<missing-glyph horiz-adv-x="510" 
d="M5 0v700h500v-700h-500zM255 395l170 255h-340zM285 350l170 -255v510zM55 95l170 255l-170 255v-510zM85 50h340l-170 255z" />
    <glyph glyph-name="f_f" unicode="ff" horiz-adv-x="610" 
d="M414 0v462h-263v-462h-42v462h-63v38h63v20q0 58 17 98t44.5 57t50 23.5t46.5 6.5l26 -2v-39q-9 2 -23 2q-19 0 -36 -5t-37.5 -18.5t-33 -45t-12.5 -76.5v-21h263v20q0 58 17 98t44.5 57t50 23.5t46.5 6.5l26 -2v-39q-9 2 -23 2q-19 0 -36 -5t-37.5 -18.5t-33 -45
t-12.5 -76.5v-21h137v-38h-137v-462h-42z" />
    <glyph glyph-name="fi" unicode="fi" horiz-adv-x="523" 
d="M393 0v462h-242v-462h-42v462h-63v38h63v20q0 58 17 98t44.5 57t50 23.5t46.5 6.5l26 -2v-39q-9 2 -23 2q-19 0 -36 -5t-37.5 -18.5t-33 -45t-12.5 -76.5v-21h284v-500h-42zM389 627v73h50v-73h-50z" />
    <glyph glyph-name="fl" unicode="fl" horiz-adv-x="535" 
d="M109 0v459h-63v38h63v23q0 58 17 98t44.5 57t50 23.5t46.5 6.5l26 -2v-39q-9 2 -23 2q-19 0 -36 -5t-37.5 -18.5t-33 -45t-12.5 -76.5v-24h137v-38h-137v-459h-42zM388 101v599h42v-586q0 -78 59 -78l15 1v-39q-9 -2 -18 -2q-14 0 -28 3.5t-31.5 13.5t-28 32.5
t-10.5 55.5z" />
    <glyph glyph-name="f_f_i" unicode="ffi" horiz-adv-x="828" 
d="M698 0v462h-242v-462h-42v462h-263v-462h-42v462h-63v38h63v20q0 58 17 98t44.5 57t50 23.5t46.5 6.5l26 -2v-39q-9 2 -23 2q-19 0 -36 -5t-37.5 -18.5t-33 -45t-12.5 -76.5v-21h263v20q0 58 17 98t44.5 57t50 23.5t46.5 6.5l26 -2v-39q-9 2 -23 2q-19 0 -36 -5
t-37.5 -18.5t-33 -45t-12.5 -76.5v-21h284v-500h-42zM694 627v73h50v-73h-50z" />
    <glyph glyph-name="f_f_l" unicode="ffl" horiz-adv-x="840" 
d="M414 0v462h-263v-462h-42v462h-63v38h63v20q0 58 17 98t44.5 57t50 23.5t46.5 6.5l26 -2v-39q-9 2 -23 2q-19 0 -36 -5t-37.5 -18.5t-33 -45t-12.5 -76.5v-21h263v20q0 58 17 98t44.5 57t50 23.5t46.5 6.5l26 -2v-39q-9 2 -23 2q-19 0 -36 -5t-37.5 -18.5t-33 -45
t-12.5 -76.5v-21h137v-38h-137v-462h-42zM693 101v599h42v-586q0 -78 59 -78l15 1v-39q-9 -2 -18 -2q-14 0 -28 3.5t-31.5 13.5t-28 32.5t-10.5 55.5z" />
    <glyph glyph-name="f_j" unicode="fj" horiz-adv-x="523" 
d="M109 0v462h-63v38h63v20q0 58 17 98t44.5 57t50 23.5t46.5 6.5l26 -2v-39q-9 2 -23 2q-19 0 -36 -5t-37.5 -18.5t-33 -45t-12.5 -76.5v-21h284v-520q0 -58 -17 -98t-44.5 -57.5t-50.5 -23.5t-47 -6l-25 2v39q9 -2 22 -2q19 0 36.5 5t38 18.5t33 45t12.5 76.5v483h-242
v-462h-42zM389 627v73h50v-73h-50z" />
    <glyph glyph-name=".notdef" horiz-adv-x="510" 
d="M5 0v700h500v-700h-500zM255 395l170 255h-340zM285 350l170 -255v510zM55 95l170 255l-170 255v-510zM85 50h340l-170 255z" />
    <glyph glyph-name=".null" horiz-adv-x="0" 
 />
    <glyph glyph-name="nonmarkingreturn" horiz-adv-x="333" 
 />
    <glyph glyph-name="space" unicode=" " horiz-adv-x="277" 
 />
    <glyph glyph-name="exclam" unicode="!" horiz-adv-x="295" 
d="M126 175v525h43v-525h-43zM119 0v61h59v-61h-59z" />
    <glyph glyph-name="quotedbl" unicode="&#x22;" horiz-adv-x="291" 
d="M176 558v151h43v-151h-43zM72 558v151h43v-151h-43z" />
    <glyph glyph-name="numbersign" unicode="#" horiz-adv-x="733" 
d="M169 0l35 199h-152l7 40h152l39 221h-152l7 40h152l35 200h43l-35 -200h189l35 200h43l-35 -200h149l-7 -40h-149l-39 -221h149l-7 -40h-149l-35 -199h-43l35 199h-189l-35 -199h-43zM254 239h189l39 221h-189z" />
    <glyph glyph-name="dollar" unicode="$" horiz-adv-x="548" 
d="M66 75l29 33l8.5 -8.5t24 -19t38.5 -23.5t52 -18.5t64 -8.5q67 0 111.5 38t44.5 100q0 39 -20 69.5t-51.5 50t-70.5 37t-77.5 35.5t-70 39t-51.5 55t-20 77q0 67 50.5 118.5t131.5 60.5v95h43v-94q47 -2 87.5 -18t58.5 -31l17 -15l-24 -37q-7 7 -19.5 17t-52.5 26.5
t-81 16.5q-74 0 -120 -42t-46 -96q0 -49 37 -83.5t90 -56.5t106.5 -46.5t90.5 -68.5t37 -107q0 -73 -49.5 -123.5t-131.5 -57.5v-93h-43v93q-56 4 -104 25.5t-69 41.5z" />
    <glyph glyph-name="percent" unicode="%" horiz-adv-x="702" 
d="M193 451q-54 0 -92 38t-38 92t38 92.5t92 38.5t92.5 -38.5t38.5 -92.5t-38.5 -92t-92.5 -38zM61 0l531 700h52l-531 -700h-52zM193 491q37 0 62.5 26t25.5 64t-25.5 64.5t-62.5 26.5t-62 -26.5t-25 -64.5t25 -64t62 -26zM379 118q0 54 38 92.5t92 38.5t92.5 -38.5
t38.5 -92.5t-38.5 -92t-92.5 -38t-92 38t-38 92zM422 118q0 -38 25 -64t62 -26t62.5 26t25.5 64t-25.5 64.5t-62.5 26.5t-62 -26.5t-25 -64.5z" />
    <glyph glyph-name="ampersand" unicode="&#x26;" horiz-adv-x="666" 
d="M65 191q0 65 35 118t97 70v2q-4 1 -11 4t-24.5 14.5t-30.5 27.5t-24 45.5t-11 65.5q0 77 54.5 125.5t149.5 48.5q13 0 31.5 -2.5t30.5 -5.5l12 -2l-14 -38q-37 8 -63 8q-67 0 -111.5 -36.5t-44.5 -96.5q0 -23 6 -44t22 -44.5t52.5 -38t90.5 -14.5h163v102h43v-102h97v-40
h-97v-112q0 -129 -59.5 -193.5t-163.5 -64.5q-101 0 -165.5 57.5t-64.5 145.5zM110 193q0 -70 50 -116.5t135 -46.5q180 0 180 216v112h-161q-101 0 -152.5 -44.5t-51.5 -120.5z" />
    <glyph glyph-name="quotesingle" unicode="'" horiz-adv-x="187" 
d="M72 558v151h43v-151h-43z" />
    <glyph glyph-name="parenleft" unicode="(" horiz-adv-x="277" 
d="M193 -95q-110 193 -110 430q0 208 110 390h44q-113 -190 -113 -391q0 -231 113 -429h-44z" />
    <glyph glyph-name="parenright" unicode=")" horiz-adv-x="277" 
d="M84 -95h-44q113 198 113 429q0 201 -113 391h44q110 -182 110 -390q0 -237 -110 -430z" />
    <glyph glyph-name="asterisk" unicode="*" horiz-adv-x="470" 
d="M141 344l-36 25l99 130v2l-156 47l13 42l155 -54l-5 164h47l-5 -164l156 53l14 -41l-157 -47v-2l98 -130l-35 -26l-93 134h-2z" />
    <glyph glyph-name="plus" unicode="+" horiz-adv-x="686" 
d="M85 263v40h237v263h43v-263h236v-40h-236v-263h-43v263h-237z" />
    <glyph glyph-name="comma" unicode="," horiz-adv-x="241" 
d="M45 -94l53 155h56l-67 -155h-42z" />
    <glyph glyph-name="hyphen" unicode="-" horiz-adv-x="356" 
d="M40 263v40h276v-40h-276z" />
    <glyph glyph-name="period" unicode="." horiz-adv-x="237" 
d="M88 0v63h61v-63h-61z" />
    <glyph glyph-name="slash" unicode="/" horiz-adv-x="384" 
d="M47 -42l253 782h44l-253 -782h-44z" />
    <glyph glyph-name="zero" unicode="0" horiz-adv-x="622" 
d="M311 -12q-236 0 -236 362t236 362t236 -362t-236 -362zM311 30q54 0 92.5 24t59.5 69t30 100t9 127q0 320 -191 320t-191 -320q0 -72 9 -127t30 -100t59.5 -69t92.5 -24z" />
    <glyph glyph-name="one" unicode="1" horiz-adv-x="442" 
d="M56 0v40h159v570l1 35h-2q-7 -13 -37 -43l-83 -83l-30 29l151 152h43v-660h155v-40h-357z" />
    <glyph glyph-name="two" unicode="2" horiz-adv-x="557" 
d="M66 0q-3 20 -3 37q0 49 20.5 91.5t53.5 73.5t72.5 59.5t79.5 56t73 56t53.5 66t20.5 80.5q0 65 -44.5 107.5t-118.5 42.5q-31 0 -60 -10.5t-48.5 -25t-34 -29t-20.5 -25.5l-7 -10l-32 22q3 5 8 13t23.5 28.5t39.5 36.5t57 29t75 13q98 0 152.5 -56t54.5 -136
q0 -56 -27.5 -104t-69 -80t-89.5 -66.5t-89.5 -64.5t-69 -73t-27.5 -92h383v-40h-426z" />
    <glyph glyph-name="three" unicode="3" horiz-adv-x="556" 
d="M49 85l32 32q3 -4 8.5 -9.5t24.5 -20.5t39.5 -26.5t52 -21t63.5 -9.5q70 0 122.5 48.5t52.5 123.5q0 78 -55.5 122.5t-131.5 44.5h-48l-12 30l196 229l31 32v2q-19 -2 -54 -2h-287v40h401v-30l-226 -261q36 0 72.5 -9.5t74 -31.5t61 -65t23.5 -101q0 -89 -65.5 -151.5
t-156.5 -62.5q-37 0 -73.5 10t-61.5 24.5t-44.5 28.5t-29.5 24z" />
    <glyph glyph-name="four" unicode="4" horiz-adv-x="588" 
d="M36 200v30l363 470h40v-460h104v-40h-104v-200h-43v200h-360zM96 240h300v328l3 63h-2q-17 -25 -35 -48l-266 -341v-2z" />
    <glyph glyph-name="five" unicode="5" horiz-adv-x="554" 
d="M59 89l35 27l6 -9t18.5 -21t31.5 -26t45.5 -20.5t60.5 -9.5q82 0 138 52.5t56 130.5q0 79 -56 132t-138 53q-36 0 -70 -10.5t-50 -21.5l-16 -10l-32 11l40 333h325v-40h-287l-25 -209l-7 -43h2q49 32 120 32q100 0 169.5 -66t69.5 -161q0 -94 -70 -159.5t-169 -65.5
q-38 0 -72.5 10.5t-56 25t-38 29.5t-23.5 25z" />
    <glyph glyph-name="six" unicode="6" horiz-adv-x="592" 
d="M316 -12q-113 0 -179 94t-66 233q0 68 17.5 135t51.5 127t94.5 97.5t137.5 37.5q32 0 62.5 -7t45.5 -14l14 -7l-21 -39q-43 25 -103 25q-77 0 -135 -49.5t-86 -120t-33 -152.5h2q29 44 82.5 70t115.5 26q94 0 154.5 -61t60.5 -162q0 -109 -62 -171t-153 -62zM315 30
q79 0 125 53t46 138q0 83 -47.5 132t-124.5 49q-78 0 -136 -44.5t-58 -94.5q0 -81 56 -157t139 -76z" />
    <glyph glyph-name="seven" unicode="7" horiz-adv-x="507" 
d="M105 0l292 595l37 65v2q-20 -2 -55 -2h-340v40h443v-30l-332 -670h-45z" />
    <glyph glyph-name="eight" unicode="8" horiz-adv-x="601" 
d="M69 200q0 36 13 69.5t31.5 56t36.5 39.5t31 25l13 8q-91 55 -91 143q0 71 54.5 121t151.5 50q96 0 152 -49t56 -128q0 -104 -94 -198q103 -58 103 -150q0 -83 -65.5 -141t-159.5 -58q-93 0 -162.5 57t-69.5 155zM481 186q0 30 -13.5 54t-43 43.5t-54.5 31.5t-69 30.5
t-66 29.5q-10 -5 -25.5 -16t-39.5 -33t-40 -55.5t-16 -70.5q0 -77 56 -123.5t131 -46.5q70 0 125 44.5t55 111.5zM148 541q0 -30 12.5 -53.5t41 -42.5t51 -30.5t67 -30t63.5 -27.5q89 82 89 178q0 61 -45.5 98t-117.5 37q-74 0 -117.5 -37t-43.5 -92z" />
    <glyph glyph-name="nine" unicode="9" horiz-adv-x="592" 
d="M220 -12q-32 0 -62.5 7t-45.5 14l-14 7l21 39q43 -25 103 -25q77 0 135 49.5t86 120t33 152.5h-2q-29 -44 -82.5 -70t-115.5 -26q-94 0 -154.5 61t-60.5 162q0 109 62 171t153 62q113 0 179 -94t66 -233q0 -68 -17.5 -135t-51.5 -127t-94.5 -97.5t-137.5 -37.5zM278 298
q78 0 136 44.5t58 94.5q0 81 -56 157t-139 76q-79 0 -125 -53t-46 -138q0 -83 47.5 -132t124.5 -49z" />
    <glyph glyph-name="colon" unicode=":" horiz-adv-x="293" 
d="M118 441v59h57v-59h-57zM118 0v59h57v-59h-57z" />
    <glyph glyph-name="semicolon" unicode=";" horiz-adv-x="293" 
d="M121 441v59h57v-59h-57zM76 -94l45 155h52l-56 -155h-41z" />
    <glyph glyph-name="less" unicode="&#x3c;" horiz-adv-x="563" 
d="M54 265v36l439 197v-48l-377 -166v-2l377 -166v-48z" />
    <glyph glyph-name="equal" unicode="=" horiz-adv-x="704" 
d="M124 343v40h456v-40h-456zM124 183v40h456v-40h-456z" />
    <glyph glyph-name="greater" unicode="&#x3e;" horiz-adv-x="563" 
d="M70 68v48l377 166v2l-377 166v48l439 -197v-36z" />
    <glyph glyph-name="question" unicode="?" horiz-adv-x="469" 
d="M162 175v44q0 45 18.5 81.5t45 61.5t52.5 49.5t44.5 57t18.5 72.5q0 55 -41 92t-105 37q-32 0 -64 -10.5t-47 -21.5l-16 -10l-23 34q7 6 19 14t51 22t79 14q85 0 138.5 -49t53.5 -123q0 -46 -18.5 -82.5t-45 -61.5t-53.5 -49t-45.5 -56.5t-18.5 -71.5v-44h-43zM154 0v61
h59v-61h-59z" />
    <glyph glyph-name="at" unicode="@" horiz-adv-x="788" 
d="M70 243q0 151 102 258t244 107q120 0 176 -51t56 -126v-344h70v-40h-265q-80 0 -136.5 57t-56.5 137q0 81 56.5 138.5t136.5 57.5h150q-3 57 -46 94t-135 37q-129 0 -218 -94.5t-89 -230.5t88.5 -229.5t218.5 -93.5v-42q-146 0 -249 106.5t-103 258.5zM305 241
q0 -64 44.5 -109t108.5 -45h145v310h-143q-65 0 -110 -46t-45 -110z" />
    <glyph glyph-name="A" unicode="A" horiz-adv-x="606" 
d="M542 0l-91 242h-297l-90 -242h-46l262 700h46l262 -700h-46zM304 650h-2q-15 -54 -26 -84l-107 -284h267l-106 284z" />
    <glyph glyph-name="B" unicode="B" horiz-adv-x="619" 
d="M108 0v700h235q78 0 127.5 -48t49.5 -127q0 -109 -91 -153v-2q53 -15 86 -63t33 -114q0 -87 -55 -140t-140 -53h-245zM151 388h191q59 0 96 37.5t37 99.5t-36.5 98.5t-97.5 36.5h-190v-272zM151 40h198q71 0 112.5 41t41.5 112q0 70 -43.5 112.5t-111.5 42.5h-197v-308z
" />
    <glyph glyph-name="C" unicode="C" horiz-adv-x="734" 
d="M61 355q0 152 99.5 254.5t247.5 102.5q46 0 89 -9t71 -22t49.5 -26t30.5 -22l10 -9l-26 -32q-3 3 -9.5 8.5t-28.5 19t-46 24t-62 19t-77 8.5q-129 0 -216 -90.5t-87 -225.5q0 -137 87.5 -231.5t218.5 -94.5q42 0 82 10t67 23.5t47.5 27.5t30.5 24l10 10l27 -30
l-11.5 -11.5t-32.5 -25.5t-53.5 -32t-73.5 -25.5t-93 -11.5q-151 0 -251 106.5t-100 260.5z" />
    <glyph glyph-name="D" unicode="D" horiz-adv-x="741" 
d="M108 0v700h220q158 0 253.5 -93t95.5 -257q0 -165 -95 -257.5t-254 -92.5h-220zM151 40h170q142 0 226.5 81t84.5 229q0 147 -84.5 228.5t-226.5 81.5h-170v-620z" />
    <glyph glyph-name="E" unicode="E" horiz-adv-x="571" 
d="M108 0v700h383v-40h-340v-287h279v-40h-279v-293h359v-40h-402z" />
    <glyph glyph-name="F" unicode="F" horiz-adv-x="508" 
d="M108 0v700h353v-40h-310v-292h268v-40h-268v-328h-43z" />
    <glyph glyph-name="G" unicode="G" horiz-adv-x="757" 
d="M61 350q0 152 100.5 257t248.5 105q70 0 131 -20t87 -40l26 -19l-26 -33q-3 3 -9.5 7.5t-28.5 17t-45.5 22t-60 17t-74.5 7.5q-131 0 -217.5 -92t-86.5 -229t84.5 -229t213.5 -92q42 0 82 12t67.5 28.5t49 33.5t31.5 29l10 12v135h-125v40h168v-319h-43v61l1 30h-2
q-3 -4 -10 -11t-29.5 -25t-48.5 -31.5t-67 -24.5t-84 -11q-146 0 -244.5 104.5t-98.5 257.5z" />
    <glyph glyph-name="H" unicode="H" horiz-adv-x="746" 
d="M108 0v700h43v-329h444v329h43v-700h-43v331h-444v-331h-43z" />
    <glyph glyph-name="I" unicode="I" horiz-adv-x="259" 
d="M108 0v700h43v-700h-43z" />
    <glyph glyph-name="J" unicode="J" horiz-adv-x="513" 
d="M39 191v22h43v-23q0 -64 28 -105q39 -56 116 -56q60 0 102 38.5t42 122.5v470h-167v40h210v-509q0 -104 -54.5 -153.5t-132.5 -49.5t-132.5 49.5t-54.5 153.5z" />
    <glyph glyph-name="K" unicode="K" horiz-adv-x="580" 
d="M108 0v700h43v-312h130l200 312h52l-215 -330v-2l229 -368h-52l-214 348h-130v-348h-43z" />
    <glyph glyph-name="L" unicode="L" horiz-adv-x="509" 
d="M108 0v700h43v-660h334v-40h-377z" />
    <glyph glyph-name="M" unicode="M" horiz-adv-x="850" 
d="M88 0l56 700h42l204 -440l34 -79h2q18 45 34 79l204 440h42l56 -700h-43l-43 534l-3 93h-2q-20 -59 -36 -93l-188 -399h-44l-187 399l-37 95h-2q0 -61 -3 -95l-43 -534h-43z" />
    <glyph glyph-name="N" unicode="N" horiz-adv-x="752" 
d="M108 0v700h40l399 -549l57 -88h2q-5 53 -5 88v549h43v-700h-40l-399 549l-57 88h-2q5 -53 5 -88v-549h-43z" />
    <glyph glyph-name="O" unicode="O" horiz-adv-x="826" 
d="M59 355q0 150 103.5 253.5t250.5 103.5t250.5 -103.5t103.5 -253.5q0 -154 -103.5 -260.5t-250.5 -106.5t-250.5 106.5t-103.5 260.5zM104 355q0 -137 90 -231.5t219 -94.5t219 94.5t90 231.5q0 134 -90 225t-219 91t-219 -91t-90 -225z" />
    <glyph glyph-name="P" unicode="P" horiz-adv-x="592" 
d="M108 0v700h230q93 0 153 -55.5t60 -148.5q0 -94 -60 -150t-153 -56h-187v-290h-43zM151 330h185q78 0 124 44t46 122t-46 121t-124 43h-185v-330z" />
    <glyph glyph-name="Q" unicode="Q" horiz-adv-x="839" 
d="M60 354q0 151 102.5 254.5t249.5 103.5q149 0 252.5 -103.5t103.5 -254.5q0 -146 -92 -249l90 -93l-28 -27l-89 92q-98 -89 -237 -89q-146 0 -249 107t-103 259zM105 354q0 -137 88.5 -231t218.5 -94q56 0 111.5 20.5t96.5 57.5l-90 93l28 27l89 -92q76 92 76 219
q0 135 -89.5 226t-221.5 91q-130 0 -218.5 -91t-88.5 -226z" />
    <glyph glyph-name="R" unicode="R" horiz-adv-x="621" 
d="M108 0v700h205q84 0 126 -21q45 -22 71 -66t26 -102q0 -74 -39 -126.5t-101 -66.5v-2q7 -8 16 -25l157 -291h-51l-166 310h-201v-310h-43zM151 350h190q68 0 109 44.5t41 116.5q0 46 -22 82t-60 53q-31 14 -98 14h-160v-310z" />
    <glyph glyph-name="S" unicode="S" horiz-adv-x="530" 
d="M56 75l29 33l8.5 -8.5t24 -19t38.5 -23.5t52 -18.5t64 -8.5q67 0 111.5 38t44.5 100q0 40 -19.5 71t-51.5 50t-70 36t-76 34.5t-70 38.5t-51.5 55t-19.5 78q0 73 59 127t151 54q32 0 62 -6.5t50 -16t35.5 -19.5t22.5 -16l8 -7l-24 -37q-7 7 -19.5 17t-52.5 26.5t-81 16.5
q-74 0 -120 -42t-46 -96q0 -37 19.5 -65.5t51.5 -46.5t70 -34t76 -34t70 -40t51.5 -58.5t19.5 -83.5q0 -78 -55.5 -130t-147.5 -52q-39 0 -75 9t-60 22t-43 25.5t-28 21.5z" />
    <glyph glyph-name="T" unicode="T" horiz-adv-x="581" 
d="M269 0v660h-261v40h565v-40h-261v-660h-43z" />
    <glyph glyph-name="U" unicode="U" horiz-adv-x="719" 
d="M98 240v460h43v-458q0 -98 59 -155.5t159 -57.5t159.5 57.5t59.5 157.5v456h43v-460q0 -115 -72.5 -183.5t-188.5 -68.5q-117 0 -189.5 69t-72.5 183z" />
    <glyph glyph-name="V" unicode="V" horiz-adv-x="605" 
d="M279 0l-262 700h46l211 -566l27 -84h2q15 51 27 84l212 566h46l-262 -700h-47z" />
    <glyph glyph-name="W" unicode="W" horiz-adv-x="919" 
d="M458 639h-2q-14 -66 -27 -111l-148 -528h-54l-184 700h45l148 -570l17 -75h2l3 11q2 11 7 30t9 34l160 570h48l160 -570q4 -15 9 -34t7 -30l3 -11h2q8 41 17 75l153 570h45l-189 -700h-54l-148 528l-27 111h-2z" />
    <glyph glyph-name="X" unicode="X" horiz-adv-x="573" 
d="M30 0l226 370l-201 330h52l134 -223l46 -78h2q22 44 43 78l135 223h52l-203 -330l227 -370h-51l-162 266l-45 75h-2q-21 -41 -42 -76l-160 -265h-51z" />
    <glyph glyph-name="Y" unicode="Y" horiz-adv-x="556" 
d="M257 0v304l-238 396h49l166 -276l43 -79h2q22 45 43 79l166 276h49l-237 -396v-304h-43z" />
    <glyph glyph-name="Z" unicode="Z" horiz-adv-x="586" 
d="M44 0v34l385 562l48 64v2q-16 -2 -51 -2h-361v40h464v-34l-385 -562l-48 -64v-2q16 2 51 2h385v-40h-488z" />
    <glyph glyph-name="bracketleft" unicode="[" horiz-adv-x="267" 
d="M112 -95v820h108v-40h-65v-740h65v-40h-108z" />
    <glyph glyph-name="backslash" unicode="\" horiz-adv-x="384" 
d="M293 -42l-253 782h44l253 -782h-44z" />
    <glyph glyph-name="bracketright" unicode="]" horiz-adv-x="267" 
d="M47 -55h65v740h-65v40h108v-820h-108v40z" />
    <glyph glyph-name="asciicircum" unicode="^" horiz-adv-x="600" 
d="M77 252l197 448h32l197 -448h-46l-167 388l-167 -388h-46z" />
    <glyph glyph-name="underscore" unicode="_" horiz-adv-x="576" 
d="M40 0h496v-40h-496v40z" />
    <glyph glyph-name="grave" unicode="`" horiz-adv-x="509" 
d="M272 750l-79 111h56l67 -111h-44z" />
    <glyph glyph-name="a" unicode="a" horiz-adv-x="513" 
d="M47 133q0 35 13 63t32 45.5t49.5 30.5t55.5 19t60 9.5t54 4t46 0.5h33v17q0 149 -137 149q-39 0 -74.5 -12t-52.5 -24l-16 -12l-24 34q7 6 20 15t57 24.5t92 15.5q87 0 132 -48t45 -141v-323h-42v66l4 45h-2q1 0 -5 -12.5t-19 -30.5t-32.5 -36.5t-51 -31t-67.5 -12.5
q-68 0 -119 37.5t-51 107.5zM91 136q0 -43 34 -76t94 -33q77 0 124 65.5t47 146.5v27h-32q-31 0 -50.5 -0.5t-56 -4t-60 -12t-49 -22t-38.5 -37t-13 -54.5z" />
    <glyph glyph-name="b" unicode="b" horiz-adv-x="579" 
d="M88 0v700h42v-260l-4 -41h2q2 5 5.5 12.5t18.5 27t33.5 34.5t51.5 27t72 12q99 0 157.5 -72t58.5 -190t-62.5 -190t-161.5 -72q-35 0 -66 11.5t-49.5 28t-32.5 33.5t-19 29l-6 11h-2q4 -18 4 -44v-57h-42zM129 249q0 -90 45.5 -155t128.5 -65q76 0 127 59.5t51 161.5
q0 100 -48.5 160.5t-125.5 60.5q-76 0 -127 -55.5t-51 -166.5z" />
    <glyph glyph-name="c" unicode="c" horiz-adv-x="551" 
d="M53 249q0 116 75.5 189.5t182.5 73.5q53 0 97.5 -18t63.5 -36l18 -17l-26 -34q-6 7 -18.5 17.5t-52 28.5t-82.5 18q-90 0 -152 -61.5t-62 -160.5q0 -98 62 -159t152 -61q49 0 90.5 18t58.5 36l18 18l22 -35q-3 -3 -8 -8.5t-23 -19t-38 -23.5t-52.5 -18.5t-67.5 -8.5
q-109 0 -183.5 72.5t-74.5 188.5z" />
    <glyph glyph-name="d" unicode="d" horiz-adv-x="580" 
d="M55 250q0 118 62.5 190t161.5 72q35 0 66 -11.5t49.5 -28t32.5 -33.5t19 -29l6 -11h2q-4 18 -4 41v260h42v-700h-42v63l4 38h-2q-2 -5 -5.5 -12.5t-18.5 -27t-33.5 -34.5t-51.5 -27t-72 -12q-99 0 -157.5 72t-58.5 190zM99 250q0 -100 48.5 -160.5t125.5 -60.5
q76 0 127 55.5t51 166.5q0 90 -45.5 155t-128.5 65q-76 0 -127 -59.5t-51 -161.5z" />
    <glyph glyph-name="e" unicode="e" horiz-adv-x="553" 
d="M53 249q0 122 71 192.5t172 70.5q97 0 150.5 -65.5t53.5 -162.5l-2 -27h-401q0 -105 61.5 -166.5t152.5 -61.5q43 0 81.5 15.5t55.5 31.5l18 16l23 -35q-8 -8 -22.5 -19.5t-61 -30.5t-94.5 -19q-109 0 -183.5 72.5t-74.5 188.5zM100 296h356q-4 87 -49 132t-112 45
q-73 0 -127.5 -46.5t-67.5 -130.5z" />
    <glyph glyph-name="f" unicode="f" horiz-adv-x="305" 
d="M109 0v459h-63v38h63v23q0 58 17 98t44.5 57t50 23.5t46.5 6.5l26 -2v-39q-9 2 -23 2q-19 0 -36 -5t-37.5 -18.5t-33 -45t-12.5 -76.5v-24h137v-38h-137v-459h-42z" />
    <glyph glyph-name="g" unicode="g" horiz-adv-x="573" 
d="M119 -134q62 -35 134 -35q85 0 137.5 42.5t52.5 129.5v58l4 41h-2q-50 -102 -168 -102q-98 0 -160 71t-62 187q0 117 58.5 185.5t156.5 68.5q40 0 72.5 -10t50.5 -24.5t30.5 -29t16.5 -24.5l4 -10h2q-3 7 -3 19v67h42v-497q0 -108 -65.5 -160.5t-163.5 -52.5
q-81 0 -157 39zM280 41q73 0 118.5 51.5t45.5 165.5q0 213 -174 213q-81 0 -126 -56t-45 -157q0 -100 50 -158.5t131 -58.5z" />
    <glyph glyph-name="h" unicode="h" horiz-adv-x="586" 
d="M88 0v700h42v-288l-4 -41h2q17 48 73 94.5t139 46.5q92 0 128.5 -49.5t36.5 -145.5v-317h-42v302q0 30 -2 51.5t-9 45t-20 38.5t-36.5 24.5t-55.5 9.5q-70 0 -126.5 -44.5t-75.5 -114.5q-8 -28 -8 -68v-244h-42z" />
    <glyph glyph-name="i" unicode="i" horiz-adv-x="218" 
d="M84 627v73h50v-73h-50zM88 0v500h42v-500h-42z" />
    <glyph glyph-name="j" unicode="j" horiz-adv-x="218" 
d="M88 500h42v-520q0 -58 -17 -98t-44.5 -57.5t-50.5 -23.5t-47 -6l-25 2v39q9 -2 22 -2q19 0 36.5 5t38 18.5t33 45t12.5 76.5v521zM84 627v73h50v-73h-50z" />
    <glyph glyph-name="k" unicode="k" horiz-adv-x="480" 
d="M88 0v700h42v-397h89l162 197h55l-181 -215v-2l198 -283h-53l-181 264h-89v-264h-42z" />
    <glyph glyph-name="l" unicode="l" horiz-adv-x="230" 
d="M83 101v599h42v-586q0 -78 59 -78l15 1v-39q-9 -2 -18 -2q-14 0 -28 3.5t-31.5 13.5t-28 32.5t-10.5 55.5z" />
    <glyph glyph-name="m" unicode="m" horiz-adv-x="918" 
d="M88 0v500h42v-88l-4 -41h2q19 56 76.5 98.5t115.5 42.5q74 0 112 -34t46 -102h2q22 55 75 95.5t115 40.5q92 0 129.5 -49.5t37.5 -145.5v-317h-42v302q0 82 -26 126.5t-99 44.5q-60 0 -109.5 -45t-66.5 -107q-10 -33 -10 -77v-244h-42v302q0 30 -2 51.5t-9.5 45.5t-20 39
t-35.5 25t-55 10q-64 0 -114 -47.5t-68 -113.5q-8 -28 -8 -68v-244h-42z" />
    <glyph glyph-name="n" unicode="n" horiz-adv-x="586" 
d="M88 0v500h42v-88l-4 -41h2q17 48 73 94.5t139 46.5q92 0 128.5 -49.5t36.5 -145.5v-317h-42v302q0 30 -2 51.5t-9 45t-20 38.5t-36.5 24.5t-55.5 9.5q-70 0 -126.5 -44.5t-75.5 -114.5q-8 -28 -8 -68v-244h-42z" />
    <glyph glyph-name="o" unicode="o" horiz-adv-x="620" 
d="M51 253q0 109 75.5 184t183.5 75t183.5 -75t75.5 -184q0 -111 -75.5 -188t-183.5 -77t-183.5 77t-75.5 188zM95 253q0 -95 62.5 -159.5t152.5 -64.5t152.5 64.5t62.5 159.5q0 92 -62.5 155t-152.5 63t-152.5 -63t-62.5 -155z" />
    <glyph glyph-name="p" unicode="p" horiz-adv-x="579" 
d="M88 -200v700h42v-60l-3 -40h2q2 5 5.5 12.5t18 26.5t33 34t51.5 27t72 12q99 0 157.5 -72t58.5 -190t-62 -190t-160 -72q-36 0 -67.5 11.5t-50.5 28t-32.5 33.5t-18.5 29l-6 11h-2q4 -18 4 -44v-257h-42zM129 249q0 -89 47 -154.5t127 -65.5q76 0 127 59.5t51 161.5
q0 100 -48.5 160.5t-125.5 60.5q-76 0 -127 -55.5t-51 -166.5z" />
    <glyph glyph-name="q" unicode="q" horiz-adv-x="580" 
d="M55 250q0 118 62.5 190t161.5 72q35 0 66 -11.5t49.5 -28t32 -33t19.5 -27.5l5 -12h2q-3 17 -3 40v60h42v-700h-42v257l4 44h-2q-2 -5 -5.5 -12.5t-18.5 -27t-33.5 -34.5t-51.5 -27t-72 -12q-99 0 -157.5 72t-58.5 190zM99 250q0 -100 48.5 -160.5t125.5 -60.5
q76 0 127 55.5t51 166.5q0 90 -45.5 155t-128.5 65q-76 0 -127 -59.5t-51 -161.5z" />
    <glyph glyph-name="r" unicode="r" horiz-adv-x="338" 
d="M88 0v500h42v-95l-4 -41h2q20 61 62 100.5t98 39.5l29 -3v-42q-12 2 -23 2q-55 0 -93 -39.5t-56 -100.5q-15 -48 -15 -105v-216h-42z" />
    <glyph glyph-name="s" unicode="s" horiz-adv-x="436" 
d="M45 60l27 32q6 -7 18 -17.5t52.5 -28t84.5 -17.5q49 0 82 25t33 69q0 35 -28.5 59t-68.5 39t-80.5 32t-69 48t-28.5 76q0 64 46 99.5t114 35.5q45 0 82 -13.5t51 -26.5l15 -14l-25 -34q-5 5 -14 13t-41.5 21t-70.5 13q-47 0 -80 -22.5t-33 -68.5q0 -36 28.5 -60t69 -39.5
t80.5 -32t68.5 -48t28.5 -77.5q0 -60 -45 -97.5t-115 -37.5q-54 0 -99 18t-63 36z" />
    <glyph glyph-name="t" unicode="t" horiz-adv-x="314" 
d="M104 181v278h-66v38h66v142h42v-142h131v-38h-131v-275q0 -46 12.5 -78t32.5 -46.5t37.5 -19.5t36.5 -5l23 2v-39q-10 -2 -25 -2q-19 0 -37 3t-41 14.5t-40 30.5t-29 54.5t-12 82.5z" />
    <glyph glyph-name="u" unicode="u" horiz-adv-x="581" 
d="M81 183v317h42v-302q0 -30 2 -51.5t9 -45t20 -38.5t36.5 -24.5t55.5 -9.5q90 0 147.5 67.5t57.5 159.5v244h42v-500h-42v88l4 41h-2q-17 -48 -72 -94.5t-135 -46.5q-89 0 -127 48t-38 147z" />
    <glyph glyph-name="v" unicode="v" horiz-adv-x="469" 
d="M215 0l-197 500h45l154 -392l17 -54h2q8 30 17 54l154 392h44l-196 -500h-40z" />
    <glyph glyph-name="w" unicode="w" horiz-adv-x="797" 
d="M197 0l-176 500h45l136 -392l17 -54h2q9 30 17 54l137 390h47l137 -390l17 -54h2q8 29 17 54l136 392h45l-176 -500h-45l-139 388l-17 54h-2q-8 -30 -17 -54l-138 -388h-45z" />
    <glyph glyph-name="x" unicode="x" horiz-adv-x="476" 
d="M29 0l180 264l-161 236h51l121 -182l17 -28h2q9 15 17 28l121 182h51l-161 -236l180 -264h-52l-138 207l-18 29h-2q-8 -14 -18 -29l-138 -207h-52z" />
    <glyph glyph-name="y" unicode="y" horiz-adv-x="489" 
d="M8 -182l19 36q28 -24 62 -24q60 0 98 90l36 83l-207 497h45l165 -399l18 -47h2q7 23 17 47l165 399h45l-257 -617q-39 -93 -127 -93q-21 0 -41.5 7t-29.5 14z" />
    <glyph glyph-name="z" unicode="z" horiz-adv-x="501" 
d="M44 0v34l303 381l39 46v2q-18 -2 -51 -2h-278v39h386v-34l-304 -381l-40 -46v-2q19 2 52 2h303v-39h-410z" />
    <glyph glyph-name="braceleft" unicode="{" horiz-adv-x="325" 
d="M140 88v94q0 30 -9 53.5t-21 35t-24.5 19t-21.5 9.5l-9 2v40q3 0 9 1.5t20.5 9.5t26 19.5t20.5 35t9 53.5v81q0 59 16 99.5t41 56.5t43 21.5t36 5.5h9v-39h-6q-13 0 -25.5 -4t-30.5 -17t-29 -44.5t-11 -77.5v-93q0 -27 -8 -50t-19.5 -36.5t-23.5 -23.5t-20 -13l-8 -4v-2
q3 -1 8.5 -3.5t19 -12.5t24 -22.5t19 -36.5t8.5 -52v-106q0 -46 11 -77.5t29 -44.5t30.5 -17t25.5 -4h6v-39q-3 -1 -9 -1q-13 0 -26.5 2.5t-34.5 13.5t-36.5 29t-27 54.5t-11.5 84.5z" />
    <glyph glyph-name="bar" unicode="|" horiz-adv-x="265" 
d="M111 -155v940h43v-940h-43z" />
    <glyph glyph-name="braceright" unicode="}" horiz-adv-x="325" 
d="M40 -56h6q13 0 25.5 4t30.5 17t29 44.5t11 77.5v106q0 45 20 76.5t40 40.5l19 10v2q-3 1 -8.5 3.5t-19 13t-24 23.5t-19 36.5t-8.5 50.5v93q0 46 -11 77.5t-29 44.5t-30.5 17t-25.5 4h-6v39h9q18 0 36 -5.5t43 -21.5t41 -56.5t16 -99.5v-81q0 -30 9 -53.5t21 -35
t24.5 -19t21.5 -9.5l9 -2v-40q-3 0 -9 -1.5t-20.5 -9.5t-26 -19.5t-20.5 -35t-9 -53.5v-94q0 -48 -11.5 -84.5t-27 -54.5t-36.5 -29t-34.5 -13.5t-26.5 -2.5l-9 1v39z" />
    <glyph glyph-name="asciitilde" unicode="~" horiz-adv-x="592" 
d="M79 213q0 74 31.5 109t83.5 35q31 0 55.5 -11.5t40 -27.5t30 -32t35 -27.5t45.5 -11.5q31 0 49 21t22 41.5t4 43.5h40q0 -74 -31.5 -109t-83.5 -35q-31 0 -55.5 11.5t-40 27.5t-30 32t-35 27.5t-45.5 11.5q-31 0 -49 -21t-22 -41.5t-4 -43.5h-40z" />
    <glyph glyph-name="uni00A0" unicode="&#xa0;" horiz-adv-x="277" 
 />
    <glyph glyph-name="exclamdown" unicode="&#xa1;" horiz-adv-x="261" 
d="M109 -200v525h43v-525h-43zM100 439v61h59v-61h-59z" />
    <glyph glyph-name="cent" unicode="&#xa2;" horiz-adv-x="567" 
d="M274 -13v84q-102 9 -155.5 86.5t-53.5 192.5t53.5 192.5t155.5 86.5v83h43v-83q122 -11 185 -142l-41 -16q-55 116 -163 116q-95 0 -141.5 -66t-46.5 -171t46.5 -171t141.5 -66q108 0 163 116l41 -16q-64 -132 -185 -142v-84h-43z" />
    <glyph glyph-name="sterling" unicode="&#xa3;" horiz-adv-x="585" 
d="M80 333v40h45v162q0 75 56 126t141 51q40 0 76.5 -13t53.5 -25l17 -13l-29 -33q-6 5 -16 12t-41 18.5t-62 11.5q-72 0 -112.5 -40t-40.5 -99v-158h198v-40h-198v-293h351v-40h-459v40h65v293h-45z" />
    <glyph glyph-name="yen" unicode="&#xa5;" horiz-adv-x="598" 
d="M115 352v40h110l-185 308h49l166 -276l43 -79h2q22 45 43 79l166 276h49l-185 -308h108v-40h-132l-28 -48v-42h160v-40h-160v-222h-43v222h-163v40h163v42l-29 48h-134z" />
    <glyph glyph-name="section" unicode="&#xa7;" horiz-adv-x="390" 
d="M142 62l-67 474q-2 16 -2 25q0 65 44.5 108t113.5 43q24 0 47 -8t34 -16l12 -9l-26 -32q-29 24 -68 24q-48 0 -80.5 -31t-32.5 -82q0 -7 2 -21l65 -475h-42zM63 -29l26 32q29 -24 68 -24q48 0 80 31t32 82q0 14 -1 21l-65 475h42l67 -474q2 -18 2 -25q0 -65 -45 -108
t-113 -43q-24 0 -47 8t-35 16z" />
    <glyph glyph-name="dieresis" unicode="&#xa8;" horiz-adv-x="509" 
d="M300 788v73h46v-73h-46zM163 788v73h46v-73h-46z" />
    <glyph glyph-name="copyright" unicode="&#xa9;" horiz-adv-x="838" 
d="M65 350q0 151 103 256.5t249 105.5q149 0 252.5 -105.5t103.5 -256.5q0 -152 -103.5 -257t-252.5 -105q-147 0 -249.5 105t-102.5 257zM110 350q0 -136 88.5 -228t218.5 -92q132 0 221.5 92t89.5 228q0 135 -89.5 227.5t-221.5 92.5q-130 0 -218.5 -92.5t-88.5 -227.5z
M214 349q0 85 57 148t158 63q29 0 56.5 -9t46 -22t33 -26t21.5 -22l6 -9l-33 -29q-5 8 -15.5 20.5t-44 33t-69.5 20.5q-81 0 -126 -49.5t-45 -117.5t45 -117.5t126 -49.5q37 0 69 18.5t46 36.5l14 19l33 -29q-2 -4 -7 -9.5t-21 -21t-33.5 -27t-45 -21t-56.5 -9.5
q-101 0 -158 62t-57 147z" />
    <glyph glyph-name="ordfeminine" unicode="&#xaa;" horiz-adv-x="428" 
d="M201 382q-45 0 -78 24t-33 69q0 111 194 111h14v4q0 83 -76 83q-21 0 -42.5 -7.5t-32.5 -14.5l-11 -7l-22 30q42 36 109 36q114 0 114 -120v-202h-39v51h-2q-3 -6 -10 -15.5t-31.5 -25.5t-53.5 -16zM202 419q43 0 69.5 37.5t26.5 83.5v10h-13q-154 0 -154 -71
q0 -25 18.5 -42.5t52.5 -17.5zM87 263v37h253v-37h-253z" />
    <glyph glyph-name="guillemotleft" unicode="&#xab;" horiz-adv-x="491" 
d="M214 282l164 206h53l-164 -206l164 -205h-53zM218 77l-164 205l164 206h53l-164 -206l164 -205h-53z" />
    <glyph glyph-name="logicalnot" unicode="&#xac;" horiz-adv-x="635" 
d="M90 343v40h456v-219h-42v179h-414z" />
    <glyph glyph-name="uni00AD" unicode="&#xad;" horiz-adv-x="432" 
d="M78 263v40h276v-40h-276z" />
    <glyph glyph-name="registered" unicode="&#xae;" horiz-adv-x="838" 
d="M65 350q0 151 103 256.5t249 105.5q149 0 252.5 -105.5t103.5 -256.5q0 -152 -103.5 -257t-252.5 -105q-147 0 -249.5 105t-102.5 257zM110 350q0 -136 88.5 -228t218.5 -92q132 0 221.5 92t89.5 228q0 135 -89.5 227.5t-221.5 92.5q-130 0 -218.5 -92.5t-88.5 -227.5z
M301 150v400h133q51 0 83.5 -32t32.5 -84q0 -42 -22 -70.5t-55 -36.5v-2q4 -5 13 -22l79 -153h-49l-85 167h-86v-167h-44zM345 355h84q35 0 55.5 21t20.5 58q0 36 -20.5 56t-55.5 20h-84v-155z" />
    <glyph glyph-name="macron" unicode="&#xaf;" horiz-adv-x="509" 
d="M135 786v40h239v-40h-239z" />
    <glyph glyph-name="degree" unicode="&#xb0;" horiz-adv-x="371" 
d="M185 449q-54 0 -92 38t-38 92t38 92.5t92 38.5t92.5 -38.5t38.5 -92.5t-38.5 -92t-92.5 -38zM185 489q37 0 62.5 26t25.5 64t-25.5 64.5t-62.5 26.5t-62 -26.5t-25 -64.5t25 -64t62 -26z" />
    <glyph glyph-name="plusminus" unicode="&#xb1;" horiz-adv-x="686" 
d="M85 263v40h237v263h43v-263h236v-40h-236v-263h-43v263h-237zM105 -113h476v-40h-476v40z" />
    <glyph glyph-name="twosuperior" unicode="&#xb2;" 
d="M55 423q-2 18 -2 27q0 45 23 80.5t55.5 58.5t64.5 44t55 49t23 62q0 36 -25.5 61.5t-65.5 25.5q-25 0 -48.5 -12.5t-34.5 -24.5l-11 -13l-24 26q5 7 14 17t39.5 26.5t64.5 16.5q62 0 96 -35.5t34 -87.5q0 -41 -22.5 -73.5t-54.5 -54.5t-64.5 -42.5t-55.5 -49.5t-24 -65
h229v-36h-266z" />
    <glyph glyph-name="threesuperior" unicode="&#xb3;" 
d="M184 413q-42 0 -76.5 16.5t-47.5 32.5l-14 16l28 26q4 -6 12 -15t36.5 -24.5t62.5 -15.5q39 0 71 29.5t32 71.5q0 43 -32.5 69.5t-74.5 26.5h-32l-11 24l108 127l25 25v2q-18 -3 -38 -3h-164v36h255v-26l-128 -150q51 -4 91 -35t40 -96q0 -57 -42.5 -97t-100.5 -40z" />
    <glyph glyph-name="acute" unicode="&#xb4;" horiz-adv-x="509" 
d="M193 750l67 111h56l-79 -111h-44z" />
    <glyph glyph-name="mu" unicode="&#xb5;" horiz-adv-x="598" 
d="M93 -200v700h42v-302q0 -30 2 -51.5t9 -45t20 -38.5t36.5 -24.5t55.5 -9.5q90 0 147.5 67.5t57.5 159.5v244h42v-500h-42v83l2 41h-2q-2 -6 -6.5 -15t-21.5 -32.5t-38.5 -41.5t-58.5 -32.5t-80 -14.5q-27 0 -50.5 5.5t-37 13t-23 14.5t-13.5 13l-3 5h-2q6 -51 6 -72v-167
h-42z" />
    <glyph glyph-name="mu" unicode="&#x3bc;" horiz-adv-x="598" 
d="M93 -200v700h42v-302q0 -30 2 -51.5t9 -45t20 -38.5t36.5 -24.5t55.5 -9.5q90 0 147.5 67.5t57.5 159.5v244h42v-500h-42v83l2 41h-2q-2 -6 -6.5 -15t-21.5 -32.5t-38.5 -41.5t-58.5 -32.5t-80 -14.5q-27 0 -50.5 5.5t-37 13t-23 14.5t-13.5 13l-3 5h-2q6 -51 6 -72v-167
h-42z" />
    <glyph glyph-name="paragraph" unicode="&#xb6;" horiz-adv-x="551" 
d="M294 -50v291q-98 0 -169 67t-71 163t70.5 162.5t168.5 66.5h210v-40h-167v-710h-42zM398 -50v647h42v-647h-42z" />
    <glyph glyph-name="periodcentered" unicode="&#xb7;" horiz-adv-x="273" 
d="M106 255v63h61v-63h-61z" />
    <glyph glyph-name="cedilla" unicode="&#xb8;" horiz-adv-x="509" 
d="M233 18l32 -5v-8l-12 -65q31 -5 50 -23t19 -45q0 -39 -26 -57.5t-65 -18.5l-44 4v38q18 -5 41 -5q54 0 54 37q0 38 -61 38l-12 -1z" />
    <glyph glyph-name="onesuperior" unicode="&#xb9;" 
d="M77 423v36h96v325l1 22h-1q-4 -8 -23 -27l-44 -43l-26 27l93 94h38v-398h93v-36h-227z" />
    <glyph glyph-name="ordmasculine" unicode="&#xba;" horiz-adv-x="476" 
d="M237 383q-68 0 -115.5 48t-47.5 118q0 68 47.5 115t115.5 47t115.5 -47t47.5 -115q0 -70 -47.5 -118t-115.5 -48zM237 420q52 0 88 37t36 92q0 54 -36 89.5t-88 35.5t-88 -35.5t-36 -89.5q0 -55 36 -92t88 -37zM92 263v37h294v-37h-294z" />
    <glyph glyph-name="guillemotright" unicode="&#xbb;" horiz-adv-x="491" 
d="M220 77l164 205l-164 206h53l164 -206l-164 -205h-53zM60 77l164 205l-164 206h53l164 -206l-164 -205h-53z" />
    <glyph glyph-name="onequarter" unicode="&#xbc;" horiz-adv-x="971" 
d="M831 0v121h-215v26l222 287h31v-277h68v-36h-68v-121h-38zM671 157h160v147l3 65h-2q-17 -27 -35 -50l-126 -160v-2zM133 266v36h96v325l1 22h-1q-4 -8 -23 -27l-44 -43l-26 27l93 94h38v-398h93v-36h-227zM365 0h-44l336 700h43z" />
    <glyph glyph-name="onehalf" unicode="&#xbd;" horiz-adv-x="919" 
d="M296 0h-44l336 700h43zM64 266v36h96v325l1 22h-1q-4 -8 -23 -27l-44 -43l-26 27l93 94h38v-398h93v-36h-227zM577 0q-2 18 -2 27q0 45 23 80.5t55.5 58.5t64.5 44t55 49t23 62q0 36 -25.5 61.5t-65.5 25.5q-25 0 -48.5 -12.5t-34.5 -25.5l-11 -12l-24 26q5 7 14 17
t39.5 26.5t64.5 16.5q62 0 96 -35.5t34 -87.5q0 -41 -22.5 -73.5t-54.5 -54.5t-64.5 -42.5t-55.5 -49.5t-24 -65h229v-36h-266z" />
    <glyph glyph-name="threequarters" unicode="&#xbe;" horiz-adv-x="955" 
d="M191 256q-27 0 -51 6.5t-39 16t-26.5 19.5t-16.5 16l-5 7l28 26q4 -6 12 -15t36.5 -24.5t62.5 -15.5q39 0 71 29.5t32 71.5q0 43 -32.5 69.5t-74.5 26.5h-32l-11 24l108 127l25 25v2q-18 -3 -38 -3h-164v36h255v-26l-128 -150q51 -4 91 -35t40 -96q0 -57 -42.5 -97
t-100.5 -40zM320 0h-44l336 700h43zM786 0v121h-215v26l222 287h31v-277h68v-36h-68v-121h-38zM626 157h160v147l3 65h-2q-17 -27 -35 -50l-126 -160v-2z" />
    <glyph glyph-name="questiondown" unicode="&#xbf;" horiz-adv-x="429" 
d="M48 -38q0 46 18.5 82.5t45 61.5t53.5 49t45.5 56.5t18.5 71.5v42h43v-42q0 -45 -18.5 -82t-45 -62t-52.5 -49.5t-44.5 -57t-18.5 -71.5q0 -55 41 -92t105 -37q32 0 64 10.5t47 21.5l16 10l23 -34q-7 -6 -19 -14t-51 -22t-79 -14q-85 0 -138.5 49t-53.5 123zM221 439v61
h59v-61h-59z" />
    <glyph glyph-name="Agrave" unicode="&#xc0;" horiz-adv-x="606" 
d="M542 0l-91 242h-297l-90 -242h-46l262 700h46l262 -700h-46zM304 650h-2q-15 -54 -26 -84l-107 -284h267l-106 284zM281 750l-79 111h56l67 -111h-44z" />
    <glyph glyph-name="Aacute" unicode="&#xc1;" horiz-adv-x="606" 
d="M542 0l-91 242h-297l-90 -242h-46l262 700h46l262 -700h-46zM304 650h-2q-15 -54 -26 -84l-107 -284h267l-106 284zM280 750l67 111h56l-79 -111h-44z" />
    <glyph glyph-name="Acircumflex" unicode="&#xc2;" horiz-adv-x="606" 
d="M542 0l-91 242h-297l-90 -242h-46l262 700h46l262 -700h-46zM304 650h-2q-15 -54 -26 -84l-107 -284h267l-106 284zM197 750l80 111h52l80 -111h-49l-56 80h-2l-56 -80h-49z" />
    <glyph glyph-name="Atilde" unicode="&#xc3;" horiz-adv-x="606" 
d="M542 0l-91 242h-297l-90 -242h-46l262 700h46l262 -700h-46zM304 650h-2q-15 -54 -26 -84l-107 -284h267l-106 284zM159 753q0 108 83 108q23 0 41.5 -11.5t29 -25.5t25.5 -25.5t30 -11.5q40 0 40 71h40q0 -108 -83 -108q-23 0 -41.5 11.5t-29 25.5t-25.5 25.5t-30 11.5
q-40 0 -40 -71h-40z" />
    <glyph glyph-name="Adieresis" unicode="&#xc4;" horiz-adv-x="606" 
d="M542 0l-91 242h-297l-90 -242h-46l262 700h46l262 -700h-46zM304 650h-2q-15 -54 -26 -84l-107 -284h267l-106 284zM349 788v73h46v-73h-46zM212 788v73h46v-73h-46z" />
    <glyph glyph-name="Aring" unicode="&#xc5;" horiz-adv-x="606" 
d="M542 0l-91 242h-297l-90 -242h-46l262 700h46l262 -700h-46zM304 650h-2q-15 -54 -26 -84l-107 -284h267l-106 284zM303 740q-29 0 -48 19t-19 48t19 48t48 19t48 -19t19 -48t-19 -48t-48 -19zM303 775q14 0 23 9t9 23q0 15 -9 24t-23 9t-23 -9t-9 -24q0 -14 9 -23t23 -9
z" />
    <glyph glyph-name="AE" unicode="&#xc6;" horiz-adv-x="832" 
d="M16 0l287 700h449v-40h-340v-287h279v-40h-279v-293h359v-40h-402v333h-171l-136 -333h-46zM333 660l-118 -287h154v287h-36z" />
    <glyph glyph-name="Ccedilla" unicode="&#xc7;" horiz-adv-x="735" 
d="M62 355q0 152 99.5 254.5t247.5 102.5q46 0 89 -9t71 -22t49.5 -26t31.5 -22l9 -9l-26 -32q-3 3 -9.5 8.5t-28.5 19t-46 24t-62 19t-77 8.5q-129 0 -216 -90.5t-87 -225.5q0 -137 87.5 -231.5t218.5 -94.5q42 0 82 10t67 23.5t47.5 27.5t30.5 24l10 10l27 -30l-11 -11
t-32 -25t-52.5 -32t-71.5 -25.5t-90 -12.5l-9 -48q31 -5 50 -23t19 -45q0 -39 -26 -57.5t-65 -18.5l-44 4v38q18 -5 41 -5q54 0 54 37q0 38 -61 38l-12 -1l17 82q-141 10 -231.5 114.5t-90.5 251.5z" />
    <glyph glyph-name="Egrave" unicode="&#xc8;" horiz-adv-x="571" 
d="M108 0v700h383v-40h-340v-287h279v-40h-279v-293h359v-40h-402zM290 750l-79 111h56l67 -111h-44z" />
    <glyph glyph-name="Eacute" unicode="&#xc9;" horiz-adv-x="571" 
d="M108 0v700h383v-40h-340v-287h279v-40h-279v-293h359v-40h-402zM289 750l67 111h56l-79 -111h-44z" />
    <glyph glyph-name="Ecircumflex" unicode="&#xca;" horiz-adv-x="571" 
d="M108 0v700h383v-40h-340v-287h279v-40h-279v-293h359v-40h-402zM206 750l80 111h52l80 -111h-49l-56 80h-2l-56 -80h-49z" />
    <glyph glyph-name="Edieresis" unicode="&#xcb;" horiz-adv-x="571" 
d="M108 0v700h383v-40h-340v-287h279v-40h-279v-293h359v-40h-402zM358 788v73h46v-73h-46zM221 788v73h46v-73h-46z" />
    <glyph glyph-name="Igrave" unicode="&#xcc;" horiz-adv-x="259" 
d="M108 0v700h43v-700h-43zM108 750l-79 111h56l67 -111h-44z" />
    <glyph glyph-name="Iacute" unicode="&#xcd;" horiz-adv-x="259" 
d="M108 0v700h43v-700h-43zM107 750l67 111h56l-79 -111h-44z" />
    <glyph glyph-name="Icircumflex" unicode="&#xce;" horiz-adv-x="259" 
d="M108 0v700h43v-700h-43zM24 750l80 111h52l80 -111h-49l-56 80h-2l-56 -80h-49z" />
    <glyph glyph-name="Idieresis" unicode="&#xcf;" horiz-adv-x="259" 
d="M108 0v700h43v-700h-43zM176 788v73h46v-73h-46zM39 788v73h46v-73h-46z" />
    <glyph glyph-name="Eth" unicode="&#xd0;" horiz-adv-x="753" 
d="M60 333v40h60v327h220q158 0 253.5 -93t95.5 -257q0 -165 -95 -257.5t-254 -92.5h-220v333h-60zM163 40h170q142 0 226.5 81t84.5 229q0 147 -84.5 228.5t-226.5 81.5h-170v-287h183v-40h-183v-293z" />
    <glyph glyph-name="Ntilde" unicode="&#xd1;" horiz-adv-x="752" 
d="M108 0v700h40l399 -549l57 -88h2q-5 53 -5 88v549h43v-700h-40l-399 549l-57 88h-2q5 -53 5 -88v-549h-43zM232 753q0 108 83 108q23 0 41.5 -11.5t29 -25.5t25.5 -25.5t30 -11.5q40 0 40 71h40q0 -108 -83 -108q-23 0 -41.5 11.5t-29 25.5t-25.5 25.5t-30 11.5
q-40 0 -40 -71h-40z" />
    <glyph glyph-name="Ograve" unicode="&#xd2;" horiz-adv-x="826" 
d="M59 355q0 150 103.5 253.5t250.5 103.5t250.5 -103.5t103.5 -253.5q0 -154 -103.5 -260.5t-250.5 -106.5t-250.5 106.5t-103.5 260.5zM104 355q0 -137 90 -231.5t219 -94.5t219 94.5t90 231.5q0 134 -90 225t-219 91t-219 -91t-90 -225zM391 750l-79 111h56l67 -111h-44z
" />
    <glyph glyph-name="Oacute" unicode="&#xd3;" horiz-adv-x="826" 
d="M59 355q0 150 103.5 253.5t250.5 103.5t250.5 -103.5t103.5 -253.5q0 -154 -103.5 -260.5t-250.5 -106.5t-250.5 106.5t-103.5 260.5zM104 355q0 -137 90 -231.5t219 -94.5t219 94.5t90 231.5q0 134 -90 225t-219 91t-219 -91t-90 -225zM390 750l67 111h56l-79 -111h-44z
" />
    <glyph glyph-name="Ocircumflex" unicode="&#xd4;" horiz-adv-x="826" 
d="M59 355q0 150 103.5 253.5t250.5 103.5t250.5 -103.5t103.5 -253.5q0 -154 -103.5 -260.5t-250.5 -106.5t-250.5 106.5t-103.5 260.5zM104 355q0 -137 90 -231.5t219 -94.5t219 94.5t90 231.5q0 134 -90 225t-219 91t-219 -91t-90 -225zM307 750l80 111h52l80 -111h-49
l-56 80h-2l-56 -80h-49z" />
    <glyph glyph-name="Otilde" unicode="&#xd5;" horiz-adv-x="826" 
d="M59 355q0 150 103.5 253.5t250.5 103.5t250.5 -103.5t103.5 -253.5q0 -154 -103.5 -260.5t-250.5 -106.5t-250.5 106.5t-103.5 260.5zM104 355q0 -137 90 -231.5t219 -94.5t219 94.5t90 231.5q0 134 -90 225t-219 91t-219 -91t-90 -225zM269 753q0 108 83 108
q23 0 41.5 -11.5t29 -25.5t25.5 -25.5t30 -11.5q40 0 40 71h40q0 -108 -83 -108q-23 0 -41.5 11.5t-29 25.5t-25.5 25.5t-30 11.5q-40 0 -40 -71h-40z" />
    <glyph glyph-name="Odieresis" unicode="&#xd6;" horiz-adv-x="826" 
d="M59 355q0 150 103.5 253.5t250.5 103.5t250.5 -103.5t103.5 -253.5q0 -154 -103.5 -260.5t-250.5 -106.5t-250.5 106.5t-103.5 260.5zM104 355q0 -137 90 -231.5t219 -94.5t219 94.5t90 231.5q0 134 -90 225t-219 91t-219 -91t-90 -225zM459 788v73h46v-73h-46zM322 788
v73h46v-73h-46z" />
    <glyph glyph-name="multiply" unicode="&#xd7;" horiz-adv-x="658" 
d="M78 28l224 255l-224 255l28 28l223 -253l223 253l28 -28l-225 -255l225 -255l-28 -28l-223 253l-223 -253z" />
    <glyph glyph-name="Oslash" unicode="&#xd8;" horiz-adv-x="831" 
d="M62 355q0 150 103.5 253.5t250.5 103.5q103 0 192 -57l49 69l34 -25l-49 -69q60 -50 94 -121.5t34 -153.5q0 -154 -103.5 -260.5t-250.5 -106.5q-104 0 -192 58l-49 -69l-35 24l50 70q-60 51 -94 125t-34 159zM725 355q0 72 -28.5 134.5t-79.5 106.5l-369 -516
q74 -51 168 -51q129 0 219 94.5t90 231.5zM107 355q0 -152 108 -249l368 515q-75 50 -167 50q-129 0 -219 -91t-90 -225z" />
    <glyph glyph-name="Ugrave" unicode="&#xd9;" horiz-adv-x="719" 
d="M98 240v460h43v-458q0 -98 59 -155.5t159 -57.5t159.5 57.5t59.5 157.5v456h43v-460q0 -115 -72.5 -183.5t-188.5 -68.5q-117 0 -189.5 69t-72.5 183zM337 750l-79 111h56l67 -111h-44z" />
    <glyph glyph-name="Uacute" unicode="&#xda;" horiz-adv-x="719" 
d="M98 240v460h43v-458q0 -98 59 -155.5t159 -57.5t159.5 57.5t59.5 157.5v456h43v-460q0 -115 -72.5 -183.5t-188.5 -68.5q-117 0 -189.5 69t-72.5 183zM336 750l67 111h56l-79 -111h-44z" />
    <glyph glyph-name="Ucircumflex" unicode="&#xdb;" horiz-adv-x="719" 
d="M98 240v460h43v-458q0 -98 59 -155.5t159 -57.5t159.5 57.5t59.5 157.5v456h43v-460q0 -115 -72.5 -183.5t-188.5 -68.5q-117 0 -189.5 69t-72.5 183zM253 750l80 111h52l80 -111h-49l-56 80h-2l-56 -80h-49z" />
    <glyph glyph-name="Udieresis" unicode="&#xdc;" horiz-adv-x="719" 
d="M98 240v460h43v-458q0 -98 59 -155.5t159 -57.5t159.5 57.5t59.5 157.5v456h43v-460q0 -115 -72.5 -183.5t-188.5 -68.5q-117 0 -189.5 69t-72.5 183zM405 788v73h46v-73h-46zM268 788v73h46v-73h-46z" />
    <glyph glyph-name="Yacute" unicode="&#xdd;" horiz-adv-x="556" 
d="M257 0v304l-238 396h49l166 -276l43 -79h2q22 45 43 79l166 276h49l-237 -396v-304h-43zM255 750l67 111h56l-79 -111h-44z" />
    <glyph glyph-name="Thorn" unicode="&#xde;" horiz-adv-x="594" 
d="M108 0v700h43v-130h187q93 0 153 -55.5t60 -148.5q0 -94 -60 -150t-155 -56h-185v-160h-43zM151 200h185q78 0 124 44t46 122t-46 121t-124 43h-185v-330z" />
    <glyph glyph-name="germandbls" unicode="&#xdf;" horiz-adv-x="563" 
d="M88 0v532q0 83 56.5 131.5t131.5 48.5q74 0 117.5 -41.5t43.5 -96.5q0 -37 -19 -69t-41.5 -50.5t-41.5 -42t-19 -44.5q0 -24 33 -50.5t72.5 -49t72.5 -60t33 -80.5q0 -65 -45 -100t-109 -35q-43 0 -81.5 8.5t-55.5 17.5l-17 9v46q63 -40 155 -40q46 0 77.5 24t31.5 70
q0 29 -21.5 55t-52.5 45.5t-62.5 39t-53 44.5t-21.5 54q0 30 19 58t41.5 46.5t41.5 46.5t19 57q0 38 -31.5 67.5t-87.5 29.5q-57 0 -100.5 -38.5t-43.5 -103.5v-529h-42z" />
    <glyph glyph-name="agrave" unicode="&#xe0;" horiz-adv-x="513" 
d="M47 133q0 35 13 63t32 45.5t49.5 30.5t55.5 19t60 9.5t54 4t46 0.5h33v17q0 149 -137 149q-39 0 -74.5 -12t-52.5 -24l-16 -12l-24 34q7 6 20 15t57 24.5t92 15.5q87 0 132 -48t45 -141v-323h-42v66l4 45h-2q1 0 -5 -12.5t-19 -30.5t-32.5 -36.5t-51 -31t-67.5 -12.5
q-68 0 -119 37.5t-51 107.5zM91 136q0 -43 34 -76t94 -33q77 0 124 65.5t47 146.5v27h-32q-31 0 -50.5 -0.5t-56 -4t-60 -12t-49 -22t-38.5 -37t-13 -54.5zM233 589l-79 111h56l67 -111h-44z" />
    <glyph glyph-name="aacute" unicode="&#xe1;" horiz-adv-x="513" 
d="M47 133q0 35 13 63t32 45.5t49.5 30.5t55.5 19t60 9.5t54 4t46 0.5h33v17q0 149 -137 149q-39 0 -74.5 -12t-52.5 -24l-16 -12l-24 34q7 6 20 15t57 24.5t92 15.5q87 0 132 -48t45 -141v-323h-42v66l4 45h-2q1 0 -5 -12.5t-19 -30.5t-32.5 -36.5t-51 -31t-67.5 -12.5
q-68 0 -119 37.5t-51 107.5zM91 136q0 -43 34 -76t94 -33q77 0 124 65.5t47 146.5v27h-32q-31 0 -50.5 -0.5t-56 -4t-60 -12t-49 -22t-38.5 -37t-13 -54.5zM231 589l67 111h56l-79 -111h-44z" />
    <glyph glyph-name="acircumflex" unicode="&#xe2;" horiz-adv-x="513" 
d="M47 133q0 35 13 63t32 45.5t49.5 30.5t55.5 19t60 9.5t54 4t46 0.5h33v17q0 149 -137 149q-39 0 -74.5 -12t-52.5 -24l-16 -12l-24 34q7 6 20 15t57 24.5t92 15.5q87 0 132 -48t45 -141v-323h-42v66l4 45h-2q1 0 -5 -12.5t-19 -30.5t-32.5 -36.5t-51 -31t-67.5 -12.5
q-68 0 -119 37.5t-51 107.5zM91 136q0 -43 34 -76t94 -33q77 0 124 65.5t47 146.5v27h-32q-31 0 -50.5 -0.5t-56 -4t-60 -12t-49 -22t-38.5 -37t-13 -54.5zM149 589l80 111h52l80 -111h-49l-56 80h-2l-56 -80h-49z" />
    <glyph glyph-name="atilde" unicode="&#xe3;" horiz-adv-x="513" 
d="M47 133q0 35 13 63t32 45.5t49.5 30.5t55.5 19t60 9.5t54 4t46 0.5h33v17q0 149 -137 149q-39 0 -74.5 -12t-52.5 -24l-16 -12l-24 34q7 6 20 15t57 24.5t92 15.5q87 0 132 -48t45 -141v-323h-42v66l4 45h-2q1 0 -5 -12.5t-19 -30.5t-32.5 -36.5t-51 -31t-67.5 -12.5
q-68 0 -119 37.5t-51 107.5zM91 136q0 -43 34 -76t94 -33q77 0 124 65.5t47 146.5v27h-32q-31 0 -50.5 -0.5t-56 -4t-60 -12t-49 -22t-38.5 -37t-13 -54.5zM111 592q0 108 83 108q23 0 41.5 -11.5t29 -25.5t25.5 -25.5t30 -11.5q40 0 40 71h40q0 -108 -83 -108
q-23 0 -41.5 11.5t-29 25.5t-25.5 25.5t-30 11.5q-40 0 -40 -71h-40z" />
    <glyph glyph-name="adieresis" unicode="&#xe4;" horiz-adv-x="513" 
d="M47 133q0 35 13 63t32 45.5t49.5 30.5t55.5 19t60 9.5t54 4t46 0.5h33v17q0 149 -137 149q-39 0 -74.5 -12t-52.5 -24l-16 -12l-24 34q7 6 20 15t57 24.5t92 15.5q87 0 132 -48t45 -141v-323h-42v66l4 45h-2q1 0 -5 -12.5t-19 -30.5t-32.5 -36.5t-51 -31t-67.5 -12.5
q-68 0 -119 37.5t-51 107.5zM91 136q0 -43 34 -76t94 -33q77 0 124 65.5t47 146.5v27h-32q-31 0 -50.5 -0.5t-56 -4t-60 -12t-49 -22t-38.5 -37t-13 -54.5zM301 627v73h46v-73h-46zM164 627v73h46v-73h-46z" />
    <glyph glyph-name="aring" unicode="&#xe5;" horiz-adv-x="513" 
d="M47 133q0 35 13 63t32 45.5t49.5 30.5t55.5 19t60 9.5t54 4t46 0.5h33v17q0 149 -137 149q-39 0 -74.5 -12t-52.5 -24l-16 -12l-24 34q7 6 20 15t57 24.5t92 15.5q87 0 132 -48t45 -141v-323h-42v66l4 45h-2q1 0 -5 -12.5t-19 -30.5t-32.5 -36.5t-51 -31t-67.5 -12.5
q-68 0 -119 37.5t-51 107.5zM91 136q0 -43 34 -76t94 -33q77 0 124 65.5t47 146.5v27h-32q-31 0 -50.5 -0.5t-56 -4t-60 -12t-49 -22t-38.5 -37t-13 -54.5zM255 579q-29 0 -48 19.5t-19 47.5t19 47.5t48 19.5t48 -19.5t19 -47.5t-19 -47.5t-48 -19.5zM255 614q14 0 23 9
t9 23q0 15 -9 24t-23 9t-23 -9t-9 -24q0 -14 9 -23t23 -9z" />
    <glyph glyph-name="ae" unicode="&#xe6;" horiz-adv-x="878" 
d="M48 133q0 34 11 61t27.5 44t43.5 29.5t50.5 18.5t58.5 9.5t56.5 4t54.5 0.5h40v22q0 149 -141 149q-37 0 -72 -12t-51 -24l-16 -12l-24 34q7 6 19.5 15t55.5 24.5t90 15.5q144 0 172 -117h2q30 58 81.5 87.5t116.5 29.5q96 0 149 -64t53 -159l-2 -28h-391
q0 -110 56.5 -171t147.5 -61q43 0 81.5 15.5t56.5 31.5l17 16l23 -35q-8 -8 -22.5 -19.5t-61 -30.5t-94.5 -19q-78 0 -138 40.5t-87 112.5h-2q-3 -15 -13.5 -36t-31 -49.5t-58.5 -48t-86 -19.5q-73 0 -122.5 38t-49.5 107zM436 300h345q-4 86 -50 129t-111 43
q-72 0 -122 -44t-62 -128zM92 136q0 -45 34 -77t94 -32q77 0 123.5 65.5t46.5 146.5v22h-69q-34 0 -59.5 -1.5t-60 -8.5t-56 -19.5t-37.5 -37t-16 -58.5z" />
    <glyph glyph-name="ccedilla" unicode="&#xe7;" horiz-adv-x="552" 
d="M54 249q0 116 75.5 189.5t182.5 73.5q53 0 97.5 -18t62.5 -36l19 -17l-26 -34q-6 7 -18.5 17.5t-52 28.5t-82.5 18q-90 0 -152 -61.5t-62 -160.5q0 -98 62 -159t152 -61q49 0 90.5 18t59.5 36l17 18l22 -35l-8 -8t-22.5 -18.5t-37 -23.5t-51 -18.5t-65.5 -9.5l-9 -48
q31 -5 50 -23t19 -45q0 -39 -26 -57.5t-65 -18.5l-44 4v38q18 -5 41 -5q54 0 54 37q0 38 -61 38l-12 -1l18 83q-99 10 -163.5 80.5t-64.5 178.5z" />
    <glyph glyph-name="egrave" unicode="&#xe8;" horiz-adv-x="553" 
d="M53 249q0 122 71 192.5t172 70.5q97 0 150.5 -65.5t53.5 -162.5l-2 -27h-401q0 -105 61.5 -166.5t152.5 -61.5q43 0 81.5 15.5t55.5 31.5l18 16l23 -35q-8 -8 -22.5 -19.5t-61 -30.5t-94.5 -19q-109 0 -183.5 72.5t-74.5 188.5zM100 296h356q-4 87 -49 132t-112 45
q-73 0 -127.5 -46.5t-67.5 -130.5zM277 589l-79 111h56l67 -111h-44z" />
    <glyph glyph-name="eacute" unicode="&#xe9;" horiz-adv-x="553" 
d="M53 249q0 122 71 192.5t172 70.5q97 0 150.5 -65.5t53.5 -162.5l-2 -27h-401q0 -105 61.5 -166.5t152.5 -61.5q43 0 81.5 15.5t55.5 31.5l18 16l23 -35q-8 -8 -22.5 -19.5t-61 -30.5t-94.5 -19q-109 0 -183.5 72.5t-74.5 188.5zM100 296h356q-4 87 -49 132t-112 45
q-73 0 -127.5 -46.5t-67.5 -130.5zM275 589l67 111h56l-79 -111h-44z" />
    <glyph glyph-name="ecircumflex" unicode="&#xea;" horiz-adv-x="553" 
d="M53 249q0 122 71 192.5t172 70.5q97 0 150.5 -65.5t53.5 -162.5l-2 -27h-401q0 -105 61.5 -166.5t152.5 -61.5q43 0 81.5 15.5t55.5 31.5l18 16l23 -35q-8 -8 -22.5 -19.5t-61 -30.5t-94.5 -19q-109 0 -183.5 72.5t-74.5 188.5zM100 296h356q-4 87 -49 132t-112 45
q-73 0 -127.5 -46.5t-67.5 -130.5zM192 589l80 111h52l80 -111h-49l-56 80h-2l-56 -80h-49z" />
    <glyph glyph-name="edieresis" unicode="&#xeb;" horiz-adv-x="553" 
d="M53 249q0 122 71 192.5t172 70.5q97 0 150.5 -65.5t53.5 -162.5l-2 -27h-401q0 -105 61.5 -166.5t152.5 -61.5q43 0 81.5 15.5t55.5 31.5l18 16l23 -35q-8 -8 -22.5 -19.5t-61 -30.5t-94.5 -19q-109 0 -183.5 72.5t-74.5 188.5zM100 296h356q-4 87 -49 132t-112 45
q-73 0 -127.5 -46.5t-67.5 -130.5zM344 627v73h46v-73h-46zM207 627v73h46v-73h-46z" />
    <glyph glyph-name="igrave" unicode="&#xec;" horiz-adv-x="218" 
d="M88 0v500h42v-500h-42zM88 589l-79 111h56l67 -111h-44z" />
    <glyph glyph-name="iacute" unicode="&#xed;" horiz-adv-x="218" 
d="M88 0v500h42v-500h-42zM87 589l67 111h56l-79 -111h-44z" />
    <glyph glyph-name="icircumflex" unicode="&#xee;" horiz-adv-x="218" 
d="M88 0v500h42v-500h-42zM4 589l80 111h52l80 -111h-49l-56 80h-2l-56 -80h-49z" />
    <glyph glyph-name="idieresis" unicode="&#xef;" horiz-adv-x="218" 
d="M88 0v500h42v-500h-42zM156 627v73h46v-73h-46zM19 627v73h46v-73h-46z" />
    <glyph glyph-name="eth" unicode="&#xf0;" horiz-adv-x="589" 
d="M55 230q0 97 63.5 167.5t177.5 70.5q49 0 89.5 -16.5t56.5 -33.5l16 -16h2q-36 113 -137 183l-172 -80l-17 37l146 68q-66 35 -153 57l12 38q114 -29 188 -74l123 58l17 -37l-101 -47q156 -119 156 -335q0 -52 -14.5 -100.5t-43 -90t-76.5 -66.5t-108 -25
q-103 0 -164 72.5t-61 169.5zM99 230q0 -81 50 -141.5t133 -60.5q65 0 111 37.5t65.5 89t19.5 108.5q0 72 -50.5 118.5t-132.5 46.5q-94 0 -145 -58.5t-51 -139.5z" />
    <glyph glyph-name="ntilde" unicode="&#xf1;" horiz-adv-x="586" 
d="M88 0v500h42v-88l-4 -41h2q17 48 73 94.5t139 46.5q92 0 128.5 -49.5t36.5 -145.5v-317h-42v302q0 30 -2 51.5t-9 45t-20 38.5t-36.5 24.5t-55.5 9.5q-70 0 -126.5 -44.5t-75.5 -114.5q-8 -28 -8 -68v-244h-42zM164 592q0 108 83 108q23 0 41.5 -11.5t29 -25.5
t25.5 -25.5t30 -11.5q40 0 40 71h40q0 -108 -83 -108q-23 0 -41.5 11.5t-29 25.5t-25.5 25.5t-30 11.5q-40 0 -40 -71h-40z" />
    <glyph glyph-name="ograve" unicode="&#xf2;" horiz-adv-x="620" 
d="M51 253q0 109 75.5 184t183.5 75t183.5 -75t75.5 -184q0 -111 -75.5 -188t-183.5 -77t-183.5 77t-75.5 188zM95 253q0 -95 62.5 -159.5t152.5 -64.5t152.5 64.5t62.5 159.5q0 92 -62.5 155t-152.5 63t-152.5 -63t-62.5 -155zM288 589l-79 111h56l67 -111h-44z" />
    <glyph glyph-name="oacute" unicode="&#xf3;" horiz-adv-x="620" 
d="M51 253q0 109 75.5 184t183.5 75t183.5 -75t75.5 -184q0 -111 -75.5 -188t-183.5 -77t-183.5 77t-75.5 188zM95 253q0 -95 62.5 -159.5t152.5 -64.5t152.5 64.5t62.5 159.5q0 92 -62.5 155t-152.5 63t-152.5 -63t-62.5 -155zM287 589l67 111h56l-79 -111h-44z" />
    <glyph glyph-name="ocircumflex" unicode="&#xf4;" horiz-adv-x="620" 
d="M51 253q0 109 75.5 184t183.5 75t183.5 -75t75.5 -184q0 -111 -75.5 -188t-183.5 -77t-183.5 77t-75.5 188zM95 253q0 -95 62.5 -159.5t152.5 -64.5t152.5 64.5t62.5 159.5q0 92 -62.5 155t-152.5 63t-152.5 -63t-62.5 -155zM204 589l80 111h52l80 -111h-49l-56 80h-2
l-56 -80h-49z" />
    <glyph glyph-name="otilde" unicode="&#xf5;" horiz-adv-x="620" 
d="M51 253q0 109 75.5 184t183.5 75t183.5 -75t75.5 -184q0 -111 -75.5 -188t-183.5 -77t-183.5 77t-75.5 188zM95 253q0 -95 62.5 -159.5t152.5 -64.5t152.5 64.5t62.5 159.5q0 92 -62.5 155t-152.5 63t-152.5 -63t-62.5 -155zM166 592q0 108 83 108q23 0 41.5 -11.5
t29 -25.5t25.5 -25.5t30 -11.5q40 0 40 71h40q0 -108 -83 -108q-23 0 -41.5 11.5t-29 25.5t-25.5 25.5t-30 11.5q-40 0 -40 -71h-40z" />
    <glyph glyph-name="odieresis" unicode="&#xf6;" horiz-adv-x="620" 
d="M51 253q0 109 75.5 184t183.5 75t183.5 -75t75.5 -184q0 -111 -75.5 -188t-183.5 -77t-183.5 77t-75.5 188zM95 253q0 -95 62.5 -159.5t152.5 -64.5t152.5 64.5t62.5 159.5q0 92 -62.5 155t-152.5 63t-152.5 -63t-62.5 -155zM356 627v73h46v-73h-46zM219 627v73h46v-73
h-46z" />
    <glyph glyph-name="divide" unicode="&#xf7;" horiz-adv-x="662" 
d="M302 431v59h57v-59h-57zM93 263v40h476v-40h-476zM302 76v59h57v-59h-57z" />
    <glyph glyph-name="oslash" unicode="&#xf8;" horiz-adv-x="622" 
d="M52 253q0 109 75.5 184t183.5 75q76 0 138 -39l38 53l34 -26l-38 -53q87 -77 87 -194q0 -111 -75.5 -188t-183.5 -77q-72 0 -130 35l-37 -52l-34 26l36 51q-94 78 -94 205zM96 253q0 -104 74 -171l255 357q-53 32 -114 32q-90 0 -152.5 -63t-62.5 -155zM526 253
q0 96 -68 159l-253 -355q48 -28 106 -28q90 0 152.5 64.5t62.5 159.5z" />
    <glyph glyph-name="ugrave" unicode="&#xf9;" horiz-adv-x="581" 
d="M81 183v317h42v-302q0 -30 2 -51.5t9 -45t20 -38.5t36.5 -24.5t55.5 -9.5q90 0 147.5 67.5t57.5 159.5v244h42v-500h-42v88l4 41h-2q-17 -48 -72 -94.5t-135 -46.5q-89 0 -127 48t-38 147zM266 589l-79 111h56l67 -111h-44z" />
    <glyph glyph-name="uacute" unicode="&#xfa;" horiz-adv-x="581" 
d="M81 183v317h42v-302q0 -30 2 -51.5t9 -45t20 -38.5t36.5 -24.5t55.5 -9.5q90 0 147.5 67.5t57.5 159.5v244h42v-500h-42v88l4 41h-2q-17 -48 -72 -94.5t-135 -46.5q-89 0 -127 48t-38 147zM264 589l67 111h56l-79 -111h-44z" />
    <glyph glyph-name="ucircumflex" unicode="&#xfb;" horiz-adv-x="581" 
d="M81 183v317h42v-302q0 -30 2 -51.5t9 -45t20 -38.5t36.5 -24.5t55.5 -9.5q90 0 147.5 67.5t57.5 159.5v244h42v-500h-42v88l4 41h-2q-17 -48 -72 -94.5t-135 -46.5q-89 0 -127 48t-38 147zM181 589l80 111h52l80 -111h-49l-56 80h-2l-56 -80h-49z" />
    <glyph glyph-name="udieresis" unicode="&#xfc;" horiz-adv-x="581" 
d="M81 183v317h42v-302q0 -30 2 -51.5t9 -45t20 -38.5t36.5 -24.5t55.5 -9.5q90 0 147.5 67.5t57.5 159.5v244h42v-500h-42v88l4 41h-2q-17 -48 -72 -94.5t-135 -46.5q-89 0 -127 48t-38 147zM333 627v73h46v-73h-46zM196 627v73h46v-73h-46z" />
    <glyph glyph-name="yacute" unicode="&#xfd;" horiz-adv-x="489" 
d="M8 -182l19 36q28 -24 62 -24q60 0 98 90l36 83l-207 497h45l165 -399l18 -47h2q7 23 17 47l165 399h45l-257 -617q-39 -93 -127 -93q-21 0 -41.5 7t-29.5 14zM222 589l67 111h56l-79 -111h-44z" />
    <glyph glyph-name="thorn" unicode="&#xfe;" horiz-adv-x="579" 
d="M88 -200v900h42v-255l-1 -40h2q2 4 5.5 11.5t17.5 26t32 32.5t51 25.5t72 11.5q99 0 157.5 -72t58.5 -190t-62 -190t-160 -72q-36 0 -67.5 11t-50 27t-32 32t-18.5 27l-5 11h-2q2 -18 2 -44v-252h-42zM129 249q0 -89 47 -155t127 -66q76 0 127 60t51 162
q0 100 -48.5 160.5t-125.5 60.5q-76 0 -127 -55.5t-51 -166.5z" />
    <glyph glyph-name="ydieresis" unicode="&#xff;" horiz-adv-x="489" 
d="M8 -182l19 36q28 -24 62 -24q60 0 98 90l36 83l-207 497h45l165 -399l18 -47h2q7 23 17 47l165 399h45l-257 -617q-39 -93 -127 -93q-21 0 -41.5 7t-29.5 14zM291 627v73h46v-73h-46zM154 627v73h46v-73h-46z" />
    <glyph glyph-name="Amacron" unicode="&#x100;" horiz-adv-x="606" 
d="M542 0l-91 242h-297l-90 -242h-46l262 700h46l262 -700h-46zM304 650h-2q-15 -54 -26 -84l-107 -284h267l-106 284zM184 786v40h239v-40h-239z" />
    <glyph glyph-name="amacron" unicode="&#x101;" horiz-adv-x="513" 
d="M47 133q0 35 13 63t32 45.5t49.5 30.5t55.5 19t60 9.5t54 4t46 0.5h33v17q0 149 -137 149q-39 0 -74.5 -12t-52.5 -24l-16 -12l-24 34q7 6 20 15t57 24.5t92 15.5q87 0 132 -48t45 -141v-323h-42v66l4 45h-2q1 0 -5 -12.5t-19 -30.5t-32.5 -36.5t-51 -31t-67.5 -12.5
q-68 0 -119 37.5t-51 107.5zM91 136q0 -43 34 -76t94 -33q77 0 124 65.5t47 146.5v27h-32q-31 0 -50.5 -0.5t-56 -4t-60 -12t-49 -22t-38.5 -37t-13 -54.5zM136 625v40h239v-40h-239z" />
    <glyph glyph-name="Abreve" unicode="&#x102;" horiz-adv-x="606" 
d="M542 0l-91 242h-297l-90 -242h-46l262 700h46l262 -700h-46zM304 650h-2q-15 -54 -26 -84l-107 -284h267l-106 284zM303 747q-41 0 -71 25.5t-30 72.5v16h40v-14q0 -31 17 -46.5t44 -15.5q26 0 43.5 15.5t17.5 47.5v13h40v-16q0 -47 -30 -72.5t-71 -25.5z" />
    <glyph glyph-name="abreve" unicode="&#x103;" horiz-adv-x="513" 
d="M47 133q0 35 13 63t32 45.5t49.5 30.5t55.5 19t60 9.5t54 4t46 0.5h33v17q0 149 -137 149q-39 0 -74.5 -12t-52.5 -24l-16 -12l-24 34q7 6 20 15t57 24.5t92 15.5q87 0 132 -48t45 -141v-323h-42v66l4 45h-2q1 0 -5 -12.5t-19 -30.5t-32.5 -36.5t-51 -31t-67.5 -12.5
q-68 0 -119 37.5t-51 107.5zM91 136q0 -43 34 -76t94 -33q77 0 124 65.5t47 146.5v27h-32q-31 0 -50.5 -0.5t-56 -4t-60 -12t-49 -22t-38.5 -37t-13 -54.5zM255 586q-41 0 -71 25.5t-30 72.5v16h40v-14q0 -31 17 -46.5t44 -15.5q26 0 43.5 15.5t17.5 47.5v13h40v-16
q0 -47 -30 -72.5t-71 -25.5z" />
    <glyph glyph-name="Aogonek" unicode="&#x104;" horiz-adv-x="606" 
d="M463 -113q0 27 16 53.5t31.5 40.5t29.5 23l-89 238h-297l-90 -242h-46l262 700h46l262 -700q-80 -59 -80 -109q0 -22 17 -36t34 -17l17 -3l-9 -39q-4 0 -11 1t-25 6.5t-32 14.5t-25 27t-11 42zM304 650h-2q-15 -54 -26 -84l-107 -284h267l-106 284z" />
    <glyph glyph-name="aogonek" unicode="&#x105;" horiz-adv-x="513" 
d="M47 133q0 35 13 63t32 45.5t49.5 30.5t55.5 19t60 9.5t54 4t46 0.5h33v17q0 149 -137 149q-39 0 -74.5 -12t-52.5 -24l-16 -12l-24 34q7 6 20 15t57 24.5t92 15.5q87 0 132 -48t45 -141v-323q-80 -59 -80 -109q0 -22 17 -36t34 -17l17 -3l-9 -39q-4 0 -11 1t-25 6.5
t-32 14.5t-25 27t-11 42q0 31 21 61t37.5 43t24.5 17v53l2 45h-2q1 0 -4.5 -12t-18.5 -29.5t-32 -35t-50.5 -29.5t-67.5 -12q-68 0 -119 37.5t-51 107.5zM91 136q0 -43 34 -76t94 -33q77 0 124 65.5t47 146.5v27h-32q-31 0 -50.5 -0.5t-56 -4t-60 -12t-49 -22t-38.5 -37
t-13 -54.5z" />
    <glyph glyph-name="Cacute" unicode="&#x106;" horiz-adv-x="734" 
d="M61 355q0 152 99.5 254.5t247.5 102.5q46 0 89 -9t71 -22t49.5 -26t30.5 -22l10 -9l-26 -32q-3 3 -9.5 8.5t-28.5 19t-46 24t-62 19t-77 8.5q-129 0 -216 -90.5t-87 -225.5q0 -137 87.5 -231.5t218.5 -94.5q42 0 82 10t67 23.5t47.5 27.5t30.5 24l10 10l27 -30
l-11.5 -11.5t-32.5 -25.5t-53.5 -32t-73.5 -25.5t-93 -11.5q-151 0 -251 106.5t-100 260.5zM380 750l67 111h56l-79 -111h-44z" />
    <glyph glyph-name="cacute" unicode="&#x107;" horiz-adv-x="551" 
d="M53 249q0 116 75.5 189.5t182.5 73.5q53 0 97.5 -18t63.5 -36l18 -17l-26 -34q-6 7 -18.5 17.5t-52 28.5t-82.5 18q-90 0 -152 -61.5t-62 -160.5q0 -98 62 -159t152 -61q49 0 90.5 18t58.5 36l18 18l22 -35q-3 -3 -8 -8.5t-23 -19t-38 -23.5t-52.5 -18.5t-67.5 -8.5
q-109 0 -183.5 72.5t-74.5 188.5zM270 589l67 111h56l-79 -111h-44z" />
    <glyph glyph-name="Ccircumflex" unicode="&#x108;" horiz-adv-x="734" 
d="M61 355q0 152 99.5 254.5t247.5 102.5q46 0 89 -9t71 -22t49.5 -26t30.5 -22l10 -9l-26 -32q-3 3 -9.5 8.5t-28.5 19t-46 24t-62 19t-77 8.5q-129 0 -216 -90.5t-87 -225.5q0 -137 87.5 -231.5t218.5 -94.5q42 0 82 10t67 23.5t47.5 27.5t30.5 24l10 10l27 -30
l-11.5 -11.5t-32.5 -25.5t-53.5 -32t-73.5 -25.5t-93 -11.5q-151 0 -251 106.5t-100 260.5zM297 750l80 111h52l80 -111h-49l-56 80h-2l-56 -80h-49z" />
    <glyph glyph-name="ccircumflex" unicode="&#x109;" horiz-adv-x="551" 
d="M53 249q0 116 75.5 189.5t182.5 73.5q53 0 97.5 -18t63.5 -36l18 -17l-26 -34q-6 7 -18.5 17.5t-52 28.5t-82.5 18q-90 0 -152 -61.5t-62 -160.5q0 -98 62 -159t152 -61q49 0 90.5 18t58.5 36l18 18l22 -35q-3 -3 -8 -8.5t-23 -19t-38 -23.5t-52.5 -18.5t-67.5 -8.5
q-109 0 -183.5 72.5t-74.5 188.5zM187 589l80 111h52l80 -111h-49l-56 80h-2l-56 -80h-49z" />
    <glyph glyph-name="Cdotaccent" unicode="&#x10a;" horiz-adv-x="734" 
d="M61 355q0 152 99.5 254.5t247.5 102.5q46 0 89 -9t71 -22t49.5 -26t30.5 -22l10 -9l-26 -32q-3 3 -9.5 8.5t-28.5 19t-46 24t-62 19t-77 8.5q-129 0 -216 -90.5t-87 -225.5q0 -137 87.5 -231.5t218.5 -94.5q42 0 82 10t67 23.5t47.5 27.5t30.5 24l10 10l27 -30
l-11.5 -11.5t-32.5 -25.5t-53.5 -32t-73.5 -25.5t-93 -11.5q-151 0 -251 106.5t-100 260.5zM380 788v73h46v-73h-46z" />
    <glyph glyph-name="cdotaccent" unicode="&#x10b;" horiz-adv-x="551" 
d="M53 249q0 116 75.5 189.5t182.5 73.5q53 0 97.5 -18t63.5 -36l18 -17l-26 -34q-6 7 -18.5 17.5t-52 28.5t-82.5 18q-90 0 -152 -61.5t-62 -160.5q0 -98 62 -159t152 -61q49 0 90.5 18t58.5 36l18 18l22 -35q-3 -3 -8 -8.5t-23 -19t-38 -23.5t-52.5 -18.5t-67.5 -8.5
q-109 0 -183.5 72.5t-74.5 188.5zM270 627v73h46v-73h-46z" />
    <glyph glyph-name="Ccaron" unicode="&#x10c;" horiz-adv-x="734" 
d="M61 355q0 152 99.5 254.5t247.5 102.5q46 0 89 -9t71 -22t49.5 -26t30.5 -22l10 -9l-26 -32q-3 3 -9.5 8.5t-28.5 19t-46 24t-62 19t-77 8.5q-129 0 -216 -90.5t-87 -225.5q0 -137 87.5 -231.5t218.5 -94.5q42 0 82 10t67 23.5t47.5 27.5t30.5 24l10 10l27 -30
l-11.5 -11.5t-32.5 -25.5t-53.5 -32t-73.5 -25.5t-93 -11.5q-151 0 -251 106.5t-100 260.5zM377 750l-80 111h49l56 -80h2l56 80h49l-80 -111h-52z" />
    <glyph glyph-name="ccaron" unicode="&#x10d;" horiz-adv-x="551" 
d="M53 249q0 116 75.5 189.5t182.5 73.5q53 0 97.5 -18t63.5 -36l18 -17l-26 -34q-6 7 -18.5 17.5t-52 28.5t-82.5 18q-90 0 -152 -61.5t-62 -160.5q0 -98 62 -159t152 -61q49 0 90.5 18t58.5 36l18 18l22 -35q-3 -3 -8 -8.5t-23 -19t-38 -23.5t-52.5 -18.5t-67.5 -8.5
q-109 0 -183.5 72.5t-74.5 188.5zM267 589l-80 111h49l56 -80h2l56 80h49l-80 -111h-52z" />
    <glyph glyph-name="Dcaron" unicode="&#x10e;" horiz-adv-x="741" 
d="M108 0v700h220q158 0 253.5 -93t95.5 -257q0 -165 -95 -257.5t-254 -92.5h-220zM151 40h170q142 0 226.5 81t84.5 229q0 147 -84.5 228.5t-226.5 81.5h-170v-620zM316 750l-80 111h49l56 -80h2l56 80h49l-80 -111h-52z" />
    <glyph glyph-name="dcaron" unicode="&#x10f;" horiz-adv-x="610" 
d="M55 250q0 118 62.5 190t161.5 72q35 0 66 -11.5t49.5 -28t32.5 -33.5t19 -29l6 -11h2q-4 18 -4 41v260h42v-700h-42v63l4 38h-2q-2 -5 -5.5 -12.5t-18.5 -27t-33.5 -34.5t-51.5 -27t-72 -12q-99 0 -157.5 72t-58.5 190zM99 250q0 -100 48.5 -160.5t125.5 -60.5
q76 0 127 55.5t51 166.5q0 90 -45.5 155t-128.5 65q-76 0 -127 -59.5t-51 -161.5zM559 700h48q6 -25 6 -47q0 -37 -22 -87h-39q18 47 18 78q0 27 -11 56z" />
    <glyph glyph-name="Dcroat" unicode="&#x110;" horiz-adv-x="753" 
d="M60 333v40h60v327h220q158 0 253.5 -93t95.5 -257q0 -165 -95 -257.5t-254 -92.5h-220v333h-60zM163 40h170q142 0 226.5 81t84.5 229q0 147 -84.5 228.5t-226.5 81.5h-170v-287h183v-40h-183v-293z" />
    <glyph glyph-name="dcroat" unicode="&#x111;" horiz-adv-x="580" 
d="M317 569v40h133v91h42v-91h83v-40h-83v-569h-42v58l2 38h-2q-2 -4 -5.5 -11.5t-18 -26t-33 -33t-51 -26t-71.5 -11.5q-99 0 -157.5 72t-58.5 190t62.5 190t161.5 72q35 0 65.5 -11t49 -27t32 -32t18.5 -27l6 -11h2q-2 18 -2 41v124h-133zM99 250q0 -100 48.5 -160.5
t125.5 -60.5q76 0 127 55.5t51 166.5q0 90 -45.5 155.5t-128.5 65.5q-76 0 -127 -60t-51 -162z" />
    <glyph glyph-name="Emacron" unicode="&#x112;" horiz-adv-x="571" 
d="M108 0v700h383v-40h-340v-287h279v-40h-279v-293h359v-40h-402zM193 786v40h239v-40h-239z" />
    <glyph glyph-name="emacron" unicode="&#x113;" horiz-adv-x="553" 
d="M53 249q0 122 71 192.5t172 70.5q97 0 150.5 -65.5t53.5 -162.5l-2 -27h-401q0 -105 61.5 -166.5t152.5 -61.5q43 0 81.5 15.5t55.5 31.5l18 16l23 -35q-8 -8 -22.5 -19.5t-61 -30.5t-94.5 -19q-109 0 -183.5 72.5t-74.5 188.5zM100 296h356q-4 87 -49 132t-112 45
q-73 0 -127.5 -46.5t-67.5 -130.5zM179 625v40h239v-40h-239z" />
    <glyph glyph-name="Ebreve" unicode="&#x114;" horiz-adv-x="571" 
d="M108 0v700h383v-40h-340v-287h279v-40h-279v-293h359v-40h-402zM312 747q-41 0 -71 25.5t-30 72.5v16h40v-14q0 -31 17 -46.5t44 -15.5q26 0 43.5 15.5t17.5 47.5v13h40v-16q0 -47 -30 -72.5t-71 -25.5z" />
    <glyph glyph-name="ebreve" unicode="&#x115;" horiz-adv-x="553" 
d="M53 249q0 122 71 192.5t172 70.5q97 0 150.5 -65.5t53.5 -162.5l-2 -27h-401q0 -105 61.5 -166.5t152.5 -61.5q43 0 81.5 15.5t55.5 31.5l18 16l23 -35q-8 -8 -22.5 -19.5t-61 -30.5t-94.5 -19q-109 0 -183.5 72.5t-74.5 188.5zM100 296h356q-4 87 -49 132t-112 45
q-73 0 -127.5 -46.5t-67.5 -130.5zM298 586q-41 0 -71 25.5t-30 72.5v16h40v-14q0 -31 17 -46.5t44 -15.5q26 0 43.5 15.5t17.5 47.5v13h40v-16q0 -47 -30 -72.5t-71 -25.5z" />
    <glyph glyph-name="Edotaccent" unicode="&#x116;" horiz-adv-x="571" 
d="M108 0v700h383v-40h-340v-287h279v-40h-279v-293h359v-40h-402zM289 788v73h46v-73h-46z" />
    <glyph glyph-name="edotaccent" unicode="&#x117;" horiz-adv-x="553" 
d="M53 249q0 122 71 192.5t172 70.5q97 0 150.5 -65.5t53.5 -162.5l-2 -27h-401q0 -105 61.5 -166.5t152.5 -61.5q43 0 81.5 15.5t55.5 31.5l18 16l23 -35q-8 -8 -22.5 -19.5t-61 -30.5t-94.5 -19q-109 0 -183.5 72.5t-74.5 188.5zM100 296h356q-4 87 -49 132t-112 45
q-73 0 -127.5 -46.5t-67.5 -130.5zM275 627v73h46v-73h-46z" />
    <glyph glyph-name="Eogonek" unicode="&#x118;" horiz-adv-x="571" 
d="M108 0v700h383v-40h-340v-287h279v-40h-279v-293h359v-40q-80 -59 -80 -109q0 -22 17 -36t34 -17l17 -3l-9 -39q-4 0 -11 1t-25 6.5t-32 14.5t-25 27t-11 42q0 58 71 111v2h-348z" />
    <glyph glyph-name="eogonek" unicode="&#x119;" horiz-adv-x="554" 
d="M53 249q0 122 71 192.5t172 70.5q97 0 150.5 -65.5t53.5 -162.5l-2 -27h-401q0 -105 61.5 -166.5t152.5 -61.5q43 0 81.5 15.5t55.5 31.5l18 16l23 -35q-11 -10 -56 -41.5t-71.5 -61.5t-26.5 -63q0 -22 17 -36t34 -17l17 -3l-9 -39q-4 0 -11 1t-25 6.5t-32 14.5t-25 27
t-11 42q0 51 53 102v2q-15 -3 -32 -3q-109 0 -183.5 72.5t-74.5 188.5zM100 296h356q-4 87 -49 132t-112 45q-73 0 -127.5 -46.5t-67.5 -130.5z" />
    <glyph glyph-name="Ecaron" unicode="&#x11a;" horiz-adv-x="571" 
d="M108 0v700h383v-40h-340v-287h279v-40h-279v-293h359v-40h-402zM286 750l-80 111h49l56 -80h2l56 80h49l-80 -111h-52z" />
    <glyph glyph-name="ecaron" unicode="&#x11b;" horiz-adv-x="553" 
d="M53 249q0 122 71 192.5t172 70.5q97 0 150.5 -65.5t53.5 -162.5l-2 -27h-401q0 -105 61.5 -166.5t152.5 -61.5q43 0 81.5 15.5t55.5 31.5l18 16l23 -35q-8 -8 -22.5 -19.5t-61 -30.5t-94.5 -19q-109 0 -183.5 72.5t-74.5 188.5zM100 296h356q-4 87 -49 132t-112 45
q-73 0 -127.5 -46.5t-67.5 -130.5zM272 589l-80 111h49l56 -80h2l56 80h49l-80 -111h-52z" />
    <glyph glyph-name="Gcircumflex" unicode="&#x11c;" horiz-adv-x="757" 
d="M61 350q0 152 100.5 257t248.5 105q70 0 131 -20t87 -40l26 -19l-26 -33q-3 3 -9.5 7.5t-28.5 17t-45.5 22t-60 17t-74.5 7.5q-131 0 -217.5 -92t-86.5 -229t84.5 -229t213.5 -92q42 0 82 12t67.5 28.5t49 33.5t31.5 29l10 12v135h-125v40h168v-319h-43v61l1 30h-2
q-3 -4 -10 -11t-29.5 -25t-48.5 -31.5t-67 -24.5t-84 -11q-146 0 -244.5 104.5t-98.5 257.5zM293 750l80 111h52l80 -111h-49l-56 80h-2l-56 -80h-49z" />
    <glyph glyph-name="gcircumflex" unicode="&#x11d;" horiz-adv-x="573" 
d="M119 -134q62 -35 134 -35q85 0 137.5 42.5t52.5 129.5v58l4 41h-2q-50 -102 -168 -102q-98 0 -160 71t-62 187q0 117 58.5 185.5t156.5 68.5q40 0 72.5 -10t50.5 -24.5t30.5 -29t16.5 -24.5l4 -10h2q-3 7 -3 19v67h42v-497q0 -108 -65.5 -160.5t-163.5 -52.5
q-81 0 -157 39zM280 41q73 0 118.5 51.5t45.5 165.5q0 213 -174 213q-81 0 -126 -56t-45 -157q0 -100 50 -158.5t131 -58.5zM174 589l80 111h52l80 -111h-49l-56 80h-2l-56 -80h-49z" />
    <glyph glyph-name="Gbreve" unicode="&#x11e;" horiz-adv-x="757" 
d="M61 350q0 152 100.5 257t248.5 105q70 0 131 -20t87 -40l26 -19l-26 -33q-3 3 -9.5 7.5t-28.5 17t-45.5 22t-60 17t-74.5 7.5q-131 0 -217.5 -92t-86.5 -229t84.5 -229t213.5 -92q42 0 82 12t67.5 28.5t49 33.5t31.5 29l10 12v135h-125v40h168v-319h-43v61l1 30h-2
q-3 -4 -10 -11t-29.5 -25t-48.5 -31.5t-67 -24.5t-84 -11q-146 0 -244.5 104.5t-98.5 257.5zM399 747q-41 0 -71 25.5t-30 72.5v16h40v-14q0 -31 17 -46.5t44 -15.5q26 0 43.5 15.5t17.5 47.5v13h40v-16q0 -47 -30 -72.5t-71 -25.5z" />
    <glyph glyph-name="gbreve" unicode="&#x11f;" horiz-adv-x="573" 
d="M119 -134q62 -35 134 -35q85 0 137.5 42.5t52.5 129.5v58l4 41h-2q-50 -102 -168 -102q-98 0 -160 71t-62 187q0 117 58.5 185.5t156.5 68.5q40 0 72.5 -10t50.5 -24.5t30.5 -29t16.5 -24.5l4 -10h2q-3 7 -3 19v67h42v-497q0 -108 -65.5 -160.5t-163.5 -52.5
q-81 0 -157 39zM280 41q73 0 118.5 51.5t45.5 165.5q0 213 -174 213q-81 0 -126 -56t-45 -157q0 -100 50 -158.5t131 -58.5zM280 586q-41 0 -71 25.5t-30 72.5v16h40v-14q0 -31 17 -46.5t44 -15.5q26 0 43.5 15.5t17.5 47.5v13h40v-16q0 -47 -30 -72.5t-71 -25.5z" />
    <glyph glyph-name="Gdotaccent" unicode="&#x120;" horiz-adv-x="757" 
d="M61 350q0 152 100.5 257t248.5 105q70 0 131 -20t87 -40l26 -19l-26 -33q-3 3 -9.5 7.5t-28.5 17t-45.5 22t-60 17t-74.5 7.5q-131 0 -217.5 -92t-86.5 -229t84.5 -229t213.5 -92q42 0 82 12t67.5 28.5t49 33.5t31.5 29l10 12v135h-125v40h168v-319h-43v61l1 30h-2
q-3 -4 -10 -11t-29.5 -25t-48.5 -31.5t-67 -24.5t-84 -11q-146 0 -244.5 104.5t-98.5 257.5zM376 788v73h46v-73h-46z" />
    <glyph glyph-name="gdotaccent" unicode="&#x121;" horiz-adv-x="573" 
d="M119 -134q62 -35 134 -35q85 0 137.5 42.5t52.5 129.5v58l4 41h-2q-50 -102 -168 -102q-98 0 -160 71t-62 187q0 117 58.5 185.5t156.5 68.5q40 0 72.5 -10t50.5 -24.5t30.5 -29t16.5 -24.5l4 -10h2q-3 7 -3 19v67h42v-497q0 -108 -65.5 -160.5t-163.5 -52.5
q-81 0 -157 39zM280 41q73 0 118.5 51.5t45.5 165.5q0 213 -174 213q-81 0 -126 -56t-45 -157q0 -100 50 -158.5t131 -58.5zM257 627v73h46v-73h-46z" />
    <glyph glyph-name="Gcommaaccent" unicode="&#x122;" horiz-adv-x="757" 
d="M61 350q0 152 100.5 257t248.5 105q70 0 131 -20t87 -40l26 -19l-26 -33q-3 3 -9.5 7.5t-28.5 17t-45.5 22t-60 17t-74.5 7.5q-131 0 -217.5 -92t-86.5 -229t84.5 -229t213.5 -92q42 0 82 12t67.5 28.5t49 33.5t31.5 29l10 12v135h-125v40h168v-319h-43v61l1 30h-2
q-3 -4 -10 -11t-29.5 -25t-48.5 -31.5t-67 -24.5t-84 -11q-146 0 -244.5 104.5t-98.5 257.5zM380 -66h48q6 -25 6 -47q0 -37 -22 -87h-39q18 47 18 78q0 27 -11 56z" />
    <glyph glyph-name="gcommaaccent" unicode="&#x123;" horiz-adv-x="573" 
d="M119 -134q62 -35 134 -35q85 0 137.5 42.5t52.5 129.5v58l4 41h-2q-50 -102 -168 -102q-98 0 -160 71t-62 187q0 117 58.5 185.5t156.5 68.5q40 0 72.5 -10t50.5 -24.5t30.5 -29t16.5 -24.5l4 -10h2q-3 7 -3 19v67h42v-497q0 -108 -65.5 -160.5t-163.5 -52.5
q-81 0 -157 39zM280 41q73 0 118.5 51.5t45.5 165.5q0 213 -174 213q-81 0 -126 -56t-45 -157q0 -100 50 -158.5t131 -58.5zM306 566h-48q-6 26 -6 47q0 37 22 87h39q-18 -47 -18 -78q0 -27 11 -56z" />
    <glyph glyph-name="Hcircumflex" unicode="&#x124;" horiz-adv-x="746" 
d="M108 0v700h43v-329h444v329h43v-700h-43v331h-444v-331h-43zM267 750l80 111h52l80 -111h-49l-56 80h-2l-56 -80h-49z" />
    <glyph glyph-name="hcircumflex" unicode="&#x125;" horiz-adv-x="586" 
d="M88 0v700h42v-288l-4 -41h2q17 48 73 94.5t139 46.5q92 0 128.5 -49.5t36.5 -145.5v-317h-42v302q0 30 -2 51.5t-9 45t-20 38.5t-36.5 24.5t-55.5 9.5q-70 0 -126.5 -44.5t-75.5 -114.5q-8 -28 -8 -68v-244h-42zM4 750l80 111h52l80 -111h-49l-56 80h-2l-56 -80h-49z" />
    <glyph glyph-name="Hbar" unicode="&#x126;" horiz-adv-x="786" 
d="M128 0v511h-65v40h65v149h43v-149h444v149h43v-149h65v-40h-65v-511h-43v331h-444v-331h-43zM171 371h444v140h-444v-140z" />
    <glyph glyph-name="hbar" unicode="&#x127;" horiz-adv-x="586" 
d="M7 569v40h81v91h42v-91h133v-40h-133v-152l-2 -41h2q17 47 72 91.5t138 44.5q92 0 128.5 -49.5t36.5 -145.5v-317h-42v302q0 30 -2 51.5t-9 45t-20 38.5t-36.5 24.5t-55.5 9.5q-70 0 -126.5 -44.5t-75.5 -114.5q-8 -28 -8 -68v-244h-42v569h-81z" />
    <glyph glyph-name="Itilde" unicode="&#x128;" horiz-adv-x="259" 
d="M108 0v700h43v-700h-43zM-14 753q0 108 83 108q23 0 41.5 -11.5t29 -25.5t25.5 -25.5t30 -11.5q40 0 40 71h40q0 -108 -83 -108q-23 0 -41.5 11.5t-29 25.5t-25.5 25.5t-30 11.5q-40 0 -40 -71h-40z" />
    <glyph glyph-name="itilde" unicode="&#x129;" horiz-adv-x="218" 
d="M88 0v500h42v-500h-42zM-34 592q0 108 83 108q23 0 41.5 -11.5t29 -25.5t25.5 -25.5t30 -11.5q40 0 40 71h40q0 -108 -83 -108q-23 0 -41.5 11.5t-29 25.5t-25.5 25.5t-30 11.5q-40 0 -40 -71h-40z" />
    <glyph glyph-name="Imacron" unicode="&#x12a;" horiz-adv-x="259" 
d="M108 0v700h43v-700h-43zM11 786v40h239v-40h-239z" />
    <glyph glyph-name="imacron" unicode="&#x12b;" horiz-adv-x="218" 
d="M88 0v500h42v-500h-42zM-9 625v40h239v-40h-239z" />
    <glyph glyph-name="Ibreve" unicode="&#x12c;" horiz-adv-x="259" 
d="M108 0v700h43v-700h-43zM130 747q-41 0 -71 25.5t-30 72.5v16h40v-14q0 -31 17 -46.5t44 -15.5q26 0 43.5 15.5t17.5 47.5v13h40v-16q0 -47 -30 -72.5t-71 -25.5z" />
    <glyph glyph-name="ibreve" unicode="&#x12d;" horiz-adv-x="218" 
d="M88 0v500h42v-500h-42zM110 586q-41 0 -71 25.5t-30 72.5v16h40v-14q0 -31 17 -46.5t44 -15.5q26 0 43.5 15.5t17.5 47.5v13h40v-16q0 -47 -30 -72.5t-71 -25.5z" />
    <glyph glyph-name="Iogonek" unicode="&#x12e;" horiz-adv-x="259" 
d="M36 -113q0 30 17.5 59.5t31.5 42t23 18.5v693h43v-700q-70 -57 -70 -109q0 -22 17 -36t34 -17l17 -3l-9 -39q-4 0 -11 1t-25 6.5t-32 14.5t-25 27t-11 42z" />
    <glyph glyph-name="iogonek" unicode="&#x12f;" horiz-adv-x="218" 
d="M15 -113q0 31 18.5 61t32.5 42.5t22 17.5v492h42v-500q-70 -57 -70 -109q0 -22 17 -36t34 -17l17 -3l-9 -39q-4 0 -11 1t-25 6.5t-32 14.5t-25 27t-11 42zM84 627v73h50v-73h-50z" />
    <glyph glyph-name="Idotaccent" unicode="&#x130;" horiz-adv-x="259" 
d="M108 0v700h43v-700h-43zM107 788v73h46v-73h-46z" />
    <glyph glyph-name="dotlessi" unicode="&#x131;" horiz-adv-x="218" 
d="M88 0v500h42v-500h-42z" />
    <glyph glyph-name="IJ" unicode="&#x132;" horiz-adv-x="557" 
d="M260 -5v42q23 0 42.5 3.5t41 15t36.5 30.5t24.5 53t9.5 79v482h43v-482q0 -223 -197 -223zM108 0v700h43v-700h-43z" />
    <glyph glyph-name="ij" unicode="&#x133;" horiz-adv-x="433" 
d="M84 627v73h50v-73h-50zM88 0v500h42v-500h-42zM303 500h42v-520q0 -58 -17 -98t-44.5 -57.5t-50.5 -23.5t-47 -6l-25 2v39q9 -2 22 -2q19 0 36.5 5t38 18.5t33 45t12.5 76.5v521zM299 627v73h50v-73h-50z" />
    <glyph glyph-name="Jcircumflex" unicode="&#x134;" horiz-adv-x="513" 
d="M39 191v22h43v-23q0 -64 28 -105q39 -56 116 -56q60 0 102 38.5t42 122.5v470h-167v40h210v-509q0 -104 -54.5 -153.5t-132.5 -49.5t-132.5 49.5t-54.5 153.5zM202 750l80 111h52l80 -111h-49l-56 80h-2l-56 -80h-49z" />
    <glyph glyph-name="jcircumflex" unicode="&#x135;" horiz-adv-x="218" 
d="M88 500h42v-520q0 -58 -17 -98t-44.5 -57.5t-50.5 -23.5t-47 -6l-25 2v39q9 -2 22 -2q19 0 36.5 5t38 18.5t33 45t12.5 76.5v521zM-1 589l80 111h52l80 -111h-49l-56 80h-2l-56 -80h-49z" />
    <glyph glyph-name="Kcommaaccent" unicode="&#x136;" horiz-adv-x="580" 
d="M108 0v700h43v-312h130l200 312h52l-215 -330v-2l229 -368h-52l-214 348h-130v-348h-43zM277 -66h48q6 -25 6 -47q0 -37 -22 -87h-39q18 47 18 78q0 27 -11 56z" />
    <glyph glyph-name="kcommaaccent" unicode="&#x137;" horiz-adv-x="480" 
d="M88 0v700h42v-397h89l162 197h55l-181 -215v-2l198 -283h-53l-181 264h-89v-264h-42zM226 -66h48q6 -25 6 -47q0 -37 -22 -87h-39q18 47 18 78q0 27 -11 56z" />
    <glyph glyph-name="kgreenlandic" unicode="&#x138;" horiz-adv-x="483" 
d="M88 0v500h42v-213h86l173 213h57l-191 -230v-2l188 -268h-55l-172 250h-86v-250h-42z" />
    <glyph glyph-name="Lacute" unicode="&#x139;" horiz-adv-x="509" 
d="M108 0v700h43v-660h334v-40h-377zM107 750l67 111h56l-79 -111h-44z" />
    <glyph glyph-name="lacute" unicode="&#x13a;" horiz-adv-x="230" 
d="M83 101v599h42v-586q0 -78 59 -78l15 1v-39q-9 -2 -18 -2q-14 0 -28 3.5t-31.5 13.5t-28 32.5t-10.5 55.5zM83 750l67 111h56l-79 -111h-44z" />
    <glyph glyph-name="Lcommaaccent" unicode="&#x13b;" horiz-adv-x="509" 
d="M108 0v700h43v-660h334v-40h-377zM279 -66h48q6 -25 6 -47q0 -37 -22 -87h-39q18 47 18 78q0 27 -11 56z" />
    <glyph glyph-name="lcommaaccent" unicode="&#x13c;" horiz-adv-x="230" 
d="M83 101v599h42v-586q0 -78 59 -78l15 1v-39q-9 -2 -18 -2q-14 0 -28 3.5t-31.5 13.5t-28 32.5t-10.5 55.5zM112 -66h48q6 -26 6 -47q0 -37 -22 -87h-39q18 47 18 78q0 27 -11 56z" />
    <glyph glyph-name="Lcaron" unicode="&#x13d;" horiz-adv-x="509" 
d="M108 0v700h43v-660h334v-40h-377zM248 700h48q6 -25 6 -47q0 -37 -22 -87h-39q18 47 18 78q0 27 -11 56z" />
    <glyph glyph-name="lcaron" unicode="&#x13e;" horiz-adv-x="260" 
d="M83 101v599h42v-586q0 -78 59 -78l15 1v-39q-9 -2 -18 -2q-14 0 -28 3.5t-31.5 13.5t-28 32.5t-10.5 55.5zM193 700h48q6 -25 6 -47q0 -37 -22 -87h-39q18 47 18 78q0 27 -11 56z" />
    <glyph glyph-name="Ldot" unicode="&#x13f;" horiz-adv-x="509" 
d="M108 0v700h43v-660h334v-40h-377zM284 334v63h61v-63h-61z" />
    <glyph glyph-name="ldot" unicode="&#x140;" horiz-adv-x="264" 
d="M83 101v599h42v-586q0 -78 59 -78l15 1v-39q-9 -2 -18 -2q-14 0 -28 3.5t-31.5 13.5t-28 32.5t-10.5 55.5zM190 334v63h61v-63h-61z" />
    <glyph glyph-name="Lslash" unicode="&#x141;" horiz-adv-x="535" 
d="M69 333v47l65 37v283h43v-258l115 67v-48l-115 -66v-355h334v-40h-377v370z" />
    <glyph glyph-name="lslash" unicode="&#x142;" horiz-adv-x="293" 
d="M36 333v47l89 51v269h42v-244l92 53v-48l-92 -53v-294q0 -78 59 -78l15 1v-39q-9 -2 -18 -2q-14 0 -28 3.5t-31.5 13.5t-28 32.5t-10.5 55.5v283z" />
    <glyph glyph-name="Nacute" unicode="&#x143;" horiz-adv-x="752" 
d="M108 0v700h40l399 -549l57 -88h2q-5 53 -5 88v549h43v-700h-40l-399 549l-57 88h-2q5 -53 5 -88v-549h-43zM353 750l67 111h56l-79 -111h-44z" />
    <glyph glyph-name="nacute" unicode="&#x144;" horiz-adv-x="586" 
d="M88 0v500h42v-88l-4 -41h2q17 48 73 94.5t139 46.5q92 0 128.5 -49.5t36.5 -145.5v-317h-42v302q0 30 -2 51.5t-9 45t-20 38.5t-36.5 24.5t-55.5 9.5q-70 0 -126.5 -44.5t-75.5 -114.5q-8 -28 -8 -68v-244h-42zM285 589l67 111h56l-79 -111h-44z" />
    <glyph glyph-name="Ncommaaccent" unicode="&#x145;" horiz-adv-x="752" 
d="M108 0v700h40l399 -549l57 -88h2q-5 53 -5 88v549h43v-700h-40l-399 549l-57 88h-2q5 -53 5 -88v-549h-43zM351 -66h48q6 -25 6 -47q0 -37 -22 -87h-39q18 47 18 78q0 27 -11 56z" />
    <glyph glyph-name="ncommaaccent" unicode="&#x146;" horiz-adv-x="586" 
d="M88 0v500h42v-88l-4 -41h2q17 48 73 94.5t139 46.5q92 0 128.5 -49.5t36.5 -145.5v-317h-42v302q0 30 -2 51.5t-9 45t-20 38.5t-36.5 24.5t-55.5 9.5q-70 0 -126.5 -44.5t-75.5 -114.5q-8 -28 -8 -68v-244h-42zM272 -66h48q6 -25 6 -47q0 -37 -22 -87h-39q18 47 18 78
q0 27 -11 56z" />
    <glyph glyph-name="Ncaron" unicode="&#x147;" horiz-adv-x="752" 
d="M108 0v700h40l399 -549l57 -88h2q-5 53 -5 88v549h43v-700h-40l-399 549l-57 88h-2q5 -53 5 -88v-549h-43zM350 750l-80 111h49l56 -80h2l56 80h49l-80 -111h-52z" />
    <glyph glyph-name="ncaron" unicode="&#x148;" horiz-adv-x="586" 
d="M88 0v500h42v-88l-4 -41h2q17 48 73 94.5t139 46.5q92 0 128.5 -49.5t36.5 -145.5v-317h-42v302q0 30 -2 51.5t-9 45t-20 38.5t-36.5 24.5t-55.5 9.5q-70 0 -126.5 -44.5t-75.5 -114.5q-8 -28 -8 -68v-244h-42zM282 589l-80 111h49l56 -80h2l56 80h49l-80 -111h-52z" />
    <glyph glyph-name="napostrophe" unicode="&#x149;" horiz-adv-x="586" 
d="M88 0v500h42v-88l-4 -41h2q17 48 73 94.5t139 46.5q92 0 128.5 -49.5t36.5 -145.5v-317h-42v302q0 30 -2 51.5t-9 45t-20 38.5t-36.5 24.5t-55.5 9.5q-70 0 -126.5 -44.5t-75.5 -114.5q-8 -28 -8 -68v-244h-42zM32 700h48q6 -25 6 -47q0 -37 -22 -87h-39q18 47 18 78
q0 27 -11 56z" />
    <glyph glyph-name="Eng" unicode="&#x14a;" horiz-adv-x="752" 
d="M108 0v700h40l399 -549l57 -88h2q-5 53 -5 88v549h43v-702q0 -104 -54.5 -153.5t-132.5 -49.5v42q60 0 102 39.5t42 127.5l-396 545l-57 88h-2q5 -53 5 -88v-549h-43z" />
    <glyph glyph-name="eng" unicode="&#x14b;" horiz-adv-x="586" 
d="M88 0v500h42v-83l-2 -41h2q17 47 72 91.5t138 44.5q92 0 128.5 -49.5t36.5 -145.5v-342q0 -58 -17 -98t-44.5 -57.5t-50.5 -23.5t-47 -6l-25 2v39q9 -2 22 -2q19 0 36.5 5t38 18.5t33 45t12.5 76.5v328q0 30 -2 51.5t-9 45t-20 38.5t-36.5 24.5t-55.5 9.5
q-70 0 -126.5 -44.5t-75.5 -114.5q-8 -28 -8 -68v-244h-42z" />
    <glyph glyph-name="Omacron" unicode="&#x14c;" horiz-adv-x="826" 
d="M59 355q0 150 103.5 253.5t250.5 103.5t250.5 -103.5t103.5 -253.5q0 -154 -103.5 -260.5t-250.5 -106.5t-250.5 106.5t-103.5 260.5zM104 355q0 -137 90 -231.5t219 -94.5t219 94.5t90 231.5q0 134 -90 225t-219 91t-219 -91t-90 -225zM294 786v40h239v-40h-239z" />
    <glyph glyph-name="omacron" unicode="&#x14d;" horiz-adv-x="620" 
d="M51 253q0 109 75.5 184t183.5 75t183.5 -75t75.5 -184q0 -111 -75.5 -188t-183.5 -77t-183.5 77t-75.5 188zM95 253q0 -95 62.5 -159.5t152.5 -64.5t152.5 64.5t62.5 159.5q0 92 -62.5 155t-152.5 63t-152.5 -63t-62.5 -155zM191 625v40h239v-40h-239z" />
    <glyph glyph-name="Obreve" unicode="&#x14e;" horiz-adv-x="826" 
d="M59 355q0 150 103.5 253.5t250.5 103.5t250.5 -103.5t103.5 -253.5q0 -154 -103.5 -260.5t-250.5 -106.5t-250.5 106.5t-103.5 260.5zM104 355q0 -137 90 -231.5t219 -94.5t219 94.5t90 231.5q0 134 -90 225t-219 91t-219 -91t-90 -225zM413 747q-41 0 -71 25.5t-30 72.5
v16h40v-14q0 -31 17 -46.5t44 -15.5q26 0 43.5 15.5t17.5 47.5v13h40v-16q0 -47 -30 -72.5t-71 -25.5z" />
    <glyph glyph-name="obreve" unicode="&#x14f;" horiz-adv-x="620" 
d="M51 253q0 109 75.5 184t183.5 75t183.5 -75t75.5 -184q0 -111 -75.5 -188t-183.5 -77t-183.5 77t-75.5 188zM95 253q0 -95 62.5 -159.5t152.5 -64.5t152.5 64.5t62.5 159.5q0 92 -62.5 155t-152.5 63t-152.5 -63t-62.5 -155zM310 586q-41 0 -71 25.5t-30 72.5v16h40v-14
q0 -31 17 -46.5t44 -15.5q26 0 43.5 15.5t17.5 47.5v13h40v-16q0 -47 -30 -72.5t-71 -25.5z" />
    <glyph glyph-name="Ohungarumlaut" unicode="&#x150;" horiz-adv-x="826" 
d="M59 355q0 150 103.5 253.5t250.5 103.5t250.5 -103.5t103.5 -253.5q0 -154 -103.5 -260.5t-250.5 -106.5t-250.5 106.5t-103.5 260.5zM104 355q0 -137 90 -231.5t219 -94.5t219 94.5t90 231.5q0 134 -90 225t-219 91t-219 -91t-90 -225zM433 750l67 111h56l-79 -111h-44z
M318 750l62 111h50l-65 -111h-47z" />
    <glyph glyph-name="ohungarumlaut" unicode="&#x151;" horiz-adv-x="620" 
d="M51 253q0 109 75.5 184t183.5 75t183.5 -75t75.5 -184q0 -111 -75.5 -188t-183.5 -77t-183.5 77t-75.5 188zM95 253q0 -95 62.5 -159.5t152.5 -64.5t152.5 64.5t62.5 159.5q0 92 -62.5 155t-152.5 63t-152.5 -63t-62.5 -155zM330 589l67 111h56l-79 -111h-44zM215 589
l62 111h50l-65 -111h-47z" />
    <glyph glyph-name="OE" unicode="&#x152;" horiz-adv-x="947" 
d="M62 350q0 153 99 256.5t253 103.5q18 0 60 -5t56 -5h337v-40h-340v-287h279v-40h-279v-293h359v-40h-355q-13 0 -56 -5t-61 -5q-154 0 -253 103t-99 257zM107 350q0 -138 85 -228.5t222 -90.5q16 0 33.5 2t26.5 4l10 2v622q-33 8 -70 8q-137 0 -222 -91t-85 -228z" />
    <glyph glyph-name="oe" unicode="&#x153;" horiz-adv-x="1025" 
d="M52 249q0 116 75.5 189.5t182.5 73.5q77 0 140 -40t94 -109h2q29 71 88.5 110t133.5 39q97 0 150.5 -65.5t53.5 -162.5l-2 -27h-401q3 -108 64 -168t150 -60q43 0 81.5 15.5t55.5 31.5l18 16l23 -35q-8 -8 -22.5 -19.5t-61 -30.5t-94.5 -19q-79 0 -142.5 40t-93.5 110h-2
q-31 -70 -94 -110t-141 -40q-108 0 -183 72.5t-75 188.5zM572 296h356q-4 87 -49 132t-112 45q-73 0 -127.5 -46.5t-67.5 -130.5zM96 249q0 -98 62 -159t152 -61t152.5 62t62.5 163q0 96 -63 156.5t-152 60.5q-90 0 -152 -62t-62 -160z" />
    <glyph glyph-name="Racute" unicode="&#x154;" horiz-adv-x="621" 
d="M108 0v700h205q84 0 126 -21q45 -22 71 -66t26 -102q0 -74 -39 -126.5t-101 -66.5v-2q7 -8 16 -25l157 -291h-51l-166 310h-201v-310h-43zM151 350h190q68 0 109 44.5t41 116.5q0 46 -22 82t-60 53q-31 14 -98 14h-160v-310zM275 750l67 111h56l-79 -111h-44z" />
    <glyph glyph-name="racute" unicode="&#x155;" horiz-adv-x="338" 
d="M88 0v500h42v-95l-4 -41h2q20 61 62 100.5t98 39.5l29 -3v-42q-12 2 -23 2q-55 0 -93 -39.5t-56 -100.5q-15 -48 -15 -105v-216h-42zM183 589l67 111h56l-79 -111h-44z" />
    <glyph glyph-name="Rcommaaccent" unicode="&#x156;" horiz-adv-x="621" 
d="M108 0v700h205q84 0 126 -21q45 -22 71 -66t26 -102q0 -74 -39 -126.5t-101 -66.5v-2q7 -8 16 -25l157 -291h-51l-166 310h-201v-310h-43zM151 350h190q68 0 109 44.5t41 116.5q0 46 -22 82t-60 53q-31 14 -98 14h-160v-310zM293 -66h48q6 -25 6 -47q0 -37 -22 -87h-39
q18 47 18 78q0 27 -11 56z" />
    <glyph glyph-name="rcommaaccent" unicode="&#x157;" horiz-adv-x="338" 
d="M88 0v500h42v-95l-4 -41h2q20 61 62 100.5t98 39.5l29 -3v-42q-12 2 -23 2q-55 0 -93 -39.5t-56 -100.5q-15 -48 -15 -105v-216h-42zM86 -66h48q6 -26 6 -47q0 -37 -22 -87h-39q18 47 18 78q0 27 -11 56z" />
    <glyph glyph-name="Rcaron" unicode="&#x158;" horiz-adv-x="621" 
d="M108 0v700h205q84 0 126 -21q45 -22 71 -66t26 -102q0 -74 -39 -126.5t-101 -66.5v-2q7 -8 16 -25l157 -291h-51l-166 310h-201v-310h-43zM151 350h190q68 0 109 44.5t41 116.5q0 46 -22 82t-60 53q-31 14 -98 14h-160v-310zM272 750l-80 111h49l56 -80h2l56 80h49
l-80 -111h-52z" />
    <glyph glyph-name="rcaron" unicode="&#x159;" horiz-adv-x="338" 
d="M88 0v500h42v-95l-4 -41h2q20 61 62 100.5t98 39.5l29 -3v-42q-12 2 -23 2q-55 0 -93 -39.5t-56 -100.5q-15 -48 -15 -105v-216h-42zM180 589l-80 111h49l56 -80h2l56 80h49l-80 -111h-52z" />
    <glyph glyph-name="Sacute" unicode="&#x15a;" horiz-adv-x="530" 
d="M56 75l29 33l8.5 -8.5t24 -19t38.5 -23.5t52 -18.5t64 -8.5q67 0 111.5 38t44.5 100q0 40 -19.5 71t-51.5 50t-70 36t-76 34.5t-70 38.5t-51.5 55t-19.5 78q0 73 59 127t151 54q32 0 62 -6.5t50 -16t35.5 -19.5t22.5 -16l8 -7l-24 -37q-7 7 -19.5 17t-52.5 26.5t-81 16.5
q-74 0 -120 -42t-46 -96q0 -37 19.5 -65.5t51.5 -46.5t70 -34t76 -34t70 -40t51.5 -58.5t19.5 -83.5q0 -78 -55.5 -130t-147.5 -52q-39 0 -75 9t-60 22t-43 25.5t-28 21.5zM245 750l67 111h56l-79 -111h-44z" />
    <glyph glyph-name="sacute" unicode="&#x15b;" horiz-adv-x="436" 
d="M45 60l27 32q6 -7 18 -17.5t52.5 -28t84.5 -17.5q49 0 82 25t33 69q0 35 -28.5 59t-68.5 39t-80.5 32t-69 48t-28.5 76q0 64 46 99.5t114 35.5q45 0 82 -13.5t51 -26.5l15 -14l-25 -34q-5 5 -14 13t-41.5 21t-70.5 13q-47 0 -80 -22.5t-33 -68.5q0 -36 28.5 -60t69 -39.5
t80.5 -32t68.5 -48t28.5 -77.5q0 -60 -45 -97.5t-115 -37.5q-54 0 -99 18t-63 36zM201 589l67 111h56l-79 -111h-44z" />
    <glyph glyph-name="Scircumflex" unicode="&#x15c;" horiz-adv-x="530" 
d="M56 75l29 33l8.5 -8.5t24 -19t38.5 -23.5t52 -18.5t64 -8.5q67 0 111.5 38t44.5 100q0 40 -19.5 71t-51.5 50t-70 36t-76 34.5t-70 38.5t-51.5 55t-19.5 78q0 73 59 127t151 54q32 0 62 -6.5t50 -16t35.5 -19.5t22.5 -16l8 -7l-24 -37q-7 7 -19.5 17t-52.5 26.5t-81 16.5
q-74 0 -120 -42t-46 -96q0 -37 19.5 -65.5t51.5 -46.5t70 -34t76 -34t70 -40t51.5 -58.5t19.5 -83.5q0 -78 -55.5 -130t-147.5 -52q-39 0 -75 9t-60 22t-43 25.5t-28 21.5zM163 750l80 111h52l80 -111h-49l-56 80h-2l-56 -80h-49z" />
    <glyph glyph-name="scircumflex" unicode="&#x15d;" horiz-adv-x="436" 
d="M45 60l27 32q6 -7 18 -17.5t52.5 -28t84.5 -17.5q49 0 82 25t33 69q0 35 -28.5 59t-68.5 39t-80.5 32t-69 48t-28.5 76q0 64 46 99.5t114 35.5q45 0 82 -13.5t51 -26.5l15 -14l-25 -34q-5 5 -14 13t-41.5 21t-70.5 13q-47 0 -80 -22.5t-33 -68.5q0 -36 28.5 -60t69 -39.5
t80.5 -32t68.5 -48t28.5 -77.5q0 -60 -45 -97.5t-115 -37.5q-54 0 -99 18t-63 36zM119 589l80 111h52l80 -111h-49l-56 80h-2l-56 -80h-49z" />
    <glyph glyph-name="Scedilla" unicode="&#x15e;" horiz-adv-x="530" 
d="M56 75l29 33l8.5 -8.5t24 -19t38.5 -23.5t52 -18.5t64 -8.5q67 0 111.5 38t44.5 100q0 40 -19.5 71t-51.5 50t-70 36t-76 34.5t-70 38.5t-51.5 55t-19.5 78q0 73 59 127t151 54q32 0 62 -6.5t50 -16t35.5 -19.5t22.5 -16l8 -7l-24 -37q-7 7 -19.5 17t-52.5 26.5t-81 16.5
q-74 0 -120 -42t-46 -96q0 -37 19.5 -65.5t51.5 -46.5t70 -34t76 -34t70 -40t51.5 -58.5t19.5 -83.5q0 -74 -51.5 -125.5t-136.5 -55.5l-9 -49q31 -5 50 -23t19 -45q0 -39 -26 -57.5t-65 -18.5l-44 4v38q18 -5 41 -5q54 0 54 37q0 38 -61 38l-12 -1l17 82q-56 4 -104 25.5
t-69 41.5z" />
    <glyph glyph-name="scedilla" unicode="&#x15f;" horiz-adv-x="436" 
d="M45 60l27 32q6 -7 18 -17.5t52.5 -28t84.5 -17.5q49 0 82 25t33 69q0 35 -28.5 59t-68.5 39t-80.5 32t-69 48t-28.5 76q0 64 46 99.5t114 35.5q45 0 82 -13.5t51 -26.5l15 -14l-25 -34q-5 5 -14 13t-41.5 21t-70.5 13q-47 0 -80 -22.5t-33 -68.5q0 -36 28.5 -60t69 -39.5
t80.5 -32t68.5 -48t28.5 -77.5q0 -56 -41.5 -93t-105.5 -41l-9 -49q31 -5 50 -23t19 -45q0 -39 -26 -57.5t-65 -18.5l-44 4v38q18 -5 41 -5q54 0 54 37q0 38 -61 38l-12 -1l17 82q-47 4 -86.5 21.5t-55.5 33.5z" />
    <glyph glyph-name="Scaron" unicode="&#x160;" horiz-adv-x="530" 
d="M56 75l29 33l8.5 -8.5t24 -19t38.5 -23.5t52 -18.5t64 -8.5q67 0 111.5 38t44.5 100q0 40 -19.5 71t-51.5 50t-70 36t-76 34.5t-70 38.5t-51.5 55t-19.5 78q0 73 59 127t151 54q32 0 62 -6.5t50 -16t35.5 -19.5t22.5 -16l8 -7l-24 -37q-7 7 -19.5 17t-52.5 26.5t-81 16.5
q-74 0 -120 -42t-46 -96q0 -37 19.5 -65.5t51.5 -46.5t70 -34t76 -34t70 -40t51.5 -58.5t19.5 -83.5q0 -78 -55.5 -130t-147.5 -52q-39 0 -75 9t-60 22t-43 25.5t-28 21.5zM243 750l-80 111h49l56 -80h2l56 80h49l-80 -111h-52z" />
    <glyph glyph-name="scaron" unicode="&#x161;" horiz-adv-x="436" 
d="M45 60l27 32q6 -7 18 -17.5t52.5 -28t84.5 -17.5q49 0 82 25t33 69q0 35 -28.5 59t-68.5 39t-80.5 32t-69 48t-28.5 76q0 64 46 99.5t114 35.5q45 0 82 -13.5t51 -26.5l15 -14l-25 -34q-5 5 -14 13t-41.5 21t-70.5 13q-47 0 -80 -22.5t-33 -68.5q0 -36 28.5 -60t69 -39.5
t80.5 -32t68.5 -48t28.5 -77.5q0 -60 -45 -97.5t-115 -37.5q-54 0 -99 18t-63 36zM199 589l-80 111h49l56 -80h2l56 80h49l-80 -111h-52z" />
    <glyph glyph-name="Tcommaaccent" unicode="&#x162;" horiz-adv-x="581" 
d="M269 0v660h-261v40h565v-40h-261v-660h-5l-11 -60q31 -5 50 -23t19 -45q0 -39 -26 -57.5t-65 -18.5l-44 4v38q18 -5 41 -5q54 0 54 37q0 38 -61 38l-12 -1l20 93h-3z" />
    <glyph glyph-name="tcommaaccent" unicode="&#x163;" horiz-adv-x="315" 
d="M105 181v278h-66v38h66v142h42v-142h131v-38h-131v-275q0 -46 12.5 -78t32.5 -46.5t37.5 -19.5t36.5 -5l23 2v-39q-10 -2 -25 -2q-27 0 -55 7l-11 -63q31 -5 50 -23t19 -45q0 -39 -26 -57.5t-65 -18.5l-44 4v38q18 -5 41 -5q54 0 54 37q0 38 -61 38l-12 -1l24 110
q-73 43 -73 164z" />
    <glyph glyph-name="Tcaron" unicode="&#x164;" horiz-adv-x="581" 
d="M269 0v660h-261v40h565v-40h-261v-660h-43zM264 750l-80 111h49l56 -80h2l56 80h49l-80 -111h-52z" />
    <glyph glyph-name="tcaron" unicode="&#x165;" horiz-adv-x="314" 
d="M104 181v278h-66v38h66v142h42v-142h131v-38h-131v-275q0 -46 12.5 -78t32.5 -46.5t37.5 -19.5t36.5 -5l23 2v-39q-10 -2 -25 -2q-19 0 -37 3t-41 14.5t-40 30.5t-29 54.5t-12 82.5zM219 700h48q6 -25 6 -47q0 -37 -22 -87h-39q18 47 18 78q0 27 -11 56z" />
    <glyph glyph-name="Tbar" unicode="&#x166;" horiz-adv-x="604" 
d="M114 337v40h166v283h-261v40h565v-40h-261v-283h170v-40h-170v-337h-43v337h-166z" />
    <glyph glyph-name="tbar" unicode="&#x167;" horiz-adv-x="339" 
d="M48 295v40h66v124h-66v38h66v142h42v-142h131v-38h-131v-124h131v-40h-131v-111q0 -46 12.5 -78t32.5 -46.5t37.5 -19.5t36.5 -5l23 2v-39q-10 -2 -25 -2q-19 0 -37 3t-41 14.5t-40 30.5t-29 54.5t-12 82.5v114h-66z" />
    <glyph glyph-name="Utilde" unicode="&#x168;" horiz-adv-x="719" 
d="M98 240v460h43v-458q0 -98 59 -155.5t159 -57.5t159.5 57.5t59.5 157.5v456h43v-460q0 -115 -72.5 -183.5t-188.5 -68.5q-117 0 -189.5 69t-72.5 183zM215 753q0 108 83 108q23 0 41.5 -11.5t29 -25.5t25.5 -25.5t30 -11.5q40 0 40 71h40q0 -108 -83 -108
q-23 0 -41.5 11.5t-29 25.5t-25.5 25.5t-30 11.5q-40 0 -40 -71h-40z" />
    <glyph glyph-name="utilde" unicode="&#x169;" horiz-adv-x="581" 
d="M81 183v317h42v-302q0 -30 2 -51.5t9 -45t20 -38.5t36.5 -24.5t55.5 -9.5q90 0 147.5 67.5t57.5 159.5v244h42v-500h-42v88l4 41h-2q-17 -48 -72 -94.5t-135 -46.5q-89 0 -127 48t-38 147zM143 592q0 108 83 108q23 0 41.5 -11.5t29 -25.5t25.5 -25.5t30 -11.5
q40 0 40 71h40q0 -108 -83 -108q-23 0 -41.5 11.5t-29 25.5t-25.5 25.5t-30 11.5q-40 0 -40 -71h-40z" />
    <glyph glyph-name="Umacron" unicode="&#x16a;" horiz-adv-x="719" 
d="M98 240v460h43v-458q0 -98 59 -155.5t159 -57.5t159.5 57.5t59.5 157.5v456h43v-460q0 -115 -72.5 -183.5t-188.5 -68.5q-117 0 -189.5 69t-72.5 183zM240 786v40h239v-40h-239z" />
    <glyph glyph-name="umacron" unicode="&#x16b;" horiz-adv-x="581" 
d="M81 183v317h42v-302q0 -30 2 -51.5t9 -45t20 -38.5t36.5 -24.5t55.5 -9.5q90 0 147.5 67.5t57.5 159.5v244h42v-500h-42v88l4 41h-2q-17 -48 -72 -94.5t-135 -46.5q-89 0 -127 48t-38 147zM168 625v40h239v-40h-239z" />
    <glyph glyph-name="Ubreve" unicode="&#x16c;" horiz-adv-x="719" 
d="M98 240v460h43v-458q0 -98 59 -155.5t159 -57.5t159.5 57.5t59.5 157.5v456h43v-460q0 -115 -72.5 -183.5t-188.5 -68.5q-117 0 -189.5 69t-72.5 183zM359 747q-41 0 -71 25.5t-30 72.5v16h40v-14q0 -31 17 -46.5t44 -15.5q26 0 43.5 15.5t17.5 47.5v13h40v-16
q0 -47 -30 -72.5t-71 -25.5z" />
    <glyph glyph-name="ubreve" unicode="&#x16d;" horiz-adv-x="581" 
d="M81 183v317h42v-302q0 -30 2 -51.5t9 -45t20 -38.5t36.5 -24.5t55.5 -9.5q90 0 147.5 67.5t57.5 159.5v244h42v-500h-42v88l4 41h-2q-17 -48 -72 -94.5t-135 -46.5q-89 0 -127 48t-38 147zM287 586q-41 0 -71 25.5t-30 72.5v16h40v-14q0 -31 17 -46.5t44 -15.5
q26 0 43.5 15.5t17.5 47.5v13h40v-16q0 -47 -30 -72.5t-71 -25.5z" />
    <glyph glyph-name="Uring" unicode="&#x16e;" horiz-adv-x="719" 
d="M98 240v460h43v-458q0 -98 59 -155.5t159 -57.5t159.5 57.5t59.5 157.5v456h43v-460q0 -115 -72.5 -183.5t-188.5 -68.5q-117 0 -189.5 69t-72.5 183zM359 740q-29 0 -48 19t-19 48t19 48t48 19t48 -19t19 -48t-19 -48t-48 -19zM359 775q14 0 23 9t9 23q0 15 -9 24t-23 9
t-23 -9t-9 -24q0 -14 9 -23t23 -9z" />
    <glyph glyph-name="uring" unicode="&#x16f;" horiz-adv-x="581" 
d="M81 183v317h42v-302q0 -30 2 -51.5t9 -45t20 -38.5t36.5 -24.5t55.5 -9.5q90 0 147.5 67.5t57.5 159.5v244h42v-500h-42v88l4 41h-2q-17 -48 -72 -94.5t-135 -46.5q-89 0 -127 48t-38 147zM287 579q-29 0 -48 19.5t-19 47.5t19 47.5t48 19.5t48 -19.5t19 -47.5t-19 -47.5
t-48 -19.5zM287 614q14 0 23 9t9 23q0 15 -9 24t-23 9t-23 -9t-9 -24q0 -14 9 -23t23 -9z" />
    <glyph glyph-name="Uhungarumlaut" unicode="&#x170;" horiz-adv-x="719" 
d="M98 240v460h43v-458q0 -98 59 -155.5t159 -57.5t159.5 57.5t59.5 157.5v456h43v-460q0 -115 -72.5 -183.5t-188.5 -68.5q-117 0 -189.5 69t-72.5 183zM379 750l67 111h56l-79 -111h-44zM264 750l62 111h50l-65 -111h-47z" />
    <glyph glyph-name="uhungarumlaut" unicode="&#x171;" horiz-adv-x="581" 
d="M81 183v317h42v-302q0 -30 2 -51.5t9 -45t20 -38.5t36.5 -24.5t55.5 -9.5q90 0 147.5 67.5t57.5 159.5v244h42v-500h-42v88l4 41h-2q-17 -48 -72 -94.5t-135 -46.5q-89 0 -127 48t-38 147zM307 589l67 111h56l-79 -111h-44zM192 589l62 111h50l-65 -111h-47z" />
    <glyph glyph-name="Uogonek" unicode="&#x172;" horiz-adv-x="720" 
d="M334 -113q0 51 51 100v2q-16 -1 -25 -1q-117 0 -189.5 69t-72.5 183v460h43v-458q0 -98 59 -155.5t159 -57.5t159.5 57.5t59.5 157.5v456h43v-460q0 -85 -35.5 -136t-95.5 -89q-37 -23 -56 -37t-37 -38t-18 -49q0 -22 17 -36t34 -17l17 -3l-9 -39q-4 0 -11 1t-25 6.5
t-32 14.5t-25 27t-11 42z" />
    <glyph glyph-name="uogonek" unicode="&#x173;" horiz-adv-x="581" 
d="M81 183v317h42v-302q0 -30 2 -51.5t9 -45t20 -38.5t36.5 -24.5t55.5 -9.5q90 0 147.5 67.5t57.5 159.5v244h42v-500q-80 -59 -80 -109q0 -22 17 -36t34 -17l17 -3l-9 -39q-4 0 -11 1t-25 6.5t-32 14.5t-25 27t-11 42q0 31 21 61t37.5 43t24.5 17v75l2 41h-2
q-17 -47 -70.5 -91.5t-134.5 -44.5q-89 0 -127 48t-38 147z" />
    <glyph glyph-name="Wcircumflex" unicode="&#x174;" horiz-adv-x="919" 
d="M458 639h-2q-14 -66 -27 -111l-148 -528h-54l-184 700h45l148 -570l17 -75h2l3 11q2 11 7 30t9 34l160 570h48l160 -570q4 -15 9 -34t7 -30l3 -11h2q8 41 17 75l153 570h45l-189 -700h-54l-148 528l-27 111h-2zM363 750l80 111h52l80 -111h-49l-56 80h-2l-56 -80h-49z
" />
    <glyph glyph-name="wcircumflex" unicode="&#x175;" horiz-adv-x="797" 
d="M197 0l-176 500h45l136 -392l17 -54h2q9 30 17 54l137 390h47l137 -390l17 -54h2q8 29 17 54l136 392h45l-176 -500h-45l-139 388l-17 54h-2q-8 -30 -17 -54l-138 -388h-45zM292 589l80 111h52l80 -111h-49l-56 80h-2l-56 -80h-49z" />
    <glyph glyph-name="Ycircumflex" unicode="&#x176;" horiz-adv-x="556" 
d="M257 0v304l-238 396h49l166 -276l43 -79h2q22 45 43 79l166 276h49l-237 -396v-304h-43zM172 750l80 111h52l80 -111h-49l-56 80h-2l-56 -80h-49z" />
    <glyph glyph-name="ycircumflex" unicode="&#x177;" horiz-adv-x="489" 
d="M8 -182l19 36q28 -24 62 -24q60 0 98 90l36 83l-207 497h45l165 -399l18 -47h2q7 23 17 47l165 399h45l-257 -617q-39 -93 -127 -93q-21 0 -41.5 7t-29.5 14zM140 589l80 111h52l80 -111h-49l-56 80h-2l-56 -80h-49z" />
    <glyph glyph-name="Ydieresis" unicode="&#x178;" horiz-adv-x="556" 
d="M257 0v304l-238 396h49l166 -276l43 -79h2q22 45 43 79l166 276h49l-237 -396v-304h-43zM318 788v73h46v-73h-46zM181 788v73h46v-73h-46z" />
    <glyph glyph-name="Zacute" unicode="&#x179;" horiz-adv-x="586" 
d="M44 0v34l385 562l48 64v2q-16 -2 -51 -2h-361v40h464v-34l-385 -562l-48 -64v-2q16 2 51 2h385v-40h-488zM280 750l67 111h56l-79 -111h-44z" />
    <glyph glyph-name="zacute" unicode="&#x17a;" horiz-adv-x="501" 
d="M44 0v34l303 381l39 46v2q-18 -2 -51 -2h-278v39h386v-34l-304 -381l-40 -46v-2q19 2 52 2h303v-39h-410zM225 589l67 111h56l-79 -111h-44z" />
    <glyph glyph-name="Zdotaccent" unicode="&#x17b;" horiz-adv-x="586" 
d="M44 0v34l385 562l48 64v2q-16 -2 -51 -2h-361v40h464v-34l-385 -562l-48 -64v-2q16 2 51 2h385v-40h-488zM280 788v73h46v-73h-46z" />
    <glyph glyph-name="zdotaccent" unicode="&#x17c;" horiz-adv-x="501" 
d="M44 0v34l303 381l39 46v2q-18 -2 -51 -2h-278v39h386v-34l-304 -381l-40 -46v-2q19 2 52 2h303v-39h-410zM226 627v73h46v-73h-46z" />
    <glyph glyph-name="Zcaron" unicode="&#x17d;" horiz-adv-x="586" 
d="M44 0v34l385 562l48 64v2q-16 -2 -51 -2h-361v40h464v-34l-385 -562l-48 -64v-2q16 2 51 2h385v-40h-488zM277 750l-80 111h49l56 -80h2l56 80h49l-80 -111h-52z" />
    <glyph glyph-name="zcaron" unicode="&#x17e;" horiz-adv-x="501" 
d="M44 0v34l303 381l39 46v2q-18 -2 -51 -2h-278v39h386v-34l-304 -381l-40 -46v-2q19 2 52 2h303v-39h-410zM223 589l-80 111h49l56 -80h2l56 80h49l-80 -111h-52z" />
    <glyph glyph-name="longs" unicode="&#x17f;" horiz-adv-x="239" 
d="M109 0v459h-63v38h63v23q0 58 17 98t44.5 57t50 23.5t46.5 6.5l26 -2v-39q-9 2 -23 2q-19 0 -36 -5t-37.5 -18.5t-33 -45t-12.5 -76.5v-521h-42z" />
    <glyph glyph-name="florin" unicode="&#x192;" horiz-adv-x="568" 
d="M40 -57q27 -5 62 -5q14 0 28 2.5t32 11.5t31.5 24t24.5 42.5t14 64.5l26 295h-96v38h99l10 111q4 47 19 82.5t34 54.5t43.5 30.5t43 14.5t36.5 3q19 0 39 -2t31 -4l11 -1v-39q-42 7 -82 7q-19 0 -36.5 -5t-39 -18.5t-36.5 -45t-19 -76.5l-11 -112h133v-38h-136l-26 -294
q-5 -58 -25.5 -98t-49.5 -57.5t-52 -23.5t-47 -6l-61 5v39z" />
    <glyph glyph-name="Scommaaccent" unicode="&#x218;" horiz-adv-x="530" 
d="M56 75l29 33l8.5 -8.5t24 -19t38.5 -23.5t52 -18.5t64 -8.5q67 0 111.5 38t44.5 100q0 40 -19.5 71t-51.5 50t-70 36t-76 34.5t-70 38.5t-51.5 55t-19.5 78q0 73 59 127t151 54q32 0 62 -6.5t50 -16t35.5 -19.5t22.5 -16l8 -7l-24 -37q-7 7 -19.5 17t-52.5 26.5t-81 16.5
q-74 0 -120 -42t-46 -96q0 -37 19.5 -65.5t51.5 -46.5t70 -34t76 -34t70 -40t51.5 -58.5t19.5 -83.5q0 -78 -55.5 -130t-147.5 -52q-39 0 -75 9t-60 22t-43 25.5t-28 21.5zM242 -66h48q6 -25 6 -47q0 -37 -22 -87h-39q18 47 18 78q0 27 -11 56z" />
    <glyph glyph-name="scommaaccent" unicode="&#x219;" horiz-adv-x="436" 
d="M45 60l27 32q6 -7 18 -17.5t52.5 -28t84.5 -17.5q49 0 82 25t33 69q0 35 -28.5 59t-68.5 39t-80.5 32t-69 48t-28.5 76q0 64 46 99.5t114 35.5q45 0 82 -13.5t51 -26.5l15 -14l-25 -34q-5 5 -14 13t-41.5 21t-70.5 13q-47 0 -80 -22.5t-33 -68.5q0 -36 28.5 -60t69 -39.5
t80.5 -32t68.5 -48t28.5 -77.5q0 -60 -45 -97.5t-115 -37.5q-54 0 -99 18t-63 36zM199 -66h48q6 -26 6 -47q0 -37 -22 -87h-39q18 47 18 78q0 27 -11 56z" />
    <glyph glyph-name="uni021A" unicode="&#x21a;" horiz-adv-x="581" 
d="M269 0v660h-261v40h565v-40h-261v-660h-43zM267 -66h48q6 -25 6 -47q0 -37 -22 -87h-39q18 47 18 78q0 27 -11 56z" />
    <glyph glyph-name="uni021B" unicode="&#x21b;" horiz-adv-x="314" 
d="M104 181v278h-66v38h66v142h42v-142h131v-38h-131v-275q0 -46 12.5 -78t32.5 -46.5t37.5 -19.5t36.5 -5l23 2v-39q-10 -2 -25 -2q-19 0 -37 3t-41 14.5t-40 30.5t-29 54.5t-12 82.5zM184 -66h48q6 -26 6 -47q0 -37 -22 -87h-39q18 47 18 78q0 27 -11 56z" />
    <glyph glyph-name="circumflex" unicode="&#x2c6;" horiz-adv-x="508" 
d="M148 750l80 111h52l80 -111h-49l-56 80h-2l-56 -80h-49z" />
    <glyph glyph-name="caron" unicode="&#x2c7;" horiz-adv-x="508" 
d="M228 750l-80 111h49l56 -80h2l56 80h49l-80 -111h-52z" />
    <glyph glyph-name="breve" unicode="&#x2d8;" horiz-adv-x="510" 
d="M255 747q-41 0 -71 25.5t-30 72.5v16h40v-14q0 -31 17 -46.5t44 -15.5q26 0 43.5 15.5t17.5 47.5v13h40v-16q0 -47 -30 -72.5t-71 -25.5z" />
    <glyph glyph-name="dotaccent" unicode="&#x2d9;" horiz-adv-x="510" 
d="M232 788v73h46v-73h-46z" />
    <glyph glyph-name="ring" unicode="&#x2da;" horiz-adv-x="510" 
d="M255 740q-29 0 -48 19t-19 48t19 48t48 19t48 -19t19 -48t-19 -48t-48 -19zM255 775q14 0 23 9t9 23q0 15 -9 24t-23 9t-23 -9t-9 -24q0 -14 9 -23t23 -9z" />
    <glyph glyph-name="ogonek" unicode="&#x2db;" horiz-adv-x="509" 
d="M187 -113q0 22 10 44t24 37.5t28 27.5t24 18l10 6l39 -13q-10 -7 -25 -18t-40 -41.5t-25 -56.5q0 -22 17 -36t34 -17l17 -3l-9 -39q-4 0 -11 1t-25 6.5t-32 14.5t-25 27t-11 42z" />
    <glyph glyph-name="tilde" unicode="&#x2dc;" horiz-adv-x="509" 
d="M110 753q0 108 83 108q23 0 41.5 -11.5t29 -25.5t25.5 -25.5t30 -11.5q40 0 40 71h40q0 -108 -83 -108q-23 0 -41.5 11.5t-29 25.5t-25.5 25.5t-30 11.5q-40 0 -40 -71h-40z" />
    <glyph glyph-name="hungarumlaut" unicode="&#x2dd;" horiz-adv-x="509" 
d="M251 750l67 111h56l-79 -111h-44zM136 750l62 111h50l-65 -111h-47z" />
    <glyph glyph-name="uni1E9E" unicode="&#x1e9e;" horiz-adv-x="663" 
d="M100 0v525q0 73 51 124t124 51h299v-30l-173 -242l-27 -36v-2h36q80 0 136.5 -57t56.5 -137q0 -81 -56.5 -138.5t-136.5 -57.5h-171v40h169q64 0 107 45.5t43 110.5q0 64 -42.5 109t-105.5 45h-93v32l156 220l44 58v2q-6 -2 -42 -2h-194q-60 0 -99 -39t-39 -96v-525h-43z
" />
    <glyph glyph-name="thinspace" unicode="&#x2009;" horiz-adv-x="10" 
 />
    <glyph glyph-name="endash" unicode="&#x2013;" horiz-adv-x="556" 
d="M40 263v40h476v-40h-476z" />
    <glyph glyph-name="emdash" unicode="&#x2014;" horiz-adv-x="756" 
d="M40 263v40h676v-40h-676z" />
    <glyph glyph-name="quoteleft" unicode="&#x2018;" horiz-adv-x="200" 
d="M60 557l48 151h39l-35 -151h-52z" />
    <glyph glyph-name="quoteright" unicode="&#x2019;" horiz-adv-x="197" 
d="M63 557l35 151h52l-48 -151h-39z" />
    <glyph glyph-name="quotesinglbase" unicode="&#x201a;" horiz-adv-x="235" 
d="M60 -90l35 151h52l-48 -151h-39z" />
    <glyph glyph-name="quotedblleft" unicode="&#x201c;" horiz-adv-x="300" 
d="M160 557l48 151h39l-35 -151h-52zM60 557l48 151h39l-35 -151h-52z" />
    <glyph glyph-name="quotedblright" unicode="&#x201d;" horiz-adv-x="297" 
d="M163 557l35 151h52l-48 -151h-39zM63 557l35 151h52l-48 -151h-39z" />
    <glyph glyph-name="quotedblbase" unicode="&#x201e;" horiz-adv-x="335" 
d="M160 -90l35 151h52l-48 -151h-39zM60 -90l35 151h52l-48 -151h-39z" />
    <glyph glyph-name="dagger" unicode="&#x2020;" horiz-adv-x="372" 
d="M163 -50v510h-114v40h114v200h42v-200h119v-40h-119v-510h-42z" />
    <glyph glyph-name="daggerdbl" unicode="&#x2021;" horiz-adv-x="409" 
d="M67 186v40h114v234h-114v40h114v200h42v-200h119v-40h-119v-234h119v-40h-119v-236h-42v236h-114z" />
    <glyph glyph-name="bullet" unicode="&#x2022;" horiz-adv-x="390" 
d="M195 159q-55 0 -93.5 38.5t-38.5 93.5t38.5 93.5t93.5 38.5t93.5 -38.5t38.5 -93.5t-38.5 -93.5t-93.5 -38.5z" />
    <glyph glyph-name="ellipsis" unicode="&#x2026;" horiz-adv-x="663" 
d="M88 0v63h61v-63h-61zM301 0v63h61v-63h-61zM514 0v63h61v-63h-61z" />
    <glyph glyph-name="perthousand" unicode="&#x2030;" horiz-adv-x="1017" 
d="M193 451q-54 0 -92 38t-38 92t38 92.5t92 38.5t92.5 -38.5t38.5 -92.5t-38.5 -92t-92.5 -38zM61 0l531 700h52l-531 -700h-52zM193 491q37 0 62.5 26t25.5 64t-25.5 64.5t-62.5 26.5t-62 -26.5t-25 -64.5t25 -64t62 -26zM699 118q0 54 38 92.5t92 38.5t92.5 -38.5
t38.5 -92.5t-38.5 -92t-92.5 -38t-92 38t-38 92zM379 118q0 54 38 92.5t92 38.5t92.5 -38.5t38.5 -92.5t-38.5 -92t-92.5 -38t-92 38t-38 92zM742 118q0 -38 25 -64t62 -26t62.5 26t25.5 64t-25.5 64.5t-62.5 26.5t-62 -26.5t-25 -64.5zM422 118q0 -38 25 -64t62 -26
t62.5 26t25.5 64t-25.5 64.5t-62.5 26.5t-62 -26.5t-25 -64.5z" />
    <glyph glyph-name="guilsinglleft" unicode="&#x2039;" horiz-adv-x="331" 
d="M218 77l-164 205l164 206h53l-164 -206l164 -205h-53z" />
    <glyph glyph-name="guilsinglright" unicode="&#x203a;" horiz-adv-x="331" 
d="M60 77l164 205l-164 206h53l164 -206l-164 -205h-53z" />
    <glyph glyph-name="fraction" unicode="&#x2044;" horiz-adv-x="149" 
d="M-71 0h-44l336 700h43z" />
    <glyph glyph-name="zerosuperior" unicode="&#x2070;" 
d="M188 413q-148 0 -148 227t148 227t148 -227t-148 -227zM188 449q109 0 109 191t-109 191t-109 -191t109 -191z" />
    <glyph glyph-name="foursuperior" unicode="&#x2074;" 
d="M241 423v121h-215v26l222 287h31v-277h68v-36h-68v-121h-38zM81 580h160v147l3 65h-2q-17 -27 -35 -50l-126 -160v-2z" />
    <glyph glyph-name="fivesuperior" unicode="&#x2075;" 
d="M178 413q-39 0 -71 17.5t-45 35.5l-13 17l32 21q3 -6 10 -15t32.5 -24.5t54.5 -15.5q47 0 79.5 31t32.5 77q0 44 -33 76t-79 32q-21 0 -41 -6.5t-30 -13.5l-10 -7l-26 10l26 209h206v-36h-174l-10 -91l-7 -43h2q27 14 65 14q64 0 107 -42t43 -102t-44 -102t-107 -42z" />
    <glyph glyph-name="sixsuperior" unicode="&#x2076;" 
d="M198 413q-71 0 -111.5 56.5t-40.5 142.5q0 43 10.5 86t31.5 82t58.5 63t85.5 24q20 0 41 -5t31 -10l11 -5l-19 -32q-30 16 -65 16q-60 0 -98 -52t-47 -126h2q17 21 48.5 34.5t61.5 13.5q60 0 99 -38.5t39 -101.5q0 -70 -39.5 -109t-98.5 -39zM198 449q46 0 72.5 32
t26.5 80q0 47 -28 75.5t-72 28.5q-43 0 -76.5 -25t-33.5 -53q0 -48 31.5 -93t79.5 -45z" />
    <glyph glyph-name="sevensuperior" unicode="&#x2077;" 
d="M71 423l174 333l37 65v2q-20 -2 -55 -2h-178v36h279v-26l-214 -408h-43z" />
    <glyph glyph-name="eightsuperior" unicode="&#x2078;" 
d="M41 546q0 70 77 120q-55 34 -55 92q0 51 38.5 80t91.5 29t92 -29.5t39 -82.5q0 -28 -14 -57t-25.5 -42.5t-20.5 -20.5q67 -39 67 -99q0 -51 -41.5 -87t-101.5 -36q-59 0 -103 35.5t-44 97.5zM292 535q0 18 -8 32.5t-25 26t-31.5 19t-40.5 19t-39 17.5q-68 -40 -68 -103
q0 -44 32 -70.5t76 -26.5q40 0 72 25t32 61zM102 758q0 -14 6 -26.5t13 -21t24 -18t26 -14t31.5 -14.5t30.5 -13q52 48 52 104q0 36 -27.5 56t-65.5 20q-37 0 -63.5 -19t-26.5 -54z" />
    <glyph glyph-name="ninesuperior" unicode="&#x2079;" 
d="M40 719q0 70 39.5 109t98.5 39q71 0 111.5 -56.5t40.5 -142.5q0 -43 -10.5 -86t-31.5 -82t-58.5 -63t-85.5 -24q-20 0 -41 5t-31 10l-11 5l19 32q30 -16 65 -16q60 0 98 52t47 126h-2q-17 -21 -48.5 -34.5t-61.5 -13.5q-60 0 -99 38.5t-39 101.5zM79 719q0 -47 28 -75.5
t72 -28.5q43 0 76.5 25t33.5 53q0 48 -31.5 93t-79.5 45q-46 0 -72.5 -32t-26.5 -80z" />
    <glyph glyph-name="zeroinferior" unicode="&#x2080;" 
d="M188 -167q-148 0 -148 227t148 227t148 -227t-148 -227zM188 -131q109 0 109 191t-109 191t-109 -191t109 -191z" />
    <glyph glyph-name="oneinferior" unicode="&#x2081;" 
d="M77 -157v36h96v325l1 22h-1q-4 -8 -23 -27l-44 -43l-26 27l93 94h38v-398h93v-36h-227z" />
    <glyph glyph-name="twoinferior" unicode="&#x2082;" 
d="M55 -157q-2 18 -2 27q0 45 23 80.5t55.5 58.5t64.5 44t55 49t23 62q0 36 -25.5 61.5t-65.5 25.5q-25 0 -48.5 -12.5t-34.5 -24.5l-11 -13l-24 26q5 7 14 17t39.5 26.5t64.5 16.5q62 0 96 -35.5t34 -87.5q0 -41 -22.5 -73.5t-54.5 -54.5t-64.5 -42.5t-55.5 -49.5t-24 -65
h229v-36h-266z" />
    <glyph glyph-name="threeinferior" unicode="&#x2083;" 
d="M184 -168q-27 0 -51 6.5t-39 16t-26.5 19.5t-16.5 16l-5 7l28 26q4 -6 12 -15t36.5 -24.5t62.5 -15.5q39 0 71 29.5t32 71.5q0 43 -32.5 69.5t-74.5 26.5h-32l-11 24l108 127l25 25v2q-18 -3 -38 -3h-164v36h255v-26l-128 -150q51 -4 91 -35t40 -96q0 -57 -42.5 -97
t-100.5 -40z" />
    <glyph glyph-name="fourinferior" unicode="&#x2084;" 
d="M241 -157v121h-215v26l222 287h31v-277h68v-36h-68v-121h-38zM81 0h160v147l3 65h-2q-17 -27 -35 -50l-126 -160v-2z" />
    <glyph glyph-name="fiveinferior" unicode="&#x2085;" 
d="M178 -167q-39 0 -71 17.5t-45 35.5l-13 17l32 21q3 -6 10 -15t32.5 -24.5t54.5 -15.5q47 0 79.5 31t32.5 77q0 44 -33 76t-79 32q-21 0 -41 -6.5t-30 -13.5l-10 -7l-26 10l26 209h206v-36h-174l-10 -91l-7 -43h2q27 14 65 14q64 0 107 -42t43 -102t-44 -102t-107 -42z
" />
    <glyph glyph-name="sixinferior" unicode="&#x2086;" 
d="M198 -167q-71 0 -111.5 56.5t-40.5 142.5q0 43 10.5 86t31.5 82t58.5 63t85.5 24q20 0 41 -5t31 -10l11 -5l-19 -32q-30 16 -65 16q-60 0 -98 -52t-47 -126h2q17 21 48.5 34.5t61.5 13.5q60 0 99 -38.5t39 -101.5q0 -70 -39.5 -109t-98.5 -39zM198 -131q46 0 72.5 32
t26.5 80q0 47 -28 75.5t-72 28.5q-43 0 -76.5 -25t-33.5 -53q0 -48 31.5 -93t79.5 -45z" />
    <glyph glyph-name="seveninferior" unicode="&#x2087;" 
d="M71 -158l174 333l37 65v2q-20 -2 -55 -2h-178v36h279v-26l-214 -408h-43z" />
    <glyph glyph-name="eightinferior" unicode="&#x2088;" 
d="M41 -33q0 70 77 120q-55 34 -55 92q0 51 38.5 80t91.5 29t92 -29.5t39 -82.5q0 -28 -14 -57t-25.5 -42.5t-20.5 -20.5q67 -39 67 -99q0 -51 -41.5 -87t-101.5 -36q-59 0 -103 35.5t-44 97.5zM292 -44q0 18 -8 32.5t-25 26t-31.5 19t-40.5 19t-39 17.5q-68 -40 -68 -103
q0 -44 32 -70.5t76 -26.5q40 0 72 25t32 61zM102 179q0 -14 6 -26.5t13 -21t24 -18t26 -14t31.5 -14.5t30.5 -13q52 48 52 104q0 36 -27.5 56t-65.5 20q-37 0 -63.5 -19t-26.5 -54z" />
    <glyph glyph-name="nineinferior" unicode="&#x2089;" 
d="M40 139q0 70 39.5 109t98.5 39q71 0 111.5 -56.5t40.5 -142.5q0 -43 -10.5 -86t-31.5 -82t-58.5 -63t-85.5 -24q-20 0 -41 5t-31 10l-11 5l19 32q30 -16 65 -16q60 0 98 52t47 126h-2q-17 -21 -48.5 -34.5t-61.5 -13.5q-60 0 -99 38.5t-39 101.5zM79 139q0 -47 28 -75.5
t72 -28.5q43 0 76.5 25t33.5 53q0 48 -31.5 93t-79.5 45q-46 0 -72.5 -32t-26.5 -80z" />
    <glyph glyph-name="Euro" unicode="&#x20ac;" horiz-adv-x="589" 
d="M45 273v40h54q-2 14 -2 42.5t3 46.5h-55v40h62q28 119 119.5 194.5t213.5 75.5q23 0 45.5 -3t32.5 -5l11 -3l-10 -42q-36 11 -79 11q-106 0 -183 -62.5t-104 -165.5h328l-8 -40h-328q-7 -39 -2 -89h314l-7 -40h-301q23 -108 102 -175.5t189 -67.5q23 0 45 3t33 7l10 3
l12 -41q-43 -14 -100 -14q-126 0 -219 79.5t-117 205.5h-59z" />
    <glyph glyph-name="trademark" unicode="&#x2122;" horiz-adv-x="922" 
d="M429 264l35 436h35l126 -270l14 -40h2q5 20 14 40l126 270h35l35 -436h-38l-28 328l1 28h-2l-127 -274h-34l-127 274h-2l1 -28l-28 -328h-38zM188 264v398h-160v38h360v-38h-161v-398h-39z" />
    <glyph glyph-name="minus" unicode="&#x2212;" horiz-adv-x="600" 
d="M52 263v40h496v-40h-496z" />
    <glyph glyph-name="infinity" unicode="&#x221e;" horiz-adv-x="491" 
d="M246 184q-68 0 -116.5 48.5t-48.5 116.5t48.5 116t116.5 48t116 -48t48 -116t-48 -116.5t-116 -48.5z" />
    <glyph glyph-name="approxequal" unicode="&#x2248;" horiz-adv-x="600" 
d="M85 321l-25 30q64 66 141 66q50 0 107.5 -35t90.5 -35q60 0 116 56l25 -30q-64 -66 -141 -66q-50 0 -107.5 35t-90.5 35q-60 0 -116 -56zM85 161l-25 30q64 66 141 66q50 0 107.5 -35t90.5 -35q60 0 116 56l25 -30q-64 -66 -141 -66q-50 0 -107.5 35t-90.5 35
q-60 0 -116 -56z" />
    <glyph glyph-name="notequal" unicode="&#x2260;" horiz-adv-x="600" 
d="M130 92l68 91h-126v40h156l91 120h-247v40h277l90 119l33 -25l-71 -94h127v-40h-157l-91 -120h248v-40h-278l-87 -116z" />
    <glyph glyph-name="lessequal" unicode="&#x2264;" horiz-adv-x="600" 
d="M72 265v36l439 197v-48l-377 -166v-2l377 -166v-48zM72 -113h439v-40h-439v40z" />
    <glyph glyph-name="greaterequal" unicode="&#x2265;" horiz-adv-x="600" 
d="M90 68v48l377 166v2l-377 166v48l439 -197v-36zM89 -113h439v-40h-439v40z" />
    <glyph glyph-name="commaaccent" horiz-adv-x="335" 
d="M142 -66h48q6 -26 6 -47q0 -37 -22 -87h-39q18 47 18 78q0 27 -11 56z" />
    <glyph glyph-name="apple" horiz-adv-x="1130" 
d="M168 -5v152l-126 72v278l126 71v151l265 142l134 -71l132 71l265 -142v-151l124 -71v-278l-124 -72v-152l-265 -141l-132 71l-134 -71zM208 30l238 -126l121 66l118 -66l238 126v139l114 64v249l-114 66v136l-238 126l-118 -64l-121 64l-238 -126v-136l-114 -66v-249
l114 -64v-139zM242 64v121l-99 60v225l99 58v123l215 114l110 -59l107 59l214 -114v-123l100 -58v-225l-100 -60v-121l-214 -114l-107 58l-110 -58zM447 91h43v228h228v40h-228v192h199q17 0 23 -6.5t6 -22.5v-42h42v54q0 30 -13 43.5t-45 13.5h-320v-40h65v-460z" />
    <glyph glyph-name="zero.tnum" horiz-adv-x="556" 
d="M279 -12q-236 0 -236 362t236 362t236 -362t-236 -362zM279 30q54 0 92.5 24t59.5 69t30 100t9 127q0 320 -191 320t-191 -320q0 -72 9 -127t30 -100t59.5 -69t92.5 -24z" />
    <glyph glyph-name="one.tnum" horiz-adv-x="556" 
d="M110 0v40h159v570l1 35h-2q-7 -13 -37 -43l-83 -83l-30 29l151 152h43v-660h155v-40h-357z" />
    <glyph glyph-name="two.tnum" horiz-adv-x="556" 
d="M76 0q-3 20 -3 37q0 49 20.5 91.5t53.5 73.5t72.5 59.5t79.5 56t73 56t53.5 66t20.5 80.5q0 65 -44.5 107.5t-118.5 42.5q-31 0 -60 -10.5t-48.5 -25t-34 -29t-20.5 -25.5l-7 -10l-32 22q3 5 8 13t23.5 28.5t39.5 36.5t57 29t75 13q98 0 152.5 -56t54.5 -136
q0 -56 -27.5 -104t-69 -80t-89.5 -66.5t-89.5 -64.5t-69 -73t-27.5 -92h383v-40h-426z" />
    <glyph glyph-name="three.tnum" horiz-adv-x="556" 
d="M55 85l32 32q3 -4 8.5 -9.5t24.5 -20.5t39.5 -26.5t52 -21t63.5 -9.5q70 0 122.5 48.5t52.5 123.5q0 78 -55.5 122.5t-131.5 44.5h-48l-12 30l196 229l31 32v2q-19 -2 -54 -2h-287v40h401v-30l-226 -261q36 0 72.5 -9.5t74 -31.5t61 -65t23.5 -101q0 -89 -65.5 -151.5
t-156.5 -62.5q-37 0 -73.5 10t-61.5 24.5t-44.5 28.5t-29.5 24z" />
    <glyph glyph-name="four.tnum" horiz-adv-x="556" 
d="M27 200v30l363 470h40v-460h104v-40h-104v-200h-43v200h-360zM87 240h300v328l3 63h-2q-17 -25 -35 -48l-266 -341v-2z" />
    <glyph glyph-name="five.tnum" horiz-adv-x="556" 
d="M62 89l35 27l6 -9t18.5 -21t31.5 -26t45.5 -20.5t60.5 -9.5q82 0 138 52.5t56 130.5q0 79 -56 132t-138 53q-36 0 -70 -10.5t-50 -21.5l-16 -10l-32 11l40 333h325v-40h-287l-25 -209l-7 -43h2q49 32 120 32q100 0 169.5 -66t69.5 -161q0 -94 -70 -159.5t-169 -65.5
q-38 0 -72.5 10.5t-56 25t-38 29.5t-23.5 25z" />
    <glyph glyph-name="six.tnum" horiz-adv-x="556" 
d="M296 -12q-113 0 -179 94t-66 233q0 68 17.5 135t51.5 127t94.5 97.5t137.5 37.5q32 0 62.5 -7t45.5 -14l14 -7l-21 -39q-43 25 -103 25q-77 0 -135 -49.5t-86 -120t-33 -152.5h2q29 44 82.5 70t115.5 26q94 0 154.5 -61t60.5 -162q0 -109 -62 -171t-153 -62zM295 30
q79 0 125 53t46 138q0 83 -47.5 132t-124.5 49q-78 0 -136 -44.5t-58 -94.5q0 -81 56 -157t139 -76z" />
    <glyph glyph-name="seven.tnum" horiz-adv-x="556" 
d="M132 0l292 595l37 65v2q-20 -2 -55 -2h-340v40h443v-30l-332 -670h-45z" />
    <glyph glyph-name="eight.tnum" horiz-adv-x="556" 
d="M46 200q0 36 13 69.5t31 56t36.5 39.5t31.5 25l13 8q-91 55 -91 143q0 71 54.5 121t151.5 50q96 0 152 -49t56 -128q0 -104 -94 -198q103 -58 103 -150q0 -83 -65.5 -141t-159.5 -58q-93 0 -162.5 57t-69.5 155zM458 186q0 30 -13.5 54t-43 43.5t-54.5 31.5t-69 30.5
t-66 29.5q-10 -5 -25.5 -16t-39.5 -33t-40 -55.5t-16 -70.5q0 -77 56 -123.5t131 -46.5q70 0 125 44.5t55 111.5zM125 541q0 -30 12.5 -53.5t41 -42.5t51 -30.5t67 -30t63.5 -27.5q89 82 89 178q0 61 -45.5 98t-117.5 37q-74 0 -117.5 -37t-43.5 -92z" />
    <glyph glyph-name="nine.tnum" horiz-adv-x="556" 
d="M205 -12q-32 0 -62.5 7t-44.5 14l-15 7l21 39q43 -25 103 -25q77 0 135 49.5t86 120t33 152.5h-2q-29 -44 -82.5 -70t-115.5 -26q-94 0 -154.5 61t-60.5 162q0 109 62 171t153 62q113 0 179 -94t66 -233q0 -68 -17.5 -135t-51.5 -127t-94.5 -97.5t-137.5 -37.5zM263 298
q78 0 136 44.5t58 94.5q0 81 -56 157t-139 76q-79 0 -125 -53t-46 -138q0 -83 47.5 -132t124.5 -49z" />
    <glyph glyph-name="hyphen.case" horiz-adv-x="396" 
d="M60 329v40h276v-40h-276z" />
    <glyph glyph-name="parenleft.case" horiz-adv-x="316" 
d="M256 -65h-44q-110 193 -110 430q0 208 110 390h44q-113 -190 -113 -391q0 -231 113 -429z" />
    <glyph glyph-name="parenright.case" horiz-adv-x="316" 
d="M104 -65h-44q113 198 113 429q0 201 -113 391h44q110 -182 110 -390q0 -237 -110 -430z" />
    <glyph glyph-name="bracketleft.case" horiz-adv-x="306" 
d="M131 -65v820h108v-40h-65v-740h65v-40h-108z" />
    <glyph glyph-name="bracketright.case" horiz-adv-x="306" 
d="M175 755v-820h-108v40h65v740h-65v40h108z" />
    <glyph glyph-name="braceleft.case" horiz-adv-x="365" 
d="M160 118v94q0 30 -9 53.5t-21 35t-24.5 19t-21.5 9.5l-9 2v40q3 0 9 1.5t20.5 9.5t26 19.5t20.5 35t9 53.5v81q0 59 16 99.5t41 56.5t43 21.5t36 5.5h9v-39h-6q-13 0 -25.5 -4t-30.5 -17t-29 -44.5t-11 -77.5v-93q0 -27 -8 -50t-19.5 -36.5t-23.5 -23.5t-20 -13l-8 -4v-2
q3 -1 8.5 -3.5t19 -12.5t24 -22.5t19 -36.5t8.5 -52v-106q0 -46 11 -77.5t29 -44.5t30.5 -17t25.5 -4h6v-39q-3 -1 -9 -1q-13 0 -26.5 2.5t-34.5 13.5t-36.5 29t-27 54.5t-11.5 84.5z" />
    <glyph glyph-name="braceright.case" horiz-adv-x="365" 
d="M60 -26h6q13 0 25.5 4t30.5 17t29 44.5t11 77.5v106q0 45 20 76.5t40 40.5l19 10v2q-3 1 -8.5 3.5t-19 13t-24 23.5t-19 36.5t-8.5 50.5v93q0 46 -11 77.5t-29 44.5t-30.5 17t-25.5 4h-6v39h9q18 0 36 -5.5t43 -21.5t41 -56.5t16 -99.5v-81q0 -30 9 -53.5t21 -35
t24.5 -19t21.5 -9.5l9 -2v-40q-3 0 -9 -1.5t-20.5 -9.5t-26 -19.5t-20.5 -35t-9 -53.5v-94q0 -48 -11.5 -84.5t-27 -54.5t-36.5 -29t-34.5 -13.5t-26.5 -2.5l-9 1v39z" />
    <glyph glyph-name="at.case" horiz-adv-x="805" 
d="M85 350q0 151 102 258t244 107q120 0 176 -51t56 -126v-344h70v-40h-265q-80 0 -136.5 57t-56.5 137q0 81 56.5 138.5t136.5 57.5h150q-3 57 -46 94t-135 37q-129 0 -218 -94.5t-89 -230.5t88.5 -229.5t218.5 -93.5v-42q-146 0 -249 106.5t-103 258.5zM320 348
q0 -64 44.5 -109t108.5 -45h145v310h-143q-65 0 -110 -46t-45 -110z" />
    <glyph glyph-name="guillemotleft.case" horiz-adv-x="528" 
d="M397 137l-164 205l164 206h53l-164 -206l164 -205h-53zM237 137l-164 205l164 206h53l-164 -206l164 -205h-53z" />
    <glyph glyph-name="guillemotright.case" horiz-adv-x="528" 
d="M238 137l164 205l-164 206h53l164 -206l-164 -205h-53zM78 137l164 205l-164 206h53l164 -206l-164 -205h-53z" />
    <glyph glyph-name="guilsinglleft.case" horiz-adv-x="368" 
d="M237 137l-164 205l164 206h53l-164 -206l164 -205h-53z" />
    <glyph glyph-name="guilsinglright.case" horiz-adv-x="368" 
d="M78 137l164 205l-164 206h53l164 -206l-164 -205h-53z" />
    <glyph glyph-name="endash.case" horiz-adv-x="596" 
d="M60 323v40h476v-40h-476z" />
    <glyph glyph-name="emdash.case" horiz-adv-x="796" 
d="M60 323v40h676v-40h-676z" />
    <glyph glyph-name="periodcentered.case" horiz-adv-x="307" 
d="M125 317v59h57v-59h-57z" />
    <glyph glyph-name="questiondown.case" horiz-adv-x="491" 
d="M82 160q0 46 18.5 82.5t45 61.5t53.5 49t45.5 56.5t18.5 71.5v44h43v-44q0 -44 -18.5 -80.5t-45 -62.5t-52.5 -51.5t-44.5 -58t-18.5 -69.5q0 -55 41 -92t105 -37q32 0 64 10.5t47 21.5l16 10l23 -34q-7 -6 -19 -14t-51 -22t-79 -14q-85 0 -138.5 49t-53.5 123zM255 639
v61h59v-61h-59z" />
    <glyph glyph-name="exclamdown.case" horiz-adv-x="327" 
d="M142 0v525h43v-525h-43zM133 639v61h59v-61h-59z" />
    <glyph glyph-name="bullet.case" horiz-adv-x="428" 
d="M214 219q-55 0 -93.5 38.5t-38.5 93.5t38.5 93.5t93.5 38.5t93.5 -38.5t38.5 -93.5t-38.5 -93.5t-93.5 -38.5z" />
    <glyph glyph-name="zero.p_osf" horiz-adv-x="586" 
d="M63 268q0 115 61 199.5t169 84.5t169 -84.5t61 -199.5q0 -114 -60.5 -197t-169.5 -83t-169.5 83t-60.5 197zM107 270q0 -98 49 -169.5t137 -71.5t137 71.5t49 169.5t-49 169.5t-137 71.5t-137 -71.5t-49 -169.5z" />
    <glyph glyph-name="one.p_osf" horiz-adv-x="442" 
d="M70 0v39h159v409l1 48h-2q-16 -12 -39 -26l-117 -71l-20 31l177 110h42v-501h140v-39h-341z" />
    <glyph glyph-name="two.p_osf" horiz-adv-x="520" 
d="M62 0v32q186 126 260.5 202t74.5 150q0 63 -42.5 95t-108.5 32q-42 0 -82.5 -19.5t-60.5 -39.5l-20 -20l-27 30q3 4 8.5 10t25 21.5t40.5 27.5t53.5 21.5t66.5 9.5q94 0 142.5 -50t48.5 -113q0 -85 -70 -164.5t-235 -185.5v-2q19 2 54 2h277v-39h-405z" />
    <glyph glyph-name="three.p_osf" horiz-adv-x="474" 
d="M-8 -37l32 29q2 -3 7 -8.5t21 -19t34 -24t47.5 -19t60.5 -8.5q69 0 121.5 44t52.5 116q0 74 -55 113.5t-133 39.5h-47l-12 32l192 213l31 30v2q-19 -2 -54 -2h-255v39h372v-28l-226 -245q36 0 72 -8.5t74 -28t61.5 -60.5t23.5 -97q0 -90 -64.5 -145.5t-155.5 -55.5
q-36 0 -70 9.5t-56.5 22.5t-40 26.5t-25.5 23.5z" />
    <glyph glyph-name="four.p_osf" horiz-adv-x="574" 
d="M33 41v29l348 470h38v-460h113v-39h-113v-157h-42v157h-344zM91 80h286v329l3 63h-2q-17 -31 -35 -55z" />
    <glyph glyph-name="five.p_osf" horiz-adv-x="518" 
d="M37 -24l35 24q2 -3 6 -8t18.5 -18.5t31 -23.5t43.5 -18t57 -8q78 0 134.5 45.5t56.5 124.5q0 77 -55.5 121t-130.5 44q-34 0 -68 -9.5t-51 -19.5l-16 -9l-31 10l40 309h314v-39h-277l-24 -189l-7 -40h2q51 28 123 28q92 0 158.5 -53.5t66.5 -151.5q0 -96 -67 -154
t-167 -58q-37 0 -70.5 9.5t-55 23.5t-37 27.5t-22.5 22.5z" />
    <glyph glyph-name="six.p_osf" horiz-adv-x="582" 
d="M72 286q0 65 17.5 129.5t51.5 122.5t94 94t137 36q32 0 62.5 -6.5t45.5 -13.5l14 -6l-21 -38q-43 23 -103 23q-114 0 -180.5 -92t-74.5 -217h2q29 46 82.5 71t116.5 25q94 0 154.5 -56.5t60.5 -150.5q0 -103 -62 -161t-153 -58q-112 0 -178 85.5t-66 212.5zM120 242
q0 -75 56 -144t139 -69q80 0 126 49.5t46 128.5q0 76 -48 121t-125 45q-78 0 -136 -42t-58 -89z" />
    <glyph glyph-name="seven.p_osf" horiz-adv-x="492" 
d="M100 -116l280 557l34 60v2q-20 -2 -55 -2h-325v39h429v-28l-317 -628h-46z" />
    <glyph glyph-name="eight.p_osf" horiz-adv-x="577" 
d="M63 187q0 38 16 72.5t40.5 58t40.5 35.5t28 18q-93 53 -93 137q0 66 53 113.5t147 47.5t149 -46t55 -120q0 -29 -10 -58.5t-22 -49.5t-28 -39t-23.5 -25.5t-12.5 -11.5q107 -57 107 -144q0 -77 -64.5 -132t-156.5 -55t-159 53.5t-67 145.5zM466 174q0 28 -13 50.5
t-41.5 40.5t-52 29.5t-67 28.5t-64.5 27q-13 -7 -28 -17t-39 -30.5t-39 -51t-15 -64.5q0 -72 54.5 -115t127.5 -43q69 0 123 41.5t54 103.5zM139 508q0 -23 10.5 -43t24 -33.5t39.5 -28t45.5 -22.5t53.5 -22t52 -22q10 8 20 18t28.5 33t30.5 53.5t12 61.5q0 57 -45 91
t-115 34t-113 -34.5t-43 -85.5z" />
    <glyph glyph-name="nine.p_osf" horiz-adv-x="582" 
d="M109 -64q43 -23 103 -23q114 0 180.5 92t74.5 217h-2q-29 -46 -82.5 -71t-116.5 -25q-94 0 -154.5 56.5t-60.5 150.5q0 103 62 161t153 58q112 0 178 -85.5t66 -212.5q0 -65 -17.5 -129.5t-51.5 -122.5t-94 -94t-137 -36q-32 0 -62.5 6.5t-45.5 13.5l-14 6zM268 167
q78 0 136 42t58 89q0 75 -56 144t-139 69q-80 0 -126 -49.5t-46 -128.5q0 -76 48 -121t125 -45z" />
    <glyph glyph-name="zero.t_osf" horiz-adv-x="556" 
d="M49 268q0 115 61 199.5t169 84.5t169 -84.5t61 -199.5q0 -114 -60.5 -197t-169.5 -83t-169.5 83t-60.5 197zM93 270q0 -98 49 -169.5t137 -71.5t137 71.5t49 169.5t-49 169.5t-137 71.5t-137 -71.5t-49 -169.5z" />
    <glyph glyph-name="one.t_osf" horiz-adv-x="556" 
d="M137 0v39h159v409l1 48h-2q-16 -12 -39 -26l-117 -71l-20 31l177 110h42v-501h140v-39h-341z" />
    <glyph glyph-name="two.t_osf" horiz-adv-x="556" 
d="M89 0v32q186 126 260.5 202t74.5 150q0 63 -42.5 95t-108.5 32q-42 0 -82.5 -19.5t-60.5 -39.5l-20 -20l-27 30q3 4 8.5 10t25 21.5t40.5 27.5t53.5 21.5t66.5 9.5q94 0 142.5 -50t48.5 -113q0 -85 -70 -164.5t-235 -185.5v-2q19 2 54 2h277v-39h-405z" />
    <glyph glyph-name="three.t_osf" horiz-adv-x="556" 
d="M58 -37l32 29q2 -3 7 -8.5t21 -19t34 -24t47.5 -19t60.5 -8.5q69 0 121.5 44t52.5 116q0 74 -55 113.5t-133 39.5h-47l-12 32l192 213l31 30v2q-19 -2 -54 -2h-255v39h372v-28l-226 -245q36 0 72 -8.5t74 -28t61.5 -60.5t23.5 -97q0 -90 -64.5 -145.5t-155.5 -55.5
q-36 0 -70 9.5t-56.5 22.5t-40 26.5t-25.5 23.5z" />
    <glyph glyph-name="four.t_osf" horiz-adv-x="556" 
d="M34 41v29l348 470h38v-460h113v-39h-113v-157h-42v157h-344zM92 80h286v329l3 63h-2q-17 -31 -35 -55z" />
    <glyph glyph-name="five.t_osf" horiz-adv-x="556" 
d="M64 -24l35 24q2 -3 6 -8t18.5 -18.5t31 -23.5t43.5 -18t57 -8q78 0 134.5 45.5t56.5 124.5q0 77 -55.5 121t-130.5 44q-34 0 -68 -9.5t-50 -19.5l-17 -9l-31 10l40 309h314v-39h-277l-24 -189l-7 -40h2q51 28 123 28q92 0 158.5 -53.5t66.5 -151.5q0 -96 -67 -154
t-167 -58q-37 0 -70.5 9.5t-55 23.5t-37 27.5t-22.5 22.5z" />
    <glyph glyph-name="six.t_osf" horiz-adv-x="556" 
d="M49 286q0 65 17.5 129.5t51.5 122.5t94 94t137 36q32 0 62.5 -6.5t44.5 -13.5l15 -6l-21 -38q-43 23 -103 23q-114 0 -180.5 -92t-74.5 -217h2q29 46 82.5 71t116.5 25q94 0 154.5 -56.5t60.5 -150.5q0 -103 -62 -161t-153 -58q-112 0 -178 85.5t-66 212.5zM97 242
q0 -75 56 -144t139 -69q80 0 126 49.5t46 128.5q0 76 -48 121t-125 45q-78 0 -136 -42t-58 -89z" />
    <glyph glyph-name="seven.t_osf" horiz-adv-x="556" 
d="M131 -116l280 557l34 60v2q-20 -2 -55 -2h-325v39h429v-28l-317 -628h-46z" />
    <glyph glyph-name="eight.t_osf" horiz-adv-x="556" 
d="M53 187q0 38 16 72.5t40.5 58t40.5 35.5t28 18q-93 53 -93 137q0 66 53 113.5t147 47.5t149 -46t55 -120q0 -29 -10 -58.5t-22 -49.5t-28 -39t-23.5 -25.5t-12.5 -11.5q107 -57 107 -144q0 -77 -64.5 -132t-156.5 -55t-159 53.5t-67 145.5zM456 174q0 28 -13 50.5
t-41.5 40.5t-52 29.5t-67 28.5t-64.5 27q-13 -7 -28 -17t-39 -30.5t-39 -51t-15 -64.5q0 -72 54.5 -115t127.5 -43q69 0 123 41.5t54 103.5zM129 508q0 -23 10.5 -43t24 -33.5t39.5 -28t45.5 -22.5t53.5 -22t52 -22q10 8 20 18t28.5 33t30.5 53.5t12 61.5q0 57 -45 91
t-115 34t-113 -34.5t-43 -85.5z" />
    <glyph glyph-name="nine.t_osf" horiz-adv-x="556" 
d="M106 -64q43 -23 103 -23q114 0 180.5 92t74.5 217h-2q-29 -46 -82.5 -71t-116.5 -25q-94 0 -154.5 56.5t-60.5 150.5q0 103 62 161t153 58q112 0 178 -85.5t66 -212.5q0 -65 -17.5 -129.5t-51.5 -122.5t-94 -94t-137 -36q-32 0 -62.5 6.5t-44.5 13.5l-15 6zM265 167
q78 0 136 42t58 89q0 75 -56 144t-139 69q-80 0 -126 -49.5t-46 -128.5q0 -76 48 -121t125 -45z" />
    <glyph glyph-name="dollar.osf" horiz-adv-x="513" 
d="M57 86l33 29q3 -3 8 -9t22 -21t36.5 -26t49.5 -20.5t62 -9.5q57 0 96.5 30t39.5 83q0 40 -32.5 68t-79 45.5t-93.5 36.5t-79.5 53.5t-32.5 85.5q0 68 45.5 107.5t115.5 45.5v84h43v-84q43 -4 78.5 -19t49.5 -28l14 -13l-27 -33q-5 6 -16 15t-47.5 23.5t-78.5 14.5
q-56 0 -94.5 -27t-38.5 -82q0 -41 32.5 -69t79.5 -45.5t93.5 -37t79 -54.5t32.5 -87q0 -65 -47.5 -107.5t-121.5 -45.5v-93h-43v94q-33 3 -63.5 14.5t-50.5 25t-35.5 26.5t-22.5 22z" />
    <glyph glyph-name="cent.osf" horiz-adv-x="575" 
d="M64 298q0 100 62.5 165t157.5 74v87h43v-86q49 -3 91.5 -22t59.5 -37l18 -18l-22 -35q-2 3 -6.5 8t-19.5 17t-32.5 21.5t-45.5 17.5t-58 8q-85 0 -144.5 -55.5t-59.5 -144.5t59.5 -144.5t144.5 -55.5q30 0 57.5 7.5t46 18t32 21t20.5 17.5l6 8l22 -35q-2 -3 -7 -8
t-21 -17.5t-34 -22.5t-47 -19t-60 -11v-82h-43v83q-95 9 -157.5 74.5t-62.5 165.5z" />
    <glyph glyph-name="sterling.osf" horiz-adv-x="604" 
d="M62 0v39h66v209h-46v39h46v121q0 75 56.5 126t144.5 51q42 0 81.5 -12.5t57.5 -25.5l18 -13l-29 -33q-6 5 -17 12t-44.5 19t-67.5 12q-74 0 -116 -40.5t-42 -99.5v-117h243v-39h-243v-209h351v-39h-459z" />
    <glyph glyph-name="yen.osf" horiz-adv-x="579" 
d="M101 277v40h114l-159 258h49l141 -232l43 -76h2q22 42 43 76l141 232h49l-158 -258h111v-40h-136l-29 -48v-32h165v-40h-165v-157h-43v157h-168v40h168v32l-30 48h-138z" />
    <glyph glyph-name="florin.osf" horiz-adv-x="568" 
d="M40 -84q27 -5 62 -5q19 0 36.5 5t39 18.5t36.5 45t19 76.5l24 275h-96v38h99l10 115q5 58 25.5 98t49.5 57t52.5 23.5t47.5 6.5q19 0 39 -1.5t31 -3.5l11 -2v-39q-42 7 -82 7q-19 0 -36.5 -5t-39 -18.5t-36.5 -45t-19 -76.5l-11 -116h133v-38h-136l-24 -274
q-5 -58 -25.5 -98t-49.5 -57.5t-52 -23.5t-47 -6l-61 5v39z" />
    <glyph glyph-name="Euro.osf" horiz-adv-x="621" 
d="M65 208v40h65q-3 21 -3 42q0 20 1 31h-63v40h70q22 97 99.5 160.5t204.5 63.5q22 0 45 -3t35 -6l12 -3l-11 -41q-40 11 -81 11q-104 0 -169.5 -51t-88.5 -131h301l-9 -40h-300q-2 -12 -2 -36l2 -37h288l-9 -40h-270q22 -79 88 -128.5t169 -49.5q23 0 45 3t32 7l11 3
l12 -41q-43 -14 -100 -14q-121 0 -199 62t-103 158h-72z" />
    <glyph glyph-name="zero.numerator" 
d="M188 256q-148 0 -148 227t148 227t148 -227t-148 -227zM188 292q109 0 109 191t-109 191t-109 -191t109 -191z" />
    <glyph glyph-name="one.numerator" 
d="M77 266v36h96v325l1 22h-1q-4 -8 -23 -27l-44 -43l-26 27l93 94h38v-398h93v-36h-227z" />
    <glyph glyph-name="two.numerator" 
d="M55 266q-2 18 -2 27q0 45 23 80.5t55.5 58.5t64.5 44t55 49t23 62q0 36 -25.5 61.5t-65.5 25.5q-25 0 -48.5 -12.5t-34.5 -25.5l-11 -12l-24 26q5 7 14 17t39.5 26.5t64.5 16.5q62 0 96 -35.5t34 -87.5q0 -41 -22.5 -73.5t-54.5 -54.5t-64.5 -42.5t-55.5 -49.5t-24 -65
h229v-36h-266z" />
    <glyph glyph-name="three.numerator" 
d="M184 256q-27 0 -51 6.5t-39 16t-26.5 19.5t-16.5 16l-5 7l28 26q4 -6 12 -15t36.5 -24.5t62.5 -15.5q39 0 71 29.5t32 71.5q0 43 -32.5 69.5t-74.5 26.5h-32l-11 24l108 127l25 25v2q-18 -3 -38 -3h-164v36h255v-26l-128 -150q51 -4 91 -35t40 -96q0 -57 -42.5 -97
t-100.5 -40z" />
    <glyph glyph-name="four.numerator" 
d="M241 266v121h-215v26l222 287h31v-277h68v-36h-68v-121h-38zM81 423h160v147l3 65h-2q-17 -27 -35 -50l-126 -160v-2z" />
    <glyph glyph-name="five.numerator" 
d="M178 256q-39 0 -71 17.5t-45 34.5l-13 18l32 21q3 -6 10 -15t32.5 -24.5t54.5 -15.5q47 0 79.5 31t32.5 77q0 44 -33 76t-79 32q-21 0 -41 -7t-30 -13l-10 -7l-26 10l26 209h206v-36h-174l-10 -91l-7 -43h2q27 14 65 14q64 0 107 -42t43 -102t-44 -102t-107 -42z" />
    <glyph glyph-name="six.numerator" 
d="M198 256q-71 0 -111.5 56.5t-40.5 142.5q0 43 10.5 86t31.5 82t58.5 63t85.5 24q20 0 41 -5t31 -10l11 -5l-19 -32q-30 16 -65 16q-60 0 -98 -52t-47 -126h2q17 21 48.5 34.5t61.5 13.5q60 0 99 -38.5t39 -101.5q0 -70 -39.5 -109t-98.5 -39zM198 292q46 0 72.5 32
t26.5 80q0 47 -28 75.5t-72 28.5q-43 0 -76.5 -25t-33.5 -53q0 -48 31.5 -93t79.5 -45z" />
    <glyph glyph-name="seven.numerator" 
d="M71 266l174 333l37 65v2q-20 -2 -55 -2h-178v36h279v-26l-214 -408h-43z" />
    <glyph glyph-name="eight.numerator" 
d="M41 388q0 70 77 120q-55 34 -55 92q0 51 38.5 80t91.5 29t92 -29.5t39 -82.5q0 -28 -14 -57t-25.5 -42.5t-20.5 -20.5q67 -39 67 -99q0 -51 -41.5 -87t-101.5 -36q-59 0 -103 35.5t-44 97.5zM292 377q0 18 -8 32.5t-25 26t-31.5 19t-40.5 19t-39 17.5q-68 -40 -68 -103
q0 -44 32 -70.5t76 -26.5q40 0 72 25t32 61zM102 600q0 -14 6 -26.5t13 -21t24 -18t26 -14t31.5 -14.5t30.5 -13q52 48 52 104q0 36 -27.5 56t-65.5 20q-37 0 -63.5 -19t-26.5 -54z" />
    <glyph glyph-name="nine.numerator" 
d="M40 562q0 70 39.5 109t98.5 39q71 0 111.5 -56.5t40.5 -142.5q0 -43 -10.5 -86t-31.5 -82t-58.5 -63t-85.5 -24q-20 0 -41 5t-31 10l-11 5l19 32q30 -16 65 -16q60 0 98 52t47 126h-2q-17 -21 -48.5 -34.5t-61.5 -13.5q-60 0 -99 38.5t-39 101.5zM79 562q0 -47 28 -75.5
t72 -28.5q43 0 76.5 25t33.5 53q0 48 -31.5 93t-79.5 45q-46 0 -72.5 -32t-26.5 -80z" />
    <glyph glyph-name="zero.denominator" 
d="M188 -10q-148 0 -148 227t148 227t148 -227t-148 -227zM188 26q109 0 109 191t-109 191t-109 -191t109 -191z" />
    <glyph glyph-name="one.denominator" 
d="M77 0v36h96v325l1 22h-1q-4 -8 -23 -27l-44 -43l-26 27l93 94h38v-398h93v-36h-227z" />
    <glyph glyph-name="two.denominator" 
d="M55 0q-2 18 -2 27q0 45 23 80.5t55.5 58.5t64.5 44t55 49t23 62q0 36 -25.5 61.5t-65.5 25.5q-25 0 -48.5 -12.5t-34.5 -25.5l-11 -12l-24 26q5 7 14 17t39.5 26.5t64.5 16.5q62 0 96 -35.5t34 -87.5q0 -41 -22.5 -73.5t-54.5 -54.5t-64.5 -42.5t-55.5 -49.5t-24 -65h229
v-36h-266z" />
    <glyph glyph-name="three.denominator" 
d="M184 -10q-42 0 -76.5 16.5t-47.5 32.5l-14 16l28 26q4 -6 12 -15t36.5 -24.5t62.5 -15.5q39 0 71 29.5t32 71.5q0 43 -32.5 69.5t-74.5 26.5h-32l-11 24l108 127l25 25v2q-18 -3 -38 -3h-164v36h255v-26l-128 -150q51 -4 91 -35t40 -96q0 -57 -42.5 -97t-100.5 -40z" />
    <glyph glyph-name="four.denominator" 
d="M241 0v121h-215v26l222 287h31v-277h68v-36h-68v-121h-38zM81 157h160v147l3 65h-2q-17 -27 -35 -50l-126 -160v-2z" />
    <glyph glyph-name="five.denominator" 
d="M178 -10q-39 0 -71 17.5t-45 34.5l-13 18l32 21q3 -6 10 -15t32.5 -24.5t54.5 -15.5q47 0 79.5 31t32.5 77q0 44 -33 76t-79 32q-21 0 -41 -7t-30 -13l-10 -7l-26 10l26 209h206v-36h-174l-10 -91l-7 -43h2q27 14 65 14q64 0 107 -42t43 -102t-44 -102t-107 -42z" />
    <glyph glyph-name="six.denominator" 
d="M198 -10q-71 0 -111.5 56.5t-40.5 142.5q0 43 10.5 86t31.5 82t58.5 63t85.5 24q20 0 41 -5t31 -10l11 -5l-19 -32q-30 16 -65 16q-60 0 -98 -52t-47 -126h2q17 21 48.5 34.5t61.5 13.5q60 0 99 -38.5t39 -101.5q0 -70 -39.5 -109t-98.5 -39zM198 26q46 0 72.5 32
t26.5 80q0 47 -28 75.5t-72 28.5q-43 0 -76.5 -25t-33.5 -53q0 -48 31.5 -93t79.5 -45z" />
    <glyph glyph-name="seven.denominator" 
d="M71 0l174 333l37 65v2q-20 -2 -55 -2h-178v36h279v-26l-214 -408h-43z" />
    <glyph glyph-name="eight.denominator" 
d="M41 123q0 70 77 120q-55 34 -55 92q0 51 38.5 80t91.5 29t92 -29.5t39 -82.5q0 -28 -14 -57t-25.5 -42.5t-20.5 -20.5q67 -39 67 -99q0 -51 -41.5 -87t-101.5 -36q-59 0 -103 35.5t-44 97.5zM292 112q0 18 -8 32.5t-25 26t-31.5 19t-40.5 19t-39 17.5q-68 -40 -68 -103
q0 -44 32 -70.5t76 -26.5q40 0 72 25t32 61zM102 335q0 -14 6 -26.5t13 -21t24 -18t26 -14t31.5 -14.5t30.5 -13q52 48 52 104q0 36 -27.5 56t-65.5 20q-37 0 -63.5 -19t-26.5 -54z" />
    <glyph glyph-name="nine.denominator" 
d="M40 296q0 70 39.5 109t98.5 39q71 0 111.5 -56.5t40.5 -142.5q0 -43 -10.5 -86t-31.5 -82t-58.5 -63t-85.5 -24q-20 0 -41 5t-31 10l-11 5l19 32q30 -16 65 -16q60 0 98 52t47 126h-2q-17 -21 -48.5 -34.5t-61.5 -13.5q-60 0 -99 38.5t-39 101.5zM79 296q0 -47 28 -75.5
t72 -28.5q43 0 76.5 25t33.5 53q0 48 -31.5 93t-79.5 45q-46 0 -72.5 -32t-26.5 -80z" />
    </font>
</defs>
</svg>
