<?xml version="1.0" standalone="no"?>
<!DOCTYPE svg PUBLIC "-//W3C//DTD SVG 1.1//EN" "http://www.w3.org/Graphics/SVG/1.1/DTD/svg11.dtd" >
<svg xmlns="http://www.w3.org/2000/svg">
<metadata></metadata>
<defs>
<font id="dosislight" horiz-adv-x="999" >
<font-face units-per-em="2048" ascent="1638" descent="-410" />
<missing-glyph horiz-adv-x="409" />
<glyph unicode="&#xfb01;" horiz-adv-x="1005" d="M135 43v1147q0 70 25.5 137.5t77 120.5t128 87t177.5 34q55 0 109.5 -10.5t97.5 -28t69.5 -39t26.5 -45.5q0 -18 -12.5 -36.5t-28.5 -18.5q-12 0 -30.5 13t-48.5 28.5t-73 29t-106 13.5q-90 0 -150.5 -29t-96.5 -72t-50 -92t-14 -90v-225h274q16 0 28.5 -13.5t12.5 -29.5 q0 -18 -12.5 -31.5t-28.5 -13.5h-274v-836q0 -20 -15.5 -31.5t-38.5 -11.5q-20 0 -33.5 11.5t-13.5 31.5zM772 45v881q0 18 13.5 29.5t33.5 11.5q23 0 38 -11.5t15 -29.5v-881q0 -16 -15 -30.5t-38 -14.5q-20 0 -33.5 14.5t-13.5 30.5z" />
<glyph unicode="&#xfb02;" horiz-adv-x="1024" d="M135 43v1147q0 88 35 158.5t93.5 120t134 75t155.5 25.5q86 0 173 -35t146 -107v-1382q0 -16 -14 -30.5t-37 -14.5q-20 0 -34.5 14.5t-14.5 30.5v1354q-45 45 -103.5 66.5t-117.5 21.5t-116.5 -20.5t-101.5 -58.5t-70.5 -93t-26.5 -123v-225h274q16 0 28.5 -13.5 t12.5 -29.5q0 -18 -12.5 -31.5t-28.5 -13.5h-274v-836q0 -20 -15.5 -31.5t-38.5 -11.5q-20 0 -33.5 11.5t-13.5 31.5z" />
<glyph horiz-adv-x="0" />
<glyph unicode="&#xd;" horiz-adv-x="0" />
<glyph unicode=" "  horiz-adv-x="409" />
<glyph unicode="&#x09;" horiz-adv-x="409" />
<glyph unicode="&#xa0;" horiz-adv-x="409" />
<glyph unicode="!" horiz-adv-x="405" d="M121 72q0 35 23.5 59.5t58.5 24.5t58.5 -25t23.5 -59q0 -35 -23.5 -59.5t-58.5 -24.5t-58.5 24.5t-23.5 59.5zM137 1458q0 35 17.5 52.5t46.5 17.5t48 -17.5t19 -52.5q0 -268 -12 -550.5t-12 -551.5q0 -18 -14.5 -28.5t-28.5 -10.5q-16 0 -28.5 10.5t-12.5 28.5 q0 268 -11.5 551t-11.5 551z" />
<glyph unicode="&#x22;" horiz-adv-x="536" d="M84 1534q0 16 18.5 27.5t36.5 11.5t39 -11.5t21 -27.5l-21 -307q0 -16 -9 -29.5t-30 -13.5q-20 0 -27.5 13t-7.5 30zM338 1534q0 16 19.5 27.5t37.5 11.5t38 -11.5t20 -27.5l-21 -307q0 -16 -9 -29.5t-28 -13.5q-20 0 -28.5 13t-8.5 30z" />
<glyph unicode="#" horiz-adv-x="1153" d="M59 575q0 16 9.5 28.5t23.5 12.5h232l51 347h-207q-43 0 -43 41q0 16 9 28t24 12h231l62 390q3 26 36 26q25 0 38.5 -14t13.5 -35l-58 -367h269l61 390q4 27 37 26q25 0 38 -14t13 -35l-57 -367h211q14 0 28.5 -11t14.5 -29q0 -16 -10.5 -28.5t-22.5 -12.5h-234l-55 -347 h211q16 0 30.5 -11t14.5 -32q0 -16 -10 -27t-25 -11h-235l-64 -429q-4 -16 -16 -25t-29 -9q-20 0 -33.5 12t-13.5 37l64 414h-267l-65 -426q-4 -20 -16.5 -28.5t-24.5 -8.5q-20 0 -34.5 12t-14.5 37l61 414h-205q-43 0 -43 40zM416 616h266l53 347h-266z" />
<glyph unicode="$" horiz-adv-x="1001" d="M84 221q0 20 15.5 39t31.5 19t34.5 -27t55.5 -58.5t99.5 -59.5t164.5 -28v646q-68 23 -132 47t-116.5 65t-84 104.5t-31.5 161.5q0 96 32.5 161t85 104t118 56t128.5 22v63q0 14 12.5 25.5t30.5 11.5q16 0 28.5 -11.5t12.5 -25.5v-61q57 -2 111.5 -12.5t96.5 -26 t67.5 -36t25.5 -40.5q0 -16 -13 -38t-34 -22q-12 0 -30.5 10.5t-48 25t-72.5 25.5t-103 15v-545q63 -23 124 -52t108 -76.5t76.5 -119t29.5 -177.5q0 -92 -24.5 -162t-69.5 -118t-106.5 -77t-137.5 -37v-82q0 -14 -12 -25t-29 -11q-18 0 -30.5 11t-12.5 25v78 q-98 0 -172.5 24.5t-125 58.5t-77 70t-26.5 60zM219 1141q0 -68 22.5 -113t59.5 -75.5t86 -52t102 -40.5v516q-53 -4 -101 -17t-86 -41t-60.5 -71t-22.5 -106zM567 113q117 16 178.5 87.5t61.5 196.5q0 74 -19.5 126t-52.5 89t-76 62.5t-92 46.5v-608z" />
<glyph unicode="%" horiz-adv-x="1531" d="M88 956v316q0 61 18.5 103t51 70t78 40t96.5 12t96 -12t78 -40t51 -70t18 -103v-316q0 -61 -18 -104t-51 -69.5t-78 -39t-96 -12.5t-96.5 12.5t-78 39t-51 69.5t-18.5 104zM174 956q0 -78 42 -112.5t116 -34.5q76 0 118 35t42 112v316q0 78 -42 112.5t-118 34.5 q-74 0 -116 -34.5t-42 -112.5v-316zM336 -8q0 14 4 22l793 1538q4 12 13 16.5t19 4.5q16 0 31.5 -12.5t15.5 -34.5q0 -10 -6 -23l-786 -1523q-12 -27 -41 -27q-16 0 -29.5 11t-13.5 28zM956 219v316q0 61 18.5 103t51.5 69.5t78 40t96 12.5t96 -12.5t78 -40t51.5 -69.5 t18.5 -103v-316q0 -61 -18.5 -104t-51.5 -70t-78 -39t-96 -12t-96 12t-78 39t-51.5 70t-18.5 104zM1042 219q0 -78 42 -112.5t116 -34.5q76 0 118 34.5t42 112.5v316q0 78 -42 112.5t-118 34.5q-74 0 -116 -35t-42 -112v-316z" />
<glyph unicode="&#x26;" horiz-adv-x="1232" d="M78 412q0 80 24.5 144.5t64.5 114.5t90 87t103 59q-31 37 -61.5 78t-54 86t-39 96t-15.5 113q0 82 29 145.5t77 107.5t112.5 66.5t136.5 22.5q82 0 142.5 -22.5t99 -52.5t57 -61.5t18.5 -49.5q0 -20 -13 -34t-34 -14q-18 0 -33.5 22.5t-42 50.5t-70.5 50.5t-116 22.5 q-119 0 -185.5 -72t-66.5 -190q0 -111 56.5 -196t129.5 -165l437 -483q47 106 60 215t15 184q0 49 48 49q43 0 43 -59q0 -29 -3.5 -80t-13.5 -114.5t-29.5 -132t-52.5 -134.5l193 -211q12 -14 12 -24q0 -18 -15.5 -30.5t-31.5 -12.5t-31 14l-176 188q-61 -92 -160.5 -151 t-246.5 -59q-111 0 -196 34.5t-143.5 94t-88 138.5t-29.5 165zM182 422q0 -68 24.5 -131.5t71 -110.5t115 -75.5t158.5 -28.5q123 0 200.5 51t125.5 131l-457 492q-37 -20 -79 -48t-77 -66t-58.5 -91t-23.5 -123z" />
<glyph unicode="'" horiz-adv-x="282" d="M84 1534q0 16 18.5 27.5t36.5 11.5t39 -11.5t21 -27.5l-21 -307q0 -16 -9 -29.5t-30 -13.5q-20 0 -27.5 13t-7.5 30z" />
<glyph unicode="(" horiz-adv-x="591" d="M133 301v901q0 74 28.5 141.5t78 118.5t117 81t145.5 30q25 0 37 -14.5t12 -32.5q0 -20 -12.5 -34.5t-28.5 -14.5q-66 0 -116 -23.5t-85 -62.5t-53 -88.5t-18 -100.5v-901q0 -76 25.5 -124t65.5 -74.5t88 -37t93 -10.5q25 0 33 -15t8 -32q0 -49 -49 -49 q-80 0 -147.5 22.5t-117 66.5t-77 107.5t-27.5 145.5z" />
<glyph unicode=")" horiz-adv-x="591" d="M41 8q0 16 9 31.5t34 15.5q45 0 93 10.5t88 37t65.5 74.5t25.5 124v901q0 51 -18.5 100.5t-53 88.5t-84.5 62.5t-116 23.5q-16 0 -29.5 14t-13.5 35q0 18 13.5 32.5t35.5 14.5q80 0 147.5 -30t116.5 -81t77 -118.5t28 -141.5v-901q0 -82 -28 -145.5t-76 -107.5 t-115.5 -66.5t-147.5 -22.5q-51 0 -51 49z" />
<glyph unicode="*" horiz-adv-x="864" d="M74 1223q0 18 12 34.5t33 16.5q8 0 12 -4l266 -92l-10 276q0 23 14.5 33t30.5 10t30.5 -10t14.5 -33l-10 -278l266 94q12 4 15 4q18 0 30.5 -17.5t12.5 -33.5q0 -33 -29 -41l-266 -76l172 -227q6 -10 6 -23q0 -20 -15.5 -33.5t-35.5 -13.5q-6 0 -15.5 3t-15.5 13 l-160 234l-160 -236q-12 -14 -28 -14t-35 11t-19 34q0 12 11 27l168 223l-269 78q-27 8 -26 41z" />
<glyph unicode="+" horiz-adv-x="876" d="M68 492q0 20 11 33.5t30 13.5h282v280q0 16 13.5 30.5t33.5 14.5q23 0 35 -14t12 -31v-280h279q16 0 30.5 -13.5t14.5 -33.5t-14.5 -33t-30.5 -13h-279v-282q0 -18 -12 -30.5t-35 -12.5q-20 0 -33.5 12t-13.5 31v282h-282q-41 0 -41 46z" />
<glyph unicode="," horiz-adv-x="339" d="M86 72q0 35 23.5 59.5t58.5 24.5q31 0 57.5 -22.5t26.5 -63.5q0 -6 -1 -15.5t-8 -31t-21.5 -61.5t-41.5 -103q-10 -23 -35 -23q-16 0 -28.5 8.5t-12.5 24.5q0 10 2 18l39 105q-27 8 -43 29.5t-16 50.5z" />
<glyph unicode="-" horiz-adv-x="819" d="M100 492q0 20 12.5 33.5t30.5 13.5h533q16 0 29.5 -13.5t13.5 -33.5t-13.5 -33t-29.5 -13h-533q-18 0 -30.5 13t-12.5 33z" />
<glyph unicode="." horiz-adv-x="337" d="M86 72q0 35 23.5 59.5t60.5 24.5q33 0 57.5 -25t24.5 -59q0 -35 -24.5 -59.5t-57.5 -24.5q-37 0 -60.5 24.5t-23.5 59.5z" />
<glyph unicode="/" horiz-adv-x="962" d="M43 -8q0 14 4 22l791 1538q9 21 34 21q16 0 32 -12.5t16 -34.5q0 -12 -9 -23l-784 -1523q-14 -27 -43 -27q-16 0 -28.5 11t-12.5 28z" />
<glyph unicode="0" horiz-adv-x="1079" d="M127 418v649q0 117 31.5 199t87 133t130.5 74.5t163 23.5q86 0 161.5 -23.5t132 -74.5t88 -133t31.5 -199v-649q0 -117 -31.5 -199t-88 -133t-132 -74.5t-161.5 -23.5q-88 0 -163 23.5t-130.5 74.5t-87 133t-31.5 199zM229 418q0 -172 81 -252t229 -80q147 0 229 80 t82 252v649q0 172 -82 252t-229 80t-228.5 -80t-81.5 -252v-649zM471 741q0 29 19.5 48.5t50.5 19.5q29 0 48 -19.5t19 -48.5t-19.5 -49t-47.5 -20q-31 0 -50.5 20.5t-19.5 48.5z" />
<glyph unicode="1" horiz-adv-x="450" d="M33 1161q0 10 9 27.5t15 25.5l152 250q8 14 18.5 23.5t30.5 9.5q16 0 30.5 -10t14.5 -33v-1409q0 -23 -16.5 -34t-34.5 -11q-20 0 -35.5 11.5t-15.5 33.5v1243l-86 -147q-14 -27 -37 -27q-20 0 -32.5 14.5t-12.5 32.5z" />
<glyph unicode="2" horiz-adv-x="958" d="M76 45v199q0 86 52 156.5t129 135t168 127t168 129t129 143.5t52 171q0 51 -17.5 104.5t-54 94.5t-93 67.5t-132.5 26.5q-115 0 -189.5 -64.5t-74.5 -193.5q0 -16 -13.5 -29.5t-41.5 -13.5q-25 0 -36 15t-11 54q0 70 27.5 130.5t77.5 104.5t117.5 69.5t147.5 25.5 q88 0 161 -30.5t125 -84t81 -123t29 -149.5q0 -111 -52.5 -198t-129.5 -158.5t-168 -134t-167.5 -122t-129 -121t-52.5 -132.5v-146h676q16 0 28.5 -14t12.5 -35q0 -18 -12.5 -33.5t-28.5 -15.5h-729q-16 0 -32.5 11.5t-16.5 33.5z" />
<glyph unicode="3" horiz-adv-x="983" d="M63 317q0 37 12.5 50.5t35.5 13.5q31 0 42 -14.5t11 -34.5q0 -33 13 -75t47 -80t94.5 -64.5t152.5 -26.5q152 0 233.5 79t81.5 249v39q0 147 -84 218.5t-225 71.5q-23 0 -34 15.5t-11 32.5q0 18 10.5 32.5t32.5 14.5q68 0 119 14t86 47t52.5 86t17.5 131q0 141 -62.5 213 t-204.5 72q-88 0 -143 -24.5t-86 -61.5t-41 -79t-10 -75q0 -57 -51 -57q-29 0 -40.5 14.5t-11.5 55.5q0 39 15.5 94t58.5 106t119 87t196 36q80 0 146.5 -19.5t115 -61.5t74 -110.5t25.5 -166.5q0 -145 -50 -229.5t-120 -118.5q92 -39 150.5 -119t58.5 -219v-39 q0 -117 -33 -198t-88 -131t-130 -73.5t-161 -23.5q-104 0 -182 30.5t-129 77.5t-77 106.5t-26 114.5z" />
<glyph unicode="4" horiz-adv-x="878" d="M18 403q0 14 9 31l520 1028q10 18 23.5 26.5t27.5 8.5q16 0 32.5 -12t16.5 -31q0 -12 -6 -24l-491 -971h440v440q0 23 16.5 32t34.5 9q20 0 35.5 -9t15.5 -32v-440h117q23 0 34 -15.5t11 -33.5q0 -20 -11.5 -36t-33.5 -16h-117v-313q0 -23 -15 -34t-36 -11 q-18 0 -34.5 11.5t-16.5 33.5v313h-527q-23 0 -34 13.5t-11 31.5z" />
<glyph unicode="5" horiz-adv-x="956" d="M61 330q0 29 14.5 41t35.5 12q53 0 53 -45q0 -59 24.5 -106.5t66.5 -80t98.5 -49t119.5 -16.5q147 0 229 80t82 250v39q0 164 -81.5 241.5t-227.5 77.5h-280q-39 0 -49.5 12.5t-10.5 28.5q0 4 1 18.5t1 18.5l39 600q4 45 39 45h559q20 0 29.5 -15.5t9.5 -33.5t-9 -33.5 t-30 -15.5h-502l-36 -531h239q86 0 162 -22.5t131 -71.5t87 -128t32 -191v-39q0 -117 -32 -199t-88 -132t-132 -73.5t-162 -23.5q-98 0 -174 27.5t-129 73.5t-81 108.5t-28 132.5z" />
<glyph unicode="6" horiz-adv-x="1046" d="M127 418v649q0 117 31.5 199t88 133t132.5 74.5t164 23.5q98 0 174 -28.5t128 -75.5t79.5 -109.5t27.5 -130.5q0 -29 -13 -40t-34 -11q-20 0 -37.5 11t-17.5 36q0 57 -24.5 103t-66.5 79t-98.5 50.5t-119.5 17.5q-147 0 -228.5 -80t-81.5 -252v-336q53 76 136.5 111 t181.5 35q86 0 159.5 -19.5t128 -67t85 -125t30.5 -194.5v-53q0 -117 -31.5 -199t-87 -133t-130 -74.5t-162.5 -23.5q-86 0 -162 23.5t-132.5 74.5t-88 133t-31.5 199zM231 414q0 -170 81 -250t229 -80q147 0 228 80t81 250v55q0 170 -82 241.5t-227 71.5 q-141 0 -225.5 -66.5t-84.5 -228.5v-73z" />
<glyph unicode="7" horiz-adv-x="921" d="M61 1147v305q0 16 15.5 30.5t34.5 14.5h727q16 0 32.5 -14.5t16.5 -30.5v-160q0 -18 -13 -37l-630 -1232q-14 -25 -37 -25q-25 0 -43.5 12.5t-18.5 34.5q0 6 9 27l630 1222v105h-620v-252q0 -18 -15.5 -31.5t-35.5 -13.5q-23 0 -37.5 13t-14.5 32z" />
<glyph unicode="8" horiz-adv-x="1011" d="M94 410v24q0 160 59.5 250t157.5 131q-80 35 -129 113t-49 213q0 100 28.5 168.5t79 110.5t118 59.5t147.5 17.5t148.5 -17.5t118.5 -59.5t79 -110.5t29 -168.5q0 -135 -49.5 -213t-129.5 -113q98 -41 157 -131t59 -250v-24q0 -115 -32 -195t-87.5 -131t-130 -73.5 t-162.5 -22.5q-86 0 -162 22.5t-131 73.5t-87 131t-32 195zM197 414q0 -170 82.5 -251t228.5 -81q145 0 226 82t81 250v26q0 170 -82 248t-227 78t-227 -78t-82 -248v-26zM236 1135q0 -145 70.5 -209t199.5 -64t200.5 63.5t71.5 209.5q0 145 -71.5 206.5t-200.5 61.5 t-199.5 -61.5t-70.5 -206.5z" />
<glyph unicode="9" horiz-adv-x="1044" d="M94 332q0 51 47 51q20 0 37 -11.5t17 -35.5q0 -57 24.5 -103.5t67.5 -79t99 -50t120 -17.5q147 0 228 80t81 252v336q-53 -76 -136 -111t-183 -35q-84 0 -158 19.5t-128 66.5t-85 125t-31 195v53q0 117 32 199t87 133t130 74.5t161 23.5q88 0 163.5 -23.5t131 -74.5 t87.5 -133t32 -199v-649q0 -117 -32 -199t-87.5 -133t-131 -74.5t-163.5 -23.5q-98 0 -175 28.5t-129.5 75.5t-79 109.5t-26.5 130.5zM197 1016q0 -170 81.5 -242t227.5 -72q141 0 225 67t84 228v74q0 170 -82 250t-229 80q-145 0 -226 -80t-81 -250v-55z" />
<glyph unicode=":" horiz-adv-x="407" d="M121 72q0 35 23.5 59.5t60.5 24.5q33 0 57.5 -25t24.5 -59q0 -35 -24.5 -59.5t-57.5 -24.5q-37 0 -60.5 24.5t-23.5 59.5zM121 780q0 35 23.5 59.5t60.5 24.5q33 0 57.5 -24.5t24.5 -59.5t-24.5 -59.5t-57.5 -24.5q-37 0 -60.5 24.5t-23.5 59.5z" />
<glyph unicode=";" horiz-adv-x="413" d="M123 72q0 35 23.5 59.5t58.5 24.5q31 0 57.5 -22.5t26.5 -63.5q0 -6 -1 -15.5t-8.5 -31t-21.5 -61.5t-41 -103q-10 -23 -35 -23q-16 0 -28.5 8.5t-12.5 24.5q0 10 2 18l39 105q-27 8 -43 29.5t-16 50.5zM127 780q0 35 23.5 59.5t60.5 24.5q33 0 57.5 -24.5t24.5 -59.5 t-24.5 -59.5t-57.5 -24.5q-37 0 -60.5 24.5t-23.5 59.5z" />
<glyph unicode="&#x3c;" horiz-adv-x="811" d="M55 567q0 33 27 47l557 369q8 8 20 8q18 0 35 -13t17 -36t-21 -37l-508 -338l508 -336q20 -14 21 -36q0 -23 -16.5 -36.5t-35.5 -13.5q-12 0 -20 9l-557 368q-27 14 -27 45z" />
<glyph unicode="=" horiz-adv-x="886" d="M143 350q0 20 12.5 34.5t30.5 14.5h514q16 0 29.5 -14t13.5 -35q0 -20 -13 -32.5t-30 -12.5h-514q-18 0 -30.5 12.5t-12.5 32.5zM143 766q0 20 12.5 34.5t30.5 14.5h514q16 0 29.5 -14.5t13.5 -34.5t-13 -32.5t-30 -12.5h-514q-18 0 -30.5 12.5t-12.5 32.5z" />
<glyph unicode="&#x3e;" horiz-adv-x="811" d="M100 195q0 23 21 36l508 336l-508 338q-20 14 -21 37q0 23 16.5 36t33.5 13q12 0 22 -8l557 -369q10 -6 18.5 -19.5t8.5 -27.5q0 -31 -27 -45l-557 -368q-10 -8 -22 -9q-16 0 -33 13.5t-17 36.5z" />
<glyph unicode="?" horiz-adv-x="800" d="M49 1391q0 23 23.5 47t64.5 43.5t95.5 33t115.5 13.5q96 0 167 -29t118 -79t70.5 -117.5t23.5 -143.5q0 -100 -32.5 -174t-78 -129t-93.5 -97t-79 -79q-23 -27 -35 -57.5t-18 -68.5t-7 -86t-1 -110q0 -41 -45 -41q-18 0 -30.5 10.5t-12.5 37.5q0 88 5 148t15.5 101 t24.5 68t33 47q33 37 78 76t84.5 88t68.5 111.5t29 148.5q0 133 -73 209t-220 76q-66 0 -108 -14.5t-68.5 -32t-43 -31.5t-30.5 -14t-27.5 12t-13.5 33zM256 72q0 35 23.5 59.5t58.5 24.5t58.5 -25t23.5 -59q0 -35 -23.5 -59.5t-58.5 -24.5t-58.5 24.5t-23.5 59.5z" />
<glyph unicode="@" horiz-adv-x="1454" d="M117 446q0 141 34.5 267.5t111.5 220.5t196 148.5t289 54.5q299 0 457.5 -167t158.5 -489q0 -78 -11.5 -150.5t-38 -130t-71.5 -91t-113 -33.5q-76 0 -129 39t-67 88q-53 -53 -105.5 -80t-142.5 -27q-53 0 -100 11.5t-82 37t-55.5 67.5t-20.5 103q0 70 27.5 114t79 69.5 t126 35t166.5 9.5h95v41q0 92 -50.5 136t-160.5 44q-49 0 -81 -7t-52.5 -16.5t-34 -16.5t-25.5 -7q-18 0 -28.5 16.5t-10.5 28.5q0 18 23.5 34.5t59.5 29t81 19.5t88 7q135 0 208 -67.5t73 -190.5v-338q4 -45 43 -74.5t82 -29.5t71.5 30.5t44 77.5t21.5 103.5t6 109.5 q0 268 -133 422t-406 154q-154 0 -257 -50.5t-165.5 -133.5t-90 -191.5t-27.5 -224.5q0 -109 24.5 -210.5t80.5 -179t147.5 -125t224.5 -47.5q70 0 119 10.5t83.5 21.5t56 21.5t36.5 10.5q16 0 26.5 -12.5t10.5 -22.5q0 -18 -31 -37.5t-79 -37t-109.5 -28t-122.5 -10.5 q-106 0 -206 38t-176.5 116t-122.5 200t-46 289zM520 313q0 -74 49 -106.5t121 -32.5q55 0 99.5 15.5t74 40t45 53t15.5 57.5v127h-90q-68 0 -125.5 -4t-99.5 -20.5t-65.5 -47t-23.5 -82.5z" />
<glyph unicode="A" horiz-adv-x="1085" d="M47 45q0 8 2 12l438 1416q12 36 56 36h2q18 0 34.5 -9t22.5 -27l434 -1416q0 -4 1 -6t1 -6q0 -18 -18.5 -31.5t-40.5 -13.5q-33 0 -41 31l-100 325h-590l-98 -325q-11 -31 -46 -31q-20 0 -38.5 11.5t-18.5 33.5zM274 451h535l-264 874z" />
<glyph unicode="B" horiz-adv-x="1089" d="M162 43v1409q0 23 15.5 34t33.5 11h319q88 0 165 -13.5t133.5 -51t89 -105t32.5 -174.5q0 -133 -48 -220t-126 -122q47 -20 86 -49t66.5 -71t43 -99t15.5 -137v-37q0 -117 -30.5 -197t-85 -129t-128 -70.5t-159.5 -21.5h-373q-23 0 -36 13.5t-13 29.5zM264 98h311 q145 0 227.5 77t82.5 247v35q0 84 -21.5 142t-61.5 95t-97.5 53.5t-129.5 16.5h-311v-666zM264 858h277q78 0 136 14.5t96 48t56.5 88t18.5 136.5q0 80 -23.5 129t-65.5 76.5t-99.5 38t-127.5 10.5h-268v-541z" />
<glyph unicode="C" horiz-adv-x="1058" d="M147 418v649q0 117 34 199t90.5 133t132 74.5t161.5 23.5q98 0 175 -27.5t128.5 -73.5t78 -106.5t26.5 -124.5q0 -41 -13.5 -54t-37.5 -13q-31 0 -41.5 13.5t-10.5 29.5q-2 35 -14 80t-45 85t-92.5 66.5t-153.5 26.5q-154 0 -234.5 -80t-80.5 -252v-649q0 -174 81 -253 t240 -79q96 0 152.5 26.5t87.5 65.5t42 84t17 84q2 18 12.5 30.5t37.5 12.5t40 -13.5t13 -56.5q0 -63 -27.5 -123.5t-80 -106.5t-129.5 -73.5t-177 -27.5q-84 0 -158.5 23.5t-131 74.5t-89.5 133t-33 199z" />
<glyph unicode="D" horiz-adv-x="1134" d="M162 43v1411q0 16 13 29.5t36 13.5h362q86 0 162 -23.5t132.5 -74.5t88 -133t31.5 -199v-637q0 -117 -31.5 -198.5t-88 -133t-132.5 -75t-162 -23.5h-362q-23 0 -36 13.5t-13 29.5zM264 98h309q147 0 229.5 80t82.5 252v637q0 172 -82 252t-230 80h-309v-1301z" />
<glyph unicode="E" horiz-adv-x="1030" d="M162 45v1407q0 23 15.5 34t33.5 11h729q23 0 33 -15.5t10 -31.5q0 -20 -11 -35.5t-32 -15.5h-676v-602h326q20 0 31.5 -14.5t11.5 -34.5q0 -16 -10.5 -31t-32.5 -15h-326v-604h676q20 0 31.5 -15t11.5 -36q0 -16 -10 -31.5t-33 -15.5h-729q-18 0 -33.5 11.5t-15.5 33.5z " />
<glyph unicode="F" horiz-adv-x="1007" d="M162 43v1409q0 23 15.5 34t33.5 11h727q23 0 33 -15.5t10 -31.5q0 -20 -11.5 -35.5t-31.5 -15.5h-674v-602h326q20 0 31.5 -14.5t11.5 -34.5q0 -16 -10.5 -31t-32.5 -15h-326v-659q0 -23 -15.5 -33t-35.5 -10q-18 0 -34.5 10t-16.5 33z" />
<glyph unicode="G" horiz-adv-x="1097" d="M147 418v649q0 117 32 199t87.5 133t130 74.5t160.5 23.5q96 0 173 -26.5t131 -72.5t83 -109.5t29 -137.5q0 -29 -14.5 -41t-36.5 -12q-20 0 -35 10t-17 33q-16 129 -96 193.5t-215 64.5q-147 0 -228 -80t-81 -252v-649q0 -172 81 -252t228 -80t229 80t82 252v274h-303 q-20 0 -30.5 15.5t-10.5 31.5t10.5 31.5t30.5 15.5h363q20 0 31.5 -14t11.5 -33v-321q0 -117 -32 -199t-88 -133t-132 -74.5t-162 -23.5q-88 0 -162.5 23.5t-130 74.5t-87.5 133t-32 199z" />
<glyph unicode="H" horiz-adv-x="1153" d="M162 45v1409q0 23 16.5 33t34.5 10q20 0 35.5 -10t15.5 -33v-631h625v631q0 23 16.5 33t34.5 10q20 0 35.5 -10t15.5 -33v-1409q0 -23 -15 -34t-36 -11q-18 0 -34.5 11.5t-16.5 33.5v684h-625v-684q0 -23 -15.5 -34t-35.5 -11q-18 0 -34.5 11.5t-16.5 33.5z" />
<glyph unicode="I" horiz-adv-x="425" d="M162 45v1409q0 23 16.5 33t34.5 10q20 0 35.5 -10t15.5 -33v-1409q0 -23 -15.5 -34t-35.5 -11q-18 0 -34.5 11.5t-16.5 33.5z" />
<glyph unicode="J" horiz-adv-x="1030" d="M49 336q0 31 14.5 42t36.5 11q18 0 35 -10t17 -33q2 -129 89 -194.5t222 -65.5q147 0 228 80t81 252v981h-307q-23 0 -33 15.5t-10 35.5q0 16 10 31.5t33 15.5h360q18 0 33.5 -11t15.5 -34v-1034q0 -117 -31.5 -199t-87 -133t-130 -74.5t-160.5 -23.5q-96 0 -173 26.5 t-131.5 72.5t-83 110.5t-28.5 138.5z" />
<glyph unicode="K" horiz-adv-x="1052" d="M162 45v1409q0 23 16.5 33t34.5 10q20 0 35.5 -10t15.5 -33v-766l629 793q6 10 15.5 13t19.5 3q20 0 37.5 -16.5t17.5 -36.5q0 -16 -10 -25l-457 -569l516 -778q8 -8 8 -23q0 -20 -17 -35.5t-40 -15.5q-25 0 -39 25l-495 741l-185 -229v-490q0 -23 -15.5 -34t-35.5 -11 q-18 0 -34.5 11.5t-16.5 33.5z" />
<glyph unicode="L" horiz-adv-x="935" d="M162 45v1409q0 23 16.5 33t34.5 10q20 0 35.5 -10t15.5 -33v-1356h604q20 0 29.5 -15t9.5 -34q0 -18 -9 -33.5t-30 -15.5h-657q-18 0 -33.5 11.5t-15.5 33.5z" />
<glyph unicode="M" horiz-adv-x="1349" d="M162 45v1403q0 29 15.5 39t35.5 10q27 0 49.5 -28.5t36.5 -55.5l375 -733l377 733q14 27 35.5 55.5t50.5 28.5q20 0 35.5 -10t15.5 -39v-1403q0 -23 -16.5 -34t-34.5 -11q-20 0 -36 11.5t-16 33.5v1219l-364 -697q-12 -23 -25.5 -33t-21.5 -10q-27 0 -47 43l-363 699 v-1221q0 -23 -15.5 -34t-35.5 -11q-18 0 -34.5 11.5t-16.5 33.5z" />
<glyph unicode="N" horiz-adv-x="1153" d="M162 45v1409q0 25 15.5 34t35.5 9q29 0 49.5 -28.5t34.5 -55.5l592 -1169v1210q0 23 16.5 33t34.5 10q20 0 35.5 -10t15.5 -33v-1409q0 -23 -15.5 -34t-35.5 -11q-23 0 -41 24.5t-33 51.5l-602 1179v-1210q0 -23 -15.5 -34t-35.5 -11q-18 0 -34.5 11.5t-16.5 33.5z" />
<glyph unicode="O" horiz-adv-x="1120" d="M147 418v649q0 117 32 199t87.5 133t130 74.5t162.5 23.5q86 0 162 -23.5t132 -74.5t88 -133t32 -199v-649q0 -117 -32 -199t-88 -133t-132 -74.5t-162 -23.5q-88 0 -162.5 23.5t-130 74.5t-87.5 133t-32 199zM250 418q0 -172 81 -252t228 -80t229 80t82 252v649 q0 172 -81.5 252t-229.5 80q-147 0 -228 -80t-81 -252v-649z" />
<glyph unicode="P" horiz-adv-x="1062" d="M162 45v1409q0 39 47 43h369q86 0 161.5 -23.5t131 -73.5t87 -132t31.5 -199v-22q0 -117 -31.5 -199t-88 -133t-132 -75t-162.5 -24h-311v-571q0 -23 -15.5 -34t-35.5 -11q-18 0 -34.5 11.5t-16.5 33.5zM264 711h311q147 0 229.5 80.5t82.5 252.5v23q0 172 -82 252 t-230 80h-311v-688z" />
<glyph unicode="Q" horiz-adv-x="1120" d="M147 418v649q0 117 32 199t87.5 133t130 74.5t162.5 23.5q86 0 162 -23.5t132 -74.5t88 -133t32 -199v-649q0 -111 -27.5 -189.5t-77 -130t-117 -78t-147.5 -30.5v-168q0 -23 -13.5 -34t-29.5 -11t-30.5 11t-14.5 34v168q-80 4 -147.5 29.5t-116.5 76.5t-77 131t-28 191z M250 418q0 -160 68.5 -240t197.5 -90v162q0 23 14.5 33t30.5 10t29.5 -10.5t13.5 -32.5v-160q125 10 195.5 90t70.5 238v649q0 172 -81.5 252t-229.5 80q-147 0 -228 -80t-81 -252v-649z" />
<glyph unicode="R" horiz-adv-x="1056" d="M162 45v1409q0 16 11 29.5t34 13.5h350q86 0 165 -19.5t138.5 -65.5t94 -123t34.5 -189q0 -96 -25.5 -166t-70.5 -117t-106.5 -72.5t-131.5 -35.5l328 -635q6 -12 6 -25q0 -20 -14 -35.5t-41 -15.5q-18 0 -34.5 24.5t-29.5 47.5l-321 628h-285v-653q0 -23 -15.5 -34 t-35.5 -11q-18 0 -34.5 11.5t-16.5 33.5zM264 793h293q74 0 134.5 16t103.5 53t67.5 95.5t24.5 140.5t-24.5 139t-67.5 93t-103.5 52.5t-134.5 16.5h-293v-606z" />
<glyph unicode="S" horiz-adv-x="997" d="M80 201q0 20 15.5 38.5t31.5 18.5q18 0 37.5 -26.5t55.5 -59.5t96.5 -59.5t160.5 -26.5q158 0 242 77t84 230q0 92 -30 152.5t-78 100.5t-109.5 65.5t-126 48t-126 49.5t-109.5 68t-77.5 103t-29.5 157q0 111 40 181.5t101 110t135 55t142 15.5q61 0 120.5 -9 t106.5 -25.5t76.5 -38t29.5 -44.5q0 -16 -13 -37.5t-34 -21.5q-12 0 -33.5 12.5t-55.5 26.5t-83 26.5t-117 12.5q-57 0 -113.5 -11.5t-100.5 -41t-71.5 -78.5t-27.5 -125q0 -102 51.5 -157.5t127 -90.5t164.5 -61.5t165 -74.5t127 -131t51 -227q0 -109 -31.5 -187.5 t-87 -129.5t-132 -74.5t-167.5 -23.5q-98 0 -173.5 23.5t-128 57t-79 70.5t-26.5 62z" />
<glyph unicode="T" horiz-adv-x="958" d="M31 1448q0 18 11 33.5t32 15.5h811q23 0 33 -14.5t10 -32.5t-10.5 -34.5t-32.5 -16.5h-353v-1354q0 -23 -16 -34t-35 -11q-20 0 -35.5 11.5t-15.5 33.5v1354h-356q-20 0 -31.5 15.5t-11.5 33.5z" />
<glyph unicode="U" horiz-adv-x="1140" d="M156 418v1036q0 23 16 33t35 10q20 0 35.5 -10t15.5 -33v-1036q0 -172 82 -252t229 -80t230.5 80t83.5 252v1036q0 23 15 33t36 10q18 0 34.5 -10t16.5 -33v-1036q0 -117 -31.5 -199t-88 -133t-132.5 -74.5t-164 -23.5t-163.5 23.5t-131 74.5t-87 133t-31.5 199z" />
<glyph unicode="V" horiz-adv-x="1081" d="M45 1452q0 23 18.5 34t38.5 11q35 0 45 -31l396 -1294l393 1294q8 31 41 31q23 0 41 -13.5t18 -31.5q0 -4 -1 -6t-1 -6l-434 -1415q-4 -18 -21.5 -27.5t-35.5 -9.5q-45 0 -58 37l-438 1415q-2 4 -2 12z" />
<glyph unicode="W" horiz-adv-x="1560" d="M49 1454q0 20 17.5 31.5t37.5 11.5q16 0 29.5 -7t18.5 -24l362 -1294l209 776q4 20 20.5 30.5t34.5 10.5q16 0 33.5 -10t24.5 -31l215 -776l358 1294q4 16 17.5 23.5t29.5 7.5q20 0 37.5 -11t17.5 -32q0 -8 -2 -14l-401 -1415q-6 -18 -23.5 -27.5t-35.5 -9.5t-35 9 t-21 28l-211 766l-211 -766q-4 -18 -20 -27.5t-37 -9.5q-20 0 -36.5 9t-20.5 28l-406 1415q-2 6 -2 14z" />
<glyph unicode="X" horiz-adv-x="952" d="M53 49q0 6 2 12.5t6 14.5l353 674l-346 667q-12 20 -13 39q0 20 16.5 31.5t41.5 11.5q23 0 38 -23.5t27 -48.5l297 -579l299 579q12 23 27.5 47.5t38.5 24.5q25 0 41 -11t16 -32q0 -18 -12 -39l-348 -667l354 -674q4 -8 6 -14.5t2 -12.5q0 -23 -17.5 -37t-39.5 -14 q-23 0 -37 23.5t-25 46.5l-305 585l-303 -585q-10 -23 -24.5 -46.5t-36.5 -23.5q-20 0 -39 14.5t-19 36.5z" />
<glyph unicode="Y" horiz-adv-x="1064" d="M43 1452q0 23 15.5 34t33.5 11q25 0 47 -37l393 -788l396 788q18 37 47 37q16 0 30.5 -11t14.5 -34q0 -6 -1 -16.5t-7 -22.5l-426 -833q-2 -4 -2 -15v-520q0 -23 -16.5 -34t-35.5 -11q-20 0 -35.5 11.5t-15.5 33.5v520q0 6 -4 15l-424 833q-10 27 -10 39z" />
<glyph unicode="Z" horiz-adv-x="970" d="M53 41q0 18 10 35l701 1323h-645q-23 0 -33 15.5t-10 33.5t10 33.5t33 15.5h735q43 0 43 -37q0 -23 -12 -43l-699 -1319h691q23 0 33 -15t10 -34q0 -18 -10.5 -33.5t-32.5 -15.5h-781q-43 0 -43 41z" />
<glyph unicode="[" horiz-adv-x="600" d="M145 0v1530q0 18 14.5 30.5t35.5 12.5h323q18 0 29.5 -14.5t11.5 -32.5q0 -20 -12 -34.5t-29 -14.5h-270v-1424h270q16 0 28.5 -14t12.5 -35q0 -18 -11 -32.5t-30 -14.5h-323q-18 0 -34 11.5t-16 31.5z" />
<glyph unicode="\" horiz-adv-x="704" d="M53 1497q0 23 14.5 35t32.5 12q27 0 37 -22l512 -1469q2 -4 2 -14q0 -16 -13 -27.5t-30 -11.5q-33 0 -41 29l-510 1452q-4 12 -4 16z" />
<glyph unicode="]" horiz-adv-x="602" d="M41 4q0 20 12.5 34.5t30.5 14.5h270v1424h-270q-18 0 -30.5 14t-12.5 35q0 18 12.5 32.5t30.5 14.5h324q20 0 34.5 -12.5t14.5 -30.5v-1530q0 -20 -15.5 -31.5t-33.5 -11.5h-324q-18 0 -30.5 14.5t-12.5 32.5z" />
<glyph unicode="^" horiz-adv-x="540" d="M0 1268q0 23 23 35l213 114q16 10 34 10t35 -10l213 -112q23 -12 23 -41q0 -16 -11.5 -28.5t-27.5 -12.5q-4 0 -9.5 2t-9.5 4l-213 112l-213 -114l-8 -4t-8 -2q-16 0 -28.5 13t-12.5 34z" />
<glyph unicode="_" horiz-adv-x="700" d="M-20 -47q0 20 12 33.5t31 13.5h655q16 0 29.5 -13.5t13.5 -33.5t-13.5 -32.5t-29.5 -12.5h-655q-18 0 -30.5 12.5t-12.5 32.5z" />
<glyph unicode="`" horiz-adv-x="292" d="M0 1380q0 16 11.5 31.5t29.5 15.5q6 0 14 -4l219 -125q18 -8 19 -30q0 -18 -13.5 -32.5t-31.5 -14.5q-8 0 -21 6l-204 112q-23 14 -23 41z" />
<glyph unicode="a" horiz-adv-x="882" d="M68 258q0 82 34.5 135t97 84t150.5 43t195 12h110v54q0 53 -14 107.5t-45 97.5t-80 69.5t-119 26.5q-49 0 -85 -9.5t-61.5 -19.5t-41.5 -19.5t-27 -9.5q-23 0 -34 19.5t-11 36.5q0 16 23.5 33.5t61.5 31t85 21.5t94 8q98 0 166 -33t110 -88t60.5 -125.5t18.5 -146.5v-541 q0 -18 -13.5 -31.5t-35.5 -13.5q-20 0 -35 13.5t-15 31.5v98q-53 -59 -128.5 -107t-178.5 -48q-59 0 -110.5 16t-90 50t-60 84t-21.5 120zM168 262q0 -96 56.5 -140t140.5 -44q53 0 105 21.5t93 55t66.5 71.5t25.5 73v152h-100q-76 0 -145.5 -5.5t-124 -25t-86 -57 t-31.5 -101.5z" />
<glyph unicode="b" horiz-adv-x="972" d="M135 45v1481q0 18 13 30.5t36 12.5t37.5 -12.5t14.5 -30.5v-703q35 59 102.5 107.5t169.5 48.5q76 0 142.5 -29.5t116.5 -80t80 -119t30 -146.5v-237q0 -74 -30 -142.5t-80 -121t-115.5 -84t-139.5 -31.5q-94 0 -169 46t-110 109v-98q0 -16 -14 -30.5t-35 -14.5 q-23 0 -36 14.5t-13 30.5zM236 297q0 -25 20 -61.5t56 -70.5t85 -58.5t107 -24.5q55 0 104 23.5t87 63.5t59.5 91t21.5 107v237q0 53 -21.5 103.5t-59.5 90.5t-88 63.5t-105 23.5q-49 0 -97.5 -19.5t-85 -55.5t-60 -88t-23.5 -118v-307z" />
<glyph unicode="c" horiz-adv-x="831" d="M100 367v233q0 80 22.5 149.5t71 120t121 80t170.5 29.5q63 0 114.5 -13.5t87.5 -32t55.5 -40t19.5 -39.5t-13.5 -33.5t-33.5 -15.5q-12 0 -27.5 12t-40 27.5t-63.5 28t-97 12.5q-141 0 -213.5 -76t-72.5 -209v-233q0 -133 72.5 -209t215.5 -76q61 0 101.5 12t66 27.5 t42 29t30.5 13.5q18 0 31.5 -16.5t13.5 -32.5q0 -18 -20.5 -41t-57.5 -41.5t-90 -31.5t-121 -13q-98 0 -170.5 28.5t-120 78.5t-71 120t-23.5 152z" />
<glyph unicode="d" horiz-adv-x="974" d="M98 367v237q0 78 30 146.5t80 119t116.5 80t142.5 29.5q102 0 170 -48t102 -108v703q0 18 14.5 30.5t37.5 12.5t36 -12.5t13 -30.5v-1481q0 -16 -13.5 -30.5t-35.5 -14.5q-20 0 -35 14.5t-15 30.5v98q-35 -63 -109.5 -109t-168.5 -46q-74 0 -139.5 31.5t-115.5 84 t-80 121t-30 142.5zM199 367q0 -55 21.5 -106.5t59 -91.5t87 -63.5t104.5 -23.5q57 0 106.5 24.5t85 58.5t56 70.5t20.5 61.5v307q0 66 -23.5 118t-60.5 88t-85 55.5t-97 19.5q-57 0 -107.5 -23.5t-87 -63.5t-58 -90.5t-21.5 -103.5v-237z" />
<glyph unicode="e" horiz-adv-x="923" d="M98 367v243q0 76 30 142.5t81 117t119.5 80t146.5 29.5q74 0 141.5 -27.5t118.5 -77t82 -118t31 -148.5q0 -57 -14.5 -89t-39 -47t-56 -18t-64.5 -3h-475v-86q0 -66 24.5 -119t68.5 -90t104.5 -56.5t131.5 -19.5q63 0 103.5 12t66 27.5t42 29t32.5 13.5q18 0 32.5 -16.5 t14.5 -32.5t-20.5 -38t-58.5 -41.5t-93 -32.5t-123 -13q-94 0 -172 27.5t-134 76.5t-88 119t-32 156zM199 535h436q70 0 92.5 13t22.5 60q0 51 -19.5 102.5t-56.5 90.5t-87 63.5t-112 24.5q-59 0 -109.5 -21.5t-87 -58.5t-58 -86t-21.5 -105v-83z" />
<glyph unicode="f" horiz-adv-x="606" d="M135 43v1155q0 76 30 142.5t79 117.5t115.5 81t140.5 30h35q20 0 33.5 -14.5t13.5 -34.5t-13.5 -32.5t-33.5 -12.5h-27q-59 0 -108.5 -22.5t-85 -60.5t-57 -87.5t-21.5 -102.5v-235h303q18 0 30.5 -13.5t12.5 -29.5q0 -18 -12.5 -31.5t-30.5 -13.5h-303v-836 q0 -20 -15.5 -31.5t-38.5 -11.5q-20 0 -33.5 11.5t-13.5 31.5z" />
<glyph unicode="g" horiz-adv-x="917" d="M57 -213q0 92 56.5 146.5t124.5 78.5q-53 16 -86 48t-33 96q0 57 26.5 90t73.5 55q-51 45 -79.5 111.5t-28.5 146.5v84q0 74 24.5 135.5t68.5 106.5t106.5 69.5t140.5 24.5q150 0 241 -92q29 57 71 92t79 35q29 0 41 -15.5t12 -31.5q0 -18 -11.5 -28.5t-25.5 -12.5 q-25 -2 -57.5 -20.5t-61.5 -71.5q29 -37 41.5 -87.5t12.5 -103.5v-84q0 -74 -26 -135.5t-71 -107.5t-108 -71.5t-139 -25.5q-92 0 -162 39q-29 -14 -51.5 -33.5t-22.5 -56.5t27.5 -57.5t72.5 -30.5t103.5 -15.5t118 -13.5t118 -21.5t103.5 -41t72.5 -71.5t27.5 -114 q0 -139 -107.5 -211.5t-285.5 -72.5q-90 0 -164 18.5t-128 54t-84 85t-30 110.5zM156 -203q0 -88 80.5 -142t226.5 -54q141 0 217 53t76 145q0 70 -44 106t-107.5 52t-131 20.5t-117.5 10.5q-39 -12 -74.5 -27.5t-63.5 -39t-45 -54.5t-17 -70zM209 561q0 -111 63.5 -184.5 t180.5 -73.5q113 0 177 73t64 183v84q0 109 -63.5 180.5t-179.5 71.5q-117 0 -179.5 -71.5t-62.5 -180.5v-82z" />
<glyph unicode="h" d="M135 45v1481q0 18 13.5 30.5t35.5 12.5q23 0 37.5 -12.5t14.5 -30.5v-703q33 59 100 107.5t172 48.5q74 0 140.5 -29.5t116.5 -80t79.5 -119t29.5 -146.5v-559q0 -23 -16 -34t-35 -11q-18 0 -33.5 11.5t-15.5 33.5v559q0 53 -21.5 103.5t-59.5 90.5t-88 63.5t-105 23.5 q-49 0 -96.5 -19.5t-85 -55.5t-60 -88t-22.5 -118v-559q0 -16 -14.5 -30.5t-37.5 -14.5t-36 14.5t-13 30.5z" />
<glyph unicode="i" horiz-adv-x="370" d="M106 1348q0 29 21.5 50t56.5 21q31 0 53.5 -21.5t22.5 -49.5q0 -31 -22.5 -53.5t-53.5 -22.5q-35 0 -56.5 22.5t-21.5 53.5zM135 45v881q0 18 13 29.5t36 11.5t37.5 -11.5t14.5 -29.5v-881q0 -16 -14.5 -30.5t-37.5 -14.5t-36 14.5t-13 30.5z" />
<glyph unicode="j" horiz-adv-x="370" d="M-76 -432q0 20 13.5 32.5t33.5 12.5q53 0 86 22.5t50.5 61.5t22.5 92t5 117v1020q0 18 13 29.5t36 11.5t37.5 -11.5t14.5 -29.5v-1020q0 -86 -13.5 -157t-44.5 -122t-81 -79.5t-122 -28.5q-25 0 -38 15t-13 34zM106 1348q0 29 21.5 50t56.5 21q31 0 53.5 -21.5 t22.5 -49.5q0 -31 -22.5 -53.5t-53.5 -22.5q-35 0 -56.5 22.5t-21.5 53.5z" />
<glyph unicode="k" horiz-adv-x="911" d="M135 45v1481q0 18 13.5 30.5t35.5 12.5q23 0 37.5 -12.5t14.5 -30.5v-1030l528 462q10 10 24 11q18 0 36 -12.5t18 -34.5q0 -20 -15 -33l-317 -277l369 -540q6 -10 6 -23q0 -18 -15.5 -34.5t-35.5 -16.5t-35 20l-361 529l-202 -176v-326q0 -16 -14.5 -30.5t-37.5 -14.5 t-36 14.5t-13 30.5z" />
<glyph unicode="l" horiz-adv-x="403" d="M152 45v1481q0 18 13 30.5t36 12.5t37 -12.5t14 -30.5v-1481q0 -16 -14.5 -30.5t-36.5 -14.5q-23 0 -36 14.5t-13 30.5z" />
<glyph unicode="m" horiz-adv-x="1585" d="M135 45v881q0 18 13.5 29.5t35.5 11.5q20 0 34.5 -11.5t14.5 -29.5v-103q35 59 102.5 107.5t172.5 48.5q104 0 181 -56.5t118 -148.5q53 104 137 154.5t174 50.5q66 0 127.5 -24.5t108.5 -72.5t75.5 -118t28.5 -160v-559q0 -16 -14 -30.5t-37 -14.5q-20 0 -34.5 14.5 t-14.5 30.5v559q0 70 -22.5 122t-58.5 88t-81 53.5t-90 17.5q-49 0 -95 -19.5t-83 -54.5t-59.5 -85t-22.5 -112v-571q0 -23 -15.5 -33t-35.5 -10q-16 0 -33 10t-17 33v569q0 57 -19 107.5t-53 87.5t-80 57.5t-97 20.5q-49 0 -95.5 -19.5t-83 -55.5t-59 -88t-22.5 -118v-559 q0 -16 -14.5 -30.5t-37.5 -14.5t-36 14.5t-13 30.5z" />
<glyph unicode="n" d="M135 45v881q0 18 13.5 29.5t35.5 11.5q20 0 34.5 -11.5t14.5 -29.5v-103q33 59 101.5 107.5t173.5 48.5q74 0 140.5 -29.5t116.5 -80t79.5 -119t29.5 -146.5v-559q0 -23 -16 -34t-35 -11q-18 0 -33.5 11.5t-15.5 33.5v559q0 53 -21.5 103.5t-59.5 90.5t-88 63.5 t-105 23.5q-49 0 -96.5 -19.5t-85 -55.5t-60 -88t-22.5 -118v-559q0 -16 -14.5 -30.5t-37.5 -14.5t-36 14.5t-13 30.5z" />
<glyph unicode="o" horiz-adv-x="944" d="M96 367v237q0 76 30 143.5t81 119t118.5 82t145.5 30.5q76 0 143.5 -29.5t119.5 -80t83 -119t31 -146.5v-237q0 -74 -31 -142.5t-83 -121t-119.5 -84t-143.5 -31.5t-143.5 30.5t-118.5 83t-82 121t-31 144.5zM197 367q0 -55 21.5 -106.5t58 -91.5t87 -63.5t107.5 -23.5 t107.5 23.5t88.5 63.5t59.5 91t21.5 107v237q0 53 -21.5 103.5t-59.5 90.5t-88.5 63.5t-107.5 23.5t-107.5 -23.5t-87 -63.5t-58 -90.5t-21.5 -103.5v-237z" />
<glyph unicode="p" horiz-adv-x="972" d="M135 -436v1362q0 18 13 29.5t36 11.5q20 0 34.5 -11.5t14.5 -29.5v-103q35 59 102.5 107.5t172.5 48.5q76 0 142.5 -29.5t116.5 -80t80 -119t30 -146.5v-237q0 -74 -30 -142.5t-80 -121t-115.5 -84t-139.5 -31.5q-94 0 -168 46t-108 109v-579q0 -16 -14.5 -30.5 t-37.5 -14.5t-36 14t-13 31zM236 297q0 -25 20 -61.5t56 -70.5t85 -58.5t107 -24.5q55 0 104 23.5t86 63.5t59.5 91t22.5 107v237q0 53 -21.5 103.5t-59.5 90.5t-88 63.5t-107 23.5q-49 0 -96.5 -19.5t-85 -55.5t-60 -88t-22.5 -118v-307z" />
<glyph unicode="q" horiz-adv-x="974" d="M98 367v237q0 78 30 146.5t80 119t116.5 80t142.5 29.5q102 0 171 -48t103 -108v103q0 18 15 29.5t35 11.5q23 0 36 -11.5t13 -29.5v-1362q0 -16 -13.5 -30.5t-35.5 -14.5q-23 0 -37.5 14t-14.5 31v579q-35 -63 -109.5 -109t-166.5 -46q-74 0 -139.5 31.5t-115.5 84 t-80 121t-30 142.5zM199 367q0 -55 22.5 -106.5t59 -91.5t86 -63.5t104.5 -23.5q57 0 106.5 24.5t85 58.5t56 70.5t20.5 61.5v307q0 66 -22.5 118t-60.5 88t-86 55.5t-97 19.5q-55 0 -105.5 -23.5t-88 -63.5t-59 -90.5t-21.5 -103.5v-237z" />
<glyph unicode="r" horiz-adv-x="653" d="M135 45v881q0 18 13.5 29.5t35.5 11.5q20 0 34.5 -11.5t14.5 -29.5v-105q35 59 105 108.5t174 49.5h74q18 0 31.5 -13.5t13.5 -33.5t-13.5 -33.5t-31.5 -13.5h-74q-53 0 -102.5 -20.5t-88 -59.5t-62 -94.5t-23.5 -124.5v-541q0 -16 -14.5 -30.5t-37.5 -14.5t-36 14.5 t-13 30.5z" />
<glyph unicode="s" horiz-adv-x="776" d="M74 127q0 16 11 31.5t26 15.5q14 0 32.5 -15.5t47 -32.5t73.5 -32.5t117 -15.5q123 0 174 47t51 111q0 74 -38 114.5t-94 64t-122.5 41t-123 45t-94.5 75t-38 133.5q0 47 17.5 95t55.5 87t96.5 63.5t142.5 24.5q47 0 94 -8t84 -21.5t60.5 -30t23.5 -32.5 q0 -14 -13.5 -33.5t-31.5 -19.5q-10 0 -28.5 8t-44.5 19t-61.5 19.5t-80.5 8.5q-61 0 -102.5 -17.5t-68 -43t-38 -57.5t-11.5 -60q0 -63 38 -97t95.5 -54.5t123 -38t123 -48.5t95 -84t37.5 -147q0 -119 -82.5 -186.5t-236.5 -67.5q-72 0 -128 14t-97 34.5t-62.5 45 t-21.5 45.5z" />
<glyph unicode="t" horiz-adv-x="581" d="M131 293v1100q0 18 16.5 30.5t32.5 12.5q20 0 35.5 -12.5t15.5 -30.5v-426h273q16 0 27.5 -13.5t11.5 -31.5q0 -16 -11.5 -29.5t-27.5 -13.5h-273v-586q0 -111 47.5 -155t163.5 -44h52q23 0 35 -13t12 -34q0 -18 -12.5 -32.5t-34.5 -14.5h-52q-154 0 -232.5 69.5 t-78.5 223.5z" />
<glyph unicode="u" d="M125 362v562q0 16 14.5 29.5t36.5 13.5q18 0 33.5 -13.5t15.5 -29.5v-562q0 -53 21.5 -104t58.5 -90t87 -62.5t108 -23.5q57 0 107 23.5t87 62.5t58.5 89t21.5 105v564q0 16 15.5 28.5t35.5 12.5q23 0 36 -12.5t13 -28.5v-564q0 -76 -29.5 -143t-80.5 -118.5t-119.5 -82 t-144.5 -30.5q-78 0 -146.5 30.5t-119 82t-80 120t-29.5 141.5z" />
<glyph unicode="v" horiz-adv-x="833" d="M37 922q0 20 17.5 33.5t39.5 13.5q12 0 24.5 -6.5t16.5 -18.5l281 -774l280 762q6 16 13.5 26.5t27.5 10.5q18 0 39 -12.5t21 -32.5q0 -10 -3 -18.5t-6 -14.5l-323 -877q-14 -28 -47 -28h-2q-35 0 -47 28l-324 877q-2 4 -5 14t-3 17z" />
<glyph unicode="w" horiz-adv-x="1353" d="M37 922q0 20 17.5 33.5t39.5 13.5q29 0 41 -25l277 -768l223 705q8 31 45 30q35 0 43 -30l217 -715l283 778q6 25 39 25q20 0 37.5 -11.5t17.5 -33.5q0 -18 -8 -31l-320 -879q-12 -28 -39 -28h-2q-29 0 -41 26l-227 721l-225 -710q-12 -37 -45 -37q-16 0 -26.5 7 t-18.5 30l-320 870q-2 4 -5 14.5t-3 14.5z" />
<glyph unicode="x" horiz-adv-x="806" d="M51 37q0 10 8 22l279 430l-277 418q-6 8 -6 21q0 20 17.5 35.5t40.5 15.5q10 0 19 -3t15 -13l256 -394l259 392q12 18 32 18t39 -14.5t19 -36.5q0 -12 -7 -21l-278 -420l281 -428q8 -12 8 -22q0 -18 -18.5 -33.5t-39.5 -15.5q-23 0 -34 16l-261 402l-258 -402 q-16 -16 -36 -16t-39 14.5t-19 34.5z" />
<glyph unicode="y" horiz-adv-x="835" d="M35 932q0 20 18.5 34.5t40.5 14.5q12 0 23.5 -7t15.5 -20l289 -788l280 788q12 27 39 27q18 0 38 -13.5t20 -35.5q0 -10 -2 -17l-324 -882q-29 -80 -64.5 -170t-81.5 -167t-106.5 -127t-136.5 -50q-18 0 -32.5 11t-14.5 36q0 18 8 32.5t29 14.5q51 0 95 37t81 97 t67.5 135t53.5 151l-332 882q-4 12 -4 17z" />
<glyph unicode="z" horiz-adv-x="804" d="M51 41q0 20 15 39l524 794h-475q-18 0 -30.5 13.5t-12.5 32.5q0 20 12 33.5t31 13.5h573q16 0 29.5 -11.5t13.5 -31.5t-12 -35l-526 -795h518q18 0 30.5 -14t12.5 -35q0 -18 -12.5 -31.5t-30.5 -13.5h-615q-20 0 -32.5 12.5t-12.5 28.5z" />
<glyph unicode="{" horiz-adv-x="608" d="M66 786q0 29 19 37t42 11.5t42 9.5t19 30q0 14 -6 64.5t-14 110t-14.5 114t-6.5 76.5q0 68 30 128t80 106.5t116.5 73t142.5 26.5q25 0 38 -14.5t13 -32.5t-12 -32.5t-29 -14.5q-59 0 -109 -20.5t-87 -55.5t-58.5 -80t-21.5 -94q0 -23 6 -76t14.5 -110.5t14.5 -107.5 t6 -65q0 -35 -25.5 -57t-44.5 -27q18 -6 44 -26.5t26 -54.5q0 -18 -6 -78t-14.5 -130.5t-14.5 -136t-6 -92.5q0 -63 30.5 -104t73.5 -65.5t90.5 -35t81.5 -10.5q23 0 32 -15t9 -30q0 -23 -14 -36t-37 -13q-76 0 -143.5 22.5t-117.5 63.5t-79 97.5t-29 125.5q0 25 6.5 90.5 t14.5 136t14 130t6 75.5q0 25 -19 31t-42 9t-42 10t-19 36z" />
<glyph unicode="|" horiz-adv-x="393" d="M145 0v1530q0 18 14.5 30.5t37.5 12.5q20 0 35.5 -12.5t15.5 -30.5v-1530q0 -16 -15.5 -29.5t-35.5 -13.5q-23 0 -37.5 13.5t-14.5 29.5z" />
<glyph unicode="}" horiz-adv-x="608" d="M41 8q0 14 9 29.5t34 15.5q33 0 81 10.5t91 35t73.5 65.5t30.5 104q0 27 -7 92.5t-14 136t-14.5 130t-7.5 78.5q0 35 25 55t45 26q-20 4 -45 27t-25 57q0 14 7.5 64.5t14.5 108t14 110.5t7 76q0 49 -21.5 94t-58 80t-88 55.5t-108.5 20.5q-18 0 -30.5 14t-12.5 33 q0 18 14.5 32.5t38.5 14.5q76 0 142.5 -26.5t116.5 -73t80 -106.5t30 -128q0 -23 -7 -77t-14.5 -113.5t-14.5 -109.5t-7 -65q0 -25 19.5 -30.5t42 -9t42 -11.5t19.5 -37t-19.5 -36t-42 -10t-42 -9t-19.5 -31q0 -16 7 -75.5t14.5 -130t14.5 -136t7 -90.5q0 -70 -28.5 -126 t-79 -97t-118 -63.5t-143.5 -22.5q-23 0 -38 13.5t-15 35.5z" />
<glyph unicode="~" horiz-adv-x="821" d="M100 498q0 25 18.5 44t46.5 34.5t59.5 23.5t58.5 8q39 0 69.5 -11t60 -25.5t61.5 -25.5t73 -11q35 0 55.5 10t34.5 21.5t24.5 21.5t22.5 10q16 0 25.5 -12.5t9.5 -26.5q0 -29 -18.5 -49.5t-45 -33.5t-56.5 -20t-52 -7q-39 0 -70 11t-61.5 25.5t-62 25.5t-74.5 11 q-33 0 -55.5 -10t-39 -23.5t-28 -23.5t-23.5 -10q-16 0 -24.5 13t-8.5 30z" />
<glyph unicode="&#xa1;" horiz-adv-x="405" d="M121 1444q0 35 23.5 59.5t58.5 24.5t58.5 -24.5t23.5 -59.5t-23.5 -59.5t-58.5 -24.5t-58.5 24.5t-23.5 59.5zM137 59q0 266 11.5 549t11.5 551q0 18 14 28.5t29 10.5q14 0 28.5 -10t14.5 -29q0 -268 11 -550.5t11 -549.5q0 -35 -18.5 -53t-46.5 -18q-29 0 -47.5 18 t-18.5 53z" />
<glyph unicode="&#xa2;" horiz-adv-x="835" d="M78 731v39q0 72 17.5 135.5t54 112.5t94 82t137.5 45v235q0 16 12.5 28.5t30.5 12.5q16 0 29.5 -12t13.5 -29v-231q57 0 108.5 -11.5t90.5 -27.5t61.5 -38.5t22.5 -45.5q0 -20 -14.5 -34.5t-35.5 -14.5q-12 0 -27.5 12t-41 26.5t-64.5 28t-100 13.5v-611q61 0 101 13.5 t64.5 28t39 26.5t28.5 12q20 0 36 -14t16 -35q0 -25 -25 -47t-64.5 -38.5t-91 -28t-104.5 -11.5v-229q0 -16 -13.5 -28.5t-29.5 -12.5q-18 0 -30.5 12t-12.5 29v233q-154 23 -228.5 126.5t-74.5 248.5zM172 731q0 -113 51 -185.5t158 -92.5v596q-106 -23 -157.5 -95.5 t-51.5 -183.5v-39z" />
<glyph unicode="&#xa3;" horiz-adv-x="968" d="M51 49q0 18 11.5 33.5t33.5 15.5h125l90 654h-166q-18 0 -28.5 12t-10.5 31q0 18 10.5 32.5t28.5 14.5h181l51 356q10 76 49 144.5t97.5 119.5t132 81t151.5 30h33q23 0 35 -15.5t12 -33.5q0 -16 -12.5 -31.5t-34.5 -15.5h-43q-61 0 -115.5 -23.5t-97.5 -61.5t-71 -88.5 t-36 -105.5l-51 -356h319q20 0 29.5 -15.5t9.5 -31.5t-9 -29.5t-30 -13.5h-333l-93 -654h529q18 0 28.5 -15t10.5 -34q0 -18 -10.5 -33.5t-28.5 -15.5h-752q-23 0 -34 15.5t-11 33.5z" />
<glyph unicode="&#xa4;" horiz-adv-x="989" d="M133 651q0 14 10 25l68 67q-35 47 -55.5 104.5t-20.5 119.5q0 61 19.5 117.5t54.5 103.5l-53 55q-10 10 -11 27q0 16 12.5 26.5t28.5 10.5q14 0 25 -11l51 -51q47 41 107.5 65.5t128.5 24.5q63 0 120.5 -21.5t104.5 -60.5l55 56q10 10 29 10q14 0 25.5 -11.5t11.5 -25.5 q0 -16 -10 -27l-58 -57q41 -47 63.5 -106.5t22.5 -124.5q0 -66 -23.5 -125.5t-64.5 -106.5l60 -59q10 -14 10 -25q0 -14 -11.5 -25.5t-25.5 -11.5q-16 0 -27 11l-57 55q-47 -41 -104.5 -63.5t-120.5 -22.5q-68 0 -127.5 25.5t-108.5 68.5l-65 -63q-10 -10 -25 -11 q-16 0 -27.5 11.5t-11.5 25.5zM223 967q0 -55 21.5 -106.5t58.5 -91.5t87 -63.5t108 -23.5q57 0 107 23.5t88 63.5t59.5 91.5t21.5 106.5q0 53 -21.5 103t-59.5 90t-88 63.5t-107 23.5t-107.5 -23.5t-87.5 -62.5t-58.5 -90t-21.5 -104z" />
<glyph unicode="&#xa5;" horiz-adv-x="1003" d="M51 1452q0 16 15.5 31.5t37.5 15.5q27 0 41 -26l349 -687l366 687q16 27 41 26q18 0 34.5 -13t16.5 -34q0 -8 -4 -16l-381 -713h234q16 0 29.5 -12.5t13.5 -32.5q0 -18 -13.5 -30.5t-29.5 -12.5h-258v-156h258q16 0 29.5 -13t13.5 -32q0 -20 -13.5 -31.5t-29.5 -11.5 h-258v-348q0 -18 -13.5 -30.5t-35.5 -12.5q-20 0 -36 12.5t-16 30.5v348h-243q-41 0 -41 43q0 18 11 31.5t30 13.5h243v156h-243q-18 0 -29.5 12.5t-11.5 30.5q0 45 41 45h219l-363 713q-4 8 -4 16z" />
<glyph unicode="&#xa6;" horiz-adv-x="395" d="M147 0v567q0 16 13.5 28.5t36.5 12.5q20 0 35.5 -12t15.5 -29v-567q0 -16 -15.5 -29.5t-35.5 -13.5q-23 0 -36.5 13.5t-13.5 29.5zM147 963v567q0 18 13.5 30.5t36.5 12.5q20 0 35.5 -12.5t15.5 -30.5v-567q0 -16 -15.5 -28.5t-35.5 -12.5q-23 0 -36.5 12t-13.5 29z" />
<glyph unicode="&#xa7;" horiz-adv-x="948" d="M102 203q0 29 14.5 40t37.5 11q25 0 35 -13.5t10 -29.5q0 -33 10 -76t40 -82t80 -66.5t130 -27.5q133 0 203.5 69.5t70.5 202.5q0 90 -44 138.5t-110.5 78t-144.5 53t-144.5 61.5t-110.5 104.5t-44 183.5v262q0 117 34 191.5t84 117.5t110.5 59.5t115.5 16.5 q160 0 240 -92t80 -234q0 -33 -14.5 -44t-32.5 -11q-23 0 -37.5 12.5t-14.5 45.5q0 31 -9 70.5t-32.5 74.5t-65.5 59.5t-110 24.5q-43 0 -88 -14.5t-80.5 -46t-58.5 -86t-23 -134.5q0 -90 45.5 -139t112 -79t144 -53.5t144 -61t112 -104.5t45.5 -183v-258q0 -102 -29 -174 t-79 -117t-115.5 -66.5t-139.5 -21.5q-86 0 -154.5 26.5t-116.5 72.5t-74 107.5t-26 131.5zM231 846q0 -78 28 -126t72 -79t100 -50.5t112.5 -39t109 -45t88.5 -68.5v66q0 76 -27.5 124t-71.5 79.5t-100.5 51t-112.5 39t-108.5 44t-89.5 67.5v-63z" />
<glyph unicode="&#xa8;" horiz-adv-x="372" d="M0 1290q0 29 19.5 47.5t48.5 18.5t47 -18.5t18 -47.5t-18.5 -48t-46.5 -19q-29 0 -48.5 19.5t-19.5 47.5zM240 1290q0 29 18 47.5t49 18.5q29 0 47.5 -18.5t18.5 -47.5t-18.5 -48t-47.5 -19q-31 0 -49 19.5t-18 47.5z" />
<glyph unicode="&#xa9;" horiz-adv-x="1482" d="M113 733q0 172 59 298t151.5 209t205 123t219.5 40q109 0 219 -41t200 -123t146.5 -207t56.5 -291q0 -172 -59.5 -298t-151.5 -208.5t-204.5 -122.5t-219.5 -40q-109 0 -219 41t-200.5 122.5t-146.5 206.5t-56 291zM193 733q0 -127 38.5 -233.5t110.5 -184t171 -120.5 t222 -43q121 0 222.5 43t175 120.5t115.5 186t42 239.5q0 127 -39 233.5t-110.5 184.5t-171 121t-221.5 43q-121 0 -222.5 -43t-175.5 -121t-115.5 -186.5t-41.5 -239.5zM537 584v334q0 66 16 111.5t45 74.5t65.5 42t79.5 13q98 0 153.5 -56t55.5 -136q0 -29 -10 -39 t-33 -10q-39 -1 -43 32q0 16 -5 39t-17.5 42.5t-36 33.5t-62.5 14q-125 0 -124 -161v-334q0 -162 127 -162q39 0 61 13.5t34.5 33.5t16.5 44t6 44q2 31 43 31q23 0 33 -10.5t10 -38.5q0 -82 -56 -138.5t-155 -56.5q-84 0 -144 54.5t-60 185.5z" />
<glyph unicode="&#xaa;" horiz-adv-x="636" d="M76 1051q0 53 21.5 88t61.5 54t95 27.5t123 8.5h63v28q0 31 -8 62t-25.5 55.5t-46 40t-67.5 15.5q-66 0 -95.5 -19.5t-43.5 -19.5q-16 0 -25.5 15t-9.5 32q0 12 16.5 24.5t41 21.5t56 15t62.5 6q63 0 108.5 -20.5t74 -55t40.5 -78.5t12 -94v-331q0 -14 -12 -24.5 t-33 -10.5q-16 0 -28.5 10t-12.5 25v53q-35 -41 -84 -68.5t-118 -27.5q-68 0 -117 42t-49 126zM166 1059q0 -53 30.5 -79t77.5 -26q31 0 61 12.5t53.5 33t37.5 44t14 46.5v77h-59q-43 0 -82 -4t-68.5 -15t-47 -32.5t-17.5 -56.5z" />
<glyph unicode="&#xab;" horiz-adv-x="780" d="M76 567q0 18 16 45l189 353q14 20 41 20q23 0 38 -16.5t15 -32.5q0 -12 -6 -21l-189 -348l189 -346q6 -10 6 -20q0 -18 -17.5 -33.5t-40.5 -15.5q-25 0 -36 20l-189 350q-8 12 -12 22.5t-4 22.5zM399 567q0 18 17 45l188 353q14 20 41 20q23 0 38 -16.5t15 -32.5 q0 -12 -6 -21l-188 -348l188 -346q6 -10 6 -20q0 -18 -17 -33.5t-40 -15.5t-37 20l-188 350q-8 12 -12.5 22.5t-4.5 22.5z" />
<glyph unicode="&#xac;" horiz-adv-x="989" d="M119 492q0 20 12 33.5t31 13.5h643q16 0 29.5 -13.5t13.5 -33.5v-320q0 -18 -13.5 -30.5t-35.5 -12.5q-23 0 -37 12.5t-14 30.5v274h-586q-18 0 -30.5 13t-12.5 33z" />
<glyph unicode="&#xad;" horiz-adv-x="942" d="M100 492q0 20 12.5 33.5t30.5 13.5h656q16 0 29.5 -13.5t13.5 -33.5t-13.5 -33t-29.5 -13h-656q-18 0 -30.5 13t-12.5 33z" />
<glyph unicode="&#xae;" horiz-adv-x="1482" d="M113 733q0 172 59 298t151.5 209t205 123t219.5 40q109 0 219 -41t200 -123t146.5 -207t56.5 -291q0 -172 -59.5 -298t-151.5 -208.5t-204.5 -122.5t-219.5 -40q-109 0 -219 41t-200.5 122.5t-146.5 206.5t-56 291zM193 733q0 -127 38.5 -233.5t110.5 -184t171 -120.5 t222 -43q121 0 222.5 43t175 120.5t115.5 186t42 239.5q0 127 -39 233.5t-110.5 184.5t-171 121t-221.5 43q-121 0 -222.5 -43t-175.5 -121t-115.5 -186.5t-41.5 -239.5zM553 381v739q0 27 31 31h176q43 0 81 -11.5t67.5 -37t46 -67.5t16.5 -103q0 -102 -40 -150.5 t-102 -62.5l140 -313q4 -12 4 -15q0 -16 -16.5 -29.5t-32.5 -13.5q-12 0 -20.5 11.5t-14.5 25.5l-148 324h-104v-328q0 -16 -12.5 -23.5t-28.5 -7.5t-29.5 7.5t-13.5 23.5zM637 780h123q57 0 93 34t36 112q0 80 -36 113.5t-93 33.5h-123v-293z" />
<glyph unicode="&#xaf;" horiz-adv-x="532" d="M0 1356q0 18 11.5 31.5t31.5 13.5h444q16 0 30.5 -13.5t14.5 -31.5t-14 -29.5t-31 -11.5h-444q-43 0 -43 41z" />
<glyph unicode="&#xb0;" horiz-adv-x="870" d="M72 1204q0 74 28.5 140.5t77.5 117.5t115.5 81t140.5 30t139.5 -28.5t115.5 -79t80 -118t30 -143.5q0 -74 -30 -140.5t-80 -118.5t-115.5 -83t-139.5 -31t-139.5 31t-114.5 82t-78.5 118.5t-29.5 141.5zM160 1204q0 -55 21.5 -106t58 -91t87 -63.5t107.5 -23.5 t107.5 23.5t88.5 63.5t59.5 91t21.5 106q0 53 -21.5 103.5t-59.5 90.5t-88 63.5t-108 23.5q-57 0 -107.5 -23.5t-87 -62.5t-58 -90.5t-21.5 -104.5z" />
<glyph unicode="&#xb1;" horiz-adv-x="972" d="M115 174q0 20 12 33.5t31 13.5h655q16 0 30.5 -13t14.5 -34q0 -20 -14.5 -32.5t-30.5 -12.5h-655q-18 0 -30.5 12.5t-12.5 32.5zM115 715q0 20 12 33.5t31 13.5h282v276q0 16 13.5 30.5t33.5 14.5t32.5 -14t12.5 -31v-276h281q16 0 30.5 -13.5t14.5 -33.5 q0 -23 -14.5 -35t-30.5 -12h-281v-279q0 -18 -12.5 -30.5t-32.5 -12.5t-33.5 12.5t-13.5 30.5v279h-282q-18 0 -30.5 12t-12.5 35z" />
<glyph unicode="&#xb2;" horiz-adv-x="620" d="M72 768v100q0 43 28.5 79t71.5 69t94 63.5t94 63.5t72 68.5t29 78.5q0 47 -37 87t-115 40q-59 0 -97 -27.5t-38 -86.5q0 -10 -11 -21.5t-34 -11.5q-18 0 -28.5 10t-10.5 39q0 80 64.5 129t156.5 49q49 0 92 -15.5t75 -43t49.5 -64.5t17.5 -80q0 -55 -29 -99t-72 -81 t-93 -66.5t-93 -58t-71.5 -58.5t-28.5 -63v-53h364q12 0 21.5 -11t9.5 -28q0 -16 -9 -27.5t-22 -11.5h-411q-12 0 -25.5 8.5t-13.5 22.5z" />
<glyph unicode="&#xb3;" horiz-adv-x="632" d="M66 907q0 25 9 32t29 7q27 0 36.5 -8t9.5 -25q0 -33 33.5 -68.5t123.5 -35.5q80 0 122 34t42 111v19q0 68 -45 97.5t-117 29.5q-18 0 -25.5 11t-7.5 24q0 14 7.5 25t25.5 11q66 0 103 26t37 99q0 125 -136 125q-43 0 -71.5 -10t-44 -25.5t-21.5 -33t-6 -33.5 q0 -37 -41 -37q-27 0 -35 9t-8 34q0 23 9 52.5t35 56t71 45t114 18.5q96 0 155.5 -41t59.5 -143q0 -70 -26.5 -114t-67.5 -60q51 -18 84 -58.5t33 -107.5v-19q0 -61 -19.5 -103t-52 -68.5t-77 -39t-95.5 -12.5q-61 0 -107 16.5t-77 42t-45 56.5t-14 61z" />
<glyph unicode="&#xb4;" horiz-adv-x="292" d="M0 1268q0 23 18 30l220 125q8 4 16 4q18 0 28.5 -15t10.5 -32q0 -27 -23 -41l-204 -112q-10 -6 -21 -6q-18 0 -31.5 14t-13.5 33z" />
<glyph unicode="&#xb5;" horiz-adv-x="989" d="M152 -438v1362q0 16 13 29.5t36 13.5t37 -13.5t14 -29.5v-605q0 -33 23.5 -73.5t62.5 -77.5t89 -61.5t103 -24.5q51 0 99.5 23.5t83.5 63.5t56.5 90t21.5 103v562q0 23 15 33t34 10q23 0 37 -10.5t14 -32.5v-562q0 -78 -27.5 -145t-77 -118.5t-116 -81t-144.5 -29.5 q-98 0 -170.5 43t-107.5 100v-569q0 -18 -14.5 -30.5t-32.5 -12.5q-23 0 -36 12t-13 31z" />
<glyph unicode="&#xb6;" horiz-adv-x="1058" d="M72 1051v24q0 115 30.5 196t85 131t128 72.5t157.5 22.5h379q16 0 29.5 -11t13.5 -34v-1409q0 -23 -13.5 -33t-29.5 -10t-30.5 10t-14.5 33v1372h-156v-1370q0 -23 -13 -34t-30 -11q-16 0 -30.5 11.5t-14.5 33.5v582h-90q-84 0 -157.5 22.5t-128 73.5t-85 132t-30.5 196z " />
<glyph unicode="&#xb7;" horiz-adv-x="362" d="M98 614q0 35 23.5 58.5t60.5 23.5q35 0 58.5 -23.5t23.5 -58.5q0 -33 -23.5 -57.5t-58.5 -24.5q-37 0 -60.5 25t-23.5 57z" />
<glyph unicode="&#xb8;" horiz-adv-x="329" d="M0 -377q0 10 8 26.5t21 16.5q10 0 36.5 -13t77.5 -13q61 0 86 24.5t25 56.5q0 45 -37 65.5t-100 25.5l-68 4l51 202h72l-37 -147q104 -4 149.5 -48t45.5 -97q0 -57 -44 -104.5t-130 -47.5q-18 0 -45 3t-51.5 9t-42 15.5t-17.5 21.5z" />
<glyph unicode="&#xb9;" horiz-adv-x="333" d="M43 1333q0 10 6 20.5t10 14.5l101 117q6 4 13 8t17 4q12 0 23.5 -8t11.5 -23v-698q0 -16 -12 -23.5t-29 -7.5q-16 0 -29.5 7.5t-13.5 23.5v600l-45 -57q-8 -12 -20 -13q-16 0 -24.5 10.5t-8.5 24.5z" />
<glyph unicode="&#xba;" horiz-adv-x="665" d="M86 1126v138q0 49 19.5 92t53.5 76.5t79 53t96 19.5q49 0 93 -19.5t78 -52t54.5 -76.5t20.5 -93v-138q0 -49 -20.5 -93t-54.5 -77.5t-78 -54t-93 -20.5t-94 20.5t-79 54t-54.5 77.5t-20.5 93zM176 1126q0 -63 45 -113t113 -50q66 0 110.5 50t44.5 113v138q0 31 -12 59.5 t-32.5 51t-49 35.5t-61.5 13q-68 0 -113 -49t-45 -110v-138z" />
<glyph unicode="&#xbb;" horiz-adv-x="780" d="M82 201q0 10 6 20l188 346l-188 348q-6 8 -6 21q0 16 15.5 32.5t37.5 16.5q27 0 41 -20l189 -353q16 -27 16 -45q0 -12 -4 -22t-12 -23l-189 -350q-12 -20 -37 -20q-23 0 -40 15t-17 34zM406 201q0 10 6 20l188 346l-188 348q-6 8 -6 21q0 16 15 32.5t38 16.5 q31 0 41 -20l190 -353q14 -29 15 -45q0 -12 -4.5 -22t-10.5 -23l-190 -350q-12 -20 -37 -20q-23 0 -40 15t-17 34z" />
<glyph unicode="&#xbc;" horiz-adv-x="1206" d="M68 1333q0 10 6 20.5t10 14.5l100 117q6 4 13.5 8t17.5 4q12 0 23.5 -8t11.5 -23v-698q0 -16 -12.5 -23.5t-28.5 -7.5t-29.5 7.5t-13.5 23.5v600l-45 -57q-8 -12 -21 -13q-16 0 -24 10.5t-8 24.5zM141 -8q0 14 4 22l793 1538q4 12 13.5 16.5t19.5 4.5q16 0 31.5 -12.5 t15.5 -34.5q0 -10 -6 -23l-787 -1523q-12 -27 -41 -27q-16 0 -29.5 11t-13.5 28zM651 209q0 6 4 18l289 506q12 27 39 27q14 0 27.5 -9.5t13.5 -25.5q0 -6 -4 -14l-260 -455h215v178q0 16 12 22.5t29 6.5q16 0 29.5 -6t13.5 -23v-178h63q16 0 24.5 -12.5t8.5 -28.5 q0 -14 -10 -26.5t-23 -12.5h-63v-145q0 -16 -13.5 -23.5t-29.5 -7.5t-28.5 7t-12.5 24v145h-293q-31 0 -31 33z" />
<glyph unicode="&#xbd;" horiz-adv-x="1255" d="M74 1333q0 10 6 20.5t10 14.5l100 117q6 4 13.5 8t17.5 4q12 0 23.5 -8t11.5 -23v-698q0 -16 -12.5 -23.5t-28.5 -7.5t-29.5 7.5t-13.5 23.5v600l-45 -57q-8 -12 -21 -13q-16 0 -24 10.5t-8 24.5zM115 -8q0 14 4 22l792 1538q4 12 13.5 16.5t19.5 4.5q16 0 31.5 -12.5 t15.5 -34.5q0 -10 -6 -23l-786 -1523q-12 -27 -41 -27q-16 0 -29.5 11t-13.5 28zM702 31v100q0 43 29 79t72 68.5t94 63.5t94 63.5t72 68.5t29 79q0 47 -37 87t-115 40q-59 0 -97 -27.5t-38 -87.5q0 -10 -11.5 -21.5t-33.5 -11.5q-18 0 -28.5 10.5t-10.5 39.5q0 80 64.5 129 t156.5 49q49 0 92 -15.5t75 -43t49.5 -64.5t17.5 -80q0 -55 -29 -99t-72 -81t-93 -66.5t-93 -58.5t-72 -57.5t-29 -61.5v-55h365q12 0 21.5 -11.5t9.5 -27.5q0 -14 -9.5 -26.5t-21.5 -12.5h-412q-12 0 -25.5 8t-13.5 23z" />
<glyph unicode="&#xbe;" horiz-adv-x="1474" d="M70 907q0 25 9 32t30 7q27 0 36 -8t9 -25q0 -33 33.5 -68.5t123.5 -35.5q80 0 122 34t42 111v19q0 68 -45 97.5t-117 29.5q-18 0 -25 11t-7 24q0 14 7 25t25 11q66 0 103 26t37 99q0 125 -136 125q-43 0 -71.5 -10t-44 -25.5t-21.5 -33t-6 -33.5q0 -37 -41 -37 q-27 0 -35 9t-8 34q0 23 9.5 52.5t35 56t70.5 45t114 18.5q96 0 156 -41t60 -143q0 -70 -27 -114t-68 -60q51 -18 84 -58.5t33 -107.5v-19q0 -61 -19.5 -103t-52 -68.5t-76.5 -39t-96 -12.5q-61 0 -107 16.5t-77 42t-45 56.5t-14 61zM395 -8q0 14 4 22l793 1538 q4 12 13.5 16.5t19.5 4.5q16 0 31.5 -12.5t15.5 -34.5q0 -10 -6 -23l-787 -1523q-12 -27 -41 -27q-16 0 -29.5 11t-13.5 28zM920 209q0 6 4 18l288 506q12 27 39 27q14 0 27.5 -9.5t13.5 -25.5q0 -6 -4 -14l-260 -455h215v178q0 16 12.5 22.5t28.5 6.5t29.5 -6t13.5 -23 v-178h64q16 0 24 -12.5t8 -28.5q0 -14 -10 -26.5t-22 -12.5h-64v-145q0 -16 -13.5 -23.5t-29.5 -7.5t-28.5 7t-12.5 24v145h-293q-31 0 -30 33z" />
<glyph unicode="&#xbf;" horiz-adv-x="798" d="M74 356q0 100 32.5 174t77.5 129.5t93.5 97.5t78.5 79q45 51 53.5 125.5t8.5 195.5q0 41 45 41q18 0 30.5 -10t12.5 -37q0 -90 -5 -149.5t-15.5 -100.5t-25 -67.5t-32.5 -47.5q-33 -37 -78 -75.5t-85 -87t-68.5 -111.5t-28.5 -150q0 -133 72.5 -208.5t220.5 -75.5 q66 0 107.5 14t68.5 31.5t42 32t32 14.5q12 0 25.5 -12.5t13.5 -32.5q0 -23 -24 -47.5t-64.5 -44t-94 -32.5t-114.5 -13q-96 0 -167 28.5t-118 78.5t-70.5 116.5t-23.5 144.5zM381 1444q0 35 23.5 59.5t58.5 24.5t58.5 -24.5t23.5 -59.5t-23.5 -59.5t-58.5 -24.5t-58.5 24.5 t-23.5 59.5z" />
<glyph unicode="&#xc0;" horiz-adv-x="1085" d="M47 45q0 8 2 12l438 1416q12 37 58 36q18 0 34.5 -9t22.5 -27l434 -1416q0 -4 1 -6t1 -6q0 -18 -18.5 -31.5t-40.5 -13.5q-33 0 -41 31l-100 325h-590l-98 -325q-11 -31 -46 -31q-20 0 -38.5 11.5t-18.5 33.5zM274 451h535l-264 874zM393 1907q0 16 11.5 31.5t29.5 15.5 q6 0 15 -4l219 -125q18 -8 18 -31q0 -18 -13.5 -32.5t-31.5 -14.5q-8 0 -20 6l-205 113q-23 14 -23 41z" />
<glyph unicode="&#xc1;" horiz-adv-x="1085" d="M47 45q0 8 2 12l438 1416q12 37 58 36q18 0 34.5 -9t22.5 -27l434 -1416q0 -4 1 -6t1 -6q0 -18 -18.5 -31.5t-40.5 -13.5q-33 0 -41 31l-100 325h-590l-98 -325q-11 -31 -46 -31q-20 0 -38.5 11.5t-18.5 33.5zM274 451h535l-264 874zM406 1794q0 23 18 31l219 125 q8 4 16 4q18 0 28.5 -15.5t10.5 -31.5q0 -27 -22 -41l-205 -113q-10 -6 -20 -6q-18 0 -31.5 14.5t-13.5 32.5z" />
<glyph unicode="&#xc2;" horiz-adv-x="1085" d="M47 45q0 8 2 12l438 1416q12 37 58 36q18 0 34.5 -9t22.5 -27l434 -1416q0 -4 1 -6t1 -6q0 -18 -18.5 -31.5t-40.5 -13.5q-33 0 -41 31l-100 325h-590l-98 -325q-11 -31 -46 -31q-20 0 -38.5 11.5t-18.5 33.5zM272 1794q0 23 23 35l213 115q16 10 35 10q18 0 35 -10 l213 -113q23 -12 22 -41q0 -16 -11 -28.5t-28 -12.5q-4 0 -9 2t-9 4l-213 113l-213 -115q-4 -2 -8.5 -4t-8.5 -2q-16 0 -28.5 13.5t-12.5 33.5zM274 451h535l-264 874z" />
<glyph unicode="&#xc3;" horiz-adv-x="1085" d="M47 45q0 8 2 12l438 1416q12 37 58 36q18 0 34.5 -9t22.5 -27l434 -1416q0 -4 1 -6t1 -6q0 -18 -18.5 -31.5t-40.5 -13.5q-33 0 -41 31l-100 325h-590l-98 -325q-11 -31 -46 -31q-20 0 -38.5 11.5t-18.5 33.5zM236 1833q0 25 18 44t46 34.5t59.5 24t58.5 8.5 q39 0 69.5 -11.5t60.5 -26t61.5 -25.5t72.5 -11q35 0 55.5 10t34.5 21.5t24.5 21.5t22.5 10q16 0 25.5 -12t9.5 -27q0 -29 -18.5 -49t-45 -33.5t-56 -20.5t-52.5 -7q-39 0 -69.5 11t-61.5 25.5t-62.5 26t-74.5 11.5q-33 0 -55.5 -10.5t-39 -24t-27.5 -23.5t-24 -10 q-16 0 -24 13.5t-8 29.5zM274 451h535l-264 874z" />
<glyph unicode="&#xc4;" horiz-adv-x="1085" d="M47 45q0 8 2 12l438 1416q12 37 58 36q18 0 34.5 -9t22.5 -27l434 -1416q0 -4 1 -6t1 -6q0 -18 -18.5 -31.5t-40.5 -13.5q-33 0 -41 31l-100 325h-590l-98 -325q-11 -31 -46 -31q-20 0 -38.5 11.5t-18.5 33.5zM274 451h535l-264 874zM356 1817q0 29 19.5 47t48.5 18 t47 -18.5t18 -46.5q0 -29 -18 -48.5t-47 -19.5t-48.5 19.5t-19.5 48.5zM596 1817q0 29 18.5 47t49.5 18q29 0 47 -18.5t18 -46.5q0 -29 -18.5 -48.5t-46.5 -19.5q-31 0 -49.5 19.5t-18.5 48.5z" />
<glyph unicode="&#xc5;" horiz-adv-x="1085" d="M47 45q0 8 2 12l438 1416q12 37 58 36q18 0 34.5 -9t22.5 -27l434 -1416q0 -4 1 -6t1 -6q0 -18 -18.5 -31.5t-40.5 -13.5q-33 0 -41 31l-100 325h-590l-98 -325q-11 -31 -46 -31q-20 0 -38.5 11.5t-18.5 33.5zM274 451h535l-264 874zM356 1911q0 37 14.5 70.5t40 60 t59.5 42t73 15.5q37 0 70.5 -15.5t59 -41t41 -60t15.5 -71.5q0 -39 -15.5 -74t-41 -61.5t-59 -42t-70.5 -15.5q-39 0 -73 15.5t-59.5 42t-40 61.5t-14.5 74zM414 1911q0 -51 37.5 -94t91.5 -43q53 0 90 42t37 95q0 47 -37 87t-90 40q-27 0 -50.5 -11.5t-41 -30t-27.5 -41 t-10 -44.5z" />
<glyph unicode="&#xc6;" horiz-adv-x="1427" d="M156 55v1012q0 117 31.5 199t88 133t131 74.5t160.5 23.5h764q23 0 32 -15.5t9 -31.5q0 -20 -10 -35.5t-31 -15.5h-483v-602h315q20 0 31.5 -14.5t11.5 -34.5q0 -16 -10 -31t-33 -15h-315v-604h483q20 0 30.5 -15t10.5 -36q0 -16 -9 -31.5t-32 -15.5h-536q-18 0 -34 11.5 t-16 33.5v657h-489v-647q0 -23 -8 -39t-43 -16q-27 0 -38 16.5t-11 38.5zM256 797h489v602h-178q-147 0 -229 -80t-82 -252v-270z" />
<glyph unicode="&#xc7;" horiz-adv-x="1058" d="M147 418v649q0 117 34 199t90.5 133t132 74.5t161.5 23.5q98 0 175 -27.5t128.5 -73.5t78 -106.5t26.5 -124.5q0 -41 -13.5 -54t-37.5 -13q-31 0 -41.5 13.5t-10.5 29.5q-2 35 -14 80t-45 85t-92.5 66.5t-153.5 26.5q-154 0 -234.5 -80t-80.5 -252v-649q0 -174 81 -253 t240 -79q96 0 152.5 26.5t87.5 65.5t42 84t17 84q2 18 12.5 30.5t37.5 12.5t40 -13.5t13 -56.5q0 -57 -22.5 -111t-65.5 -99.5t-106.5 -76t-145.5 -38.5l-31 -123q104 -4 149.5 -48t45.5 -97q0 -57 -44 -104.5t-130 -47.5q-18 0 -45 3t-51.5 9t-42 15.5t-17.5 21.5 q0 10 8 26.5t21 16.5q10 0 36.5 -13t77.5 -13q61 0 86 24.5t25 56.5q0 45 -37 65.5t-100 25.5l-68 4l43 172q-84 0 -158.5 23.5t-131 74.5t-89.5 133t-33 199z" />
<glyph unicode="&#xc8;" horiz-adv-x="1030" d="M162 45v1407q0 23 15.5 34t33.5 11h729q23 0 33 -15.5t10 -31.5q0 -20 -11 -35.5t-32 -15.5h-676v-602h326q20 0 31.5 -14.5t11.5 -34.5q0 -16 -10.5 -31t-32.5 -15h-326v-604h676q20 0 31.5 -15t11.5 -36q0 -16 -10 -31.5t-33 -15.5h-729q-18 0 -33.5 11.5t-15.5 33.5z M424 1907q0 16 11 31.5t30 15.5q6 0 14 -4l219 -125q18 -8 19 -31q0 -18 -13.5 -32.5t-31.5 -14.5q-8 0 -21 6l-205 113q-23 14 -22 41z" />
<glyph unicode="&#xc9;" horiz-adv-x="1030" d="M162 45v1407q0 23 15.5 34t33.5 11h729q23 0 33 -15.5t10 -31.5q0 -20 -11 -35.5t-32 -15.5h-676v-602h326q20 0 31.5 -14.5t11.5 -34.5q0 -16 -10.5 -31t-32.5 -15h-326v-604h676q20 0 31.5 -15t11.5 -36q0 -16 -10 -31.5t-33 -15.5h-729q-18 0 -33.5 11.5t-15.5 33.5z M430 1794q0 23 19 31l219 125q8 4 16 4q18 0 28.5 -15.5t10.5 -31.5q0 -27 -23 -41l-204 -113q-10 -6 -21 -6q-18 0 -31.5 14.5t-13.5 32.5z" />
<glyph unicode="&#xca;" horiz-adv-x="1030" d="M162 45v1407q0 23 15.5 34t33.5 11h729q23 0 33 -15.5t10 -31.5q0 -20 -11 -35.5t-32 -15.5h-676v-602h326q20 0 31.5 -14.5t11.5 -34.5q0 -16 -10.5 -31t-32.5 -15h-326v-604h676q20 0 31.5 -15t11.5 -36q0 -16 -10 -31.5t-33 -15.5h-729q-18 0 -33.5 11.5t-15.5 33.5z M303 1794q0 23 23 35l213 115q16 10 34 10t35 -10l213 -113q23 -12 23 -41q0 -16 -11.5 -28.5t-27.5 -12.5q-4 0 -9 2l-10 4l-213 113l-213 -115l-8 -4t-8 -2q-16 0 -28.5 13.5t-12.5 33.5z" />
<glyph unicode="&#xcb;" horiz-adv-x="1030" d="M162 45v1407q0 23 15.5 34t33.5 11h729q23 0 33 -15.5t10 -31.5q0 -20 -11 -35.5t-32 -15.5h-676v-602h326q20 0 31.5 -14.5t11.5 -34.5q0 -16 -10.5 -31t-32.5 -15h-326v-604h676q20 0 31.5 -15t11.5 -36q0 -16 -10 -31.5t-33 -15.5h-729q-18 0 -33.5 11.5t-15.5 33.5z M385 1817q0 29 19.5 47t48.5 18t47 -18.5t18 -46.5q0 -29 -18.5 -48.5t-46.5 -19.5q-29 0 -48.5 19.5t-19.5 48.5zM625 1817q0 29 18 47t49 18q29 0 47.5 -18.5t18.5 -46.5q0 -29 -18.5 -48.5t-47.5 -19.5q-31 0 -49 19.5t-18 48.5z" />
<glyph unicode="&#xcc;" horiz-adv-x="425" d="M63 1907q0 16 11.5 31.5t29.5 15.5q6 0 15 -4l219 -125q18 -8 18 -31q0 -18 -13 -32.5t-32 -14.5q-8 0 -20 6l-205 113q-23 14 -23 41zM162 45v1409q0 23 16.5 33t34.5 10q20 0 35.5 -10t15.5 -33v-1409q0 -23 -15.5 -34t-35.5 -11q-18 0 -34.5 11.5t-16.5 33.5z" />
<glyph unicode="&#xcd;" horiz-adv-x="425" d="M68 1794q0 23 18 31l219 125q8 4 17 4q18 0 28 -15.5t10 -31.5q0 -27 -22 -41l-205 -113q-10 -6 -20 -6q-18 0 -31.5 14.5t-13.5 32.5zM162 45v1409q0 23 16.5 33t34.5 10q20 0 35.5 -10t15.5 -33v-1409q0 -23 -15.5 -34t-35.5 -11q-18 0 -34.5 11.5t-16.5 33.5z" />
<glyph unicode="&#xce;" horiz-adv-x="425" d="M-55 1794q0 23 22 35l213 115q16 10 35 10q18 0 35 -10l213 -113q23 -12 22 -41q0 -16 -11 -28.5t-28 -12.5q-4 0 -9 2t-9 4l-213 113l-213 -115l-8 -4t-8 -2q-16 0 -28.5 13.5t-12.5 33.5zM162 45v1409q0 23 16.5 33t34.5 10q20 0 35.5 -10t15.5 -33v-1409 q0 -23 -15.5 -34t-35.5 -11q-18 0 -34.5 11.5t-16.5 33.5z" />
<glyph unicode="&#xcf;" horiz-adv-x="425" d="M27 1817q0 29 19 47t48 18t47.5 -18.5t18.5 -46.5q0 -29 -18.5 -48.5t-47.5 -19.5t-48 19.5t-19 48.5zM162 45v1409q0 23 16.5 33t34.5 10q20 0 35.5 -10t15.5 -33v-1409q0 -23 -15.5 -34t-35.5 -11q-18 0 -34.5 11.5t-16.5 33.5zM266 1817q0 29 18.5 47t49.5 18 q29 0 47 -18.5t18 -46.5q0 -29 -18.5 -48.5t-46.5 -19.5q-31 0 -49.5 19.5t-18.5 48.5z" />
<glyph unicode="&#xd0;" horiz-adv-x="1155" d="M2 786q0 18 11.5 31.5t29.5 13.5h139v623q0 16 13.5 29.5t35.5 13.5h363q86 0 161.5 -23.5t132 -74.5t88.5 -133t32 -199v-637q0 -117 -32 -198.5t-88.5 -133t-132 -75t-161.5 -23.5h-363q-23 0 -36 13.5t-13 29.5v698h-139q-18 0 -29.5 13.5t-11.5 31.5zM285 98h309 q147 0 229 80t82 252v637q0 172 -82 252t-229 80h-309v-568h252q16 0 28.5 -13t12.5 -32q0 -18 -12.5 -31.5t-28.5 -13.5h-252v-643z" />
<glyph unicode="&#xd1;" horiz-adv-x="1153" d="M162 45v1409q0 25 15.5 34t35.5 9q29 0 49.5 -28.5t34.5 -55.5l592 -1169v1210q0 23 16.5 33t34.5 10q20 0 35.5 -10t15.5 -33v-1409q0 -23 -15.5 -34t-35.5 -11q-23 0 -41 24.5t-33 51.5l-602 1179v-1210q0 -23 -15.5 -34t-35.5 -11q-18 0 -34.5 11.5t-16.5 33.5z M266 1833q0 25 18.5 44t46 34.5t59.5 24t59 8.5q39 0 69.5 -11.5t60 -26t61.5 -25.5t73 -11q35 0 55 10t34.5 21.5t25 21.5t22.5 10q16 0 25.5 -12t9.5 -27q0 -29 -18.5 -49t-45 -33.5t-56.5 -20.5t-52 -7q-39 0 -70 11t-61.5 25.5t-62.5 26t-75 11.5q-33 0 -55 -10.5 t-38.5 -24t-28 -23.5t-23.5 -10q-16 0 -24.5 13.5t-8.5 29.5z" />
<glyph unicode="&#xd2;" horiz-adv-x="1120" d="M147 418v649q0 117 32 199t87.5 133t130 74.5t162.5 23.5q86 0 162 -23.5t132 -74.5t88 -133t32 -199v-649q0 -117 -32 -199t-88 -133t-132 -74.5t-162 -23.5q-88 0 -162.5 23.5t-130 74.5t-87.5 133t-32 199zM250 418q0 -172 81 -252t228 -80t229 80t82 252v649 q0 172 -81.5 252t-229.5 80q-147 0 -228 -80t-81 -252v-649zM410 1907q0 16 11 31.5t30 15.5q6 0 14 -4l219 -125q18 -8 18 -31q0 -18 -13 -32.5t-32 -14.5q-8 0 -20 6l-205 113q-23 14 -22 41z" />
<glyph unicode="&#xd3;" horiz-adv-x="1120" d="M147 418v649q0 117 32 199t87.5 133t130 74.5t162.5 23.5q86 0 162 -23.5t132 -74.5t88 -133t32 -199v-649q0 -117 -32 -199t-88 -133t-132 -74.5t-162 -23.5q-88 0 -162.5 23.5t-130 74.5t-87.5 133t-32 199zM250 418q0 -172 81 -252t228 -80t229 80t82 252v649 q0 172 -81.5 252t-229.5 80q-147 0 -228 -80t-81 -252v-649zM424 1794q0 23 18 31l220 125q8 4 16 4q18 0 28.5 -15.5t10.5 -31.5q0 -27 -23 -41l-205 -113q-10 -6 -20 -6q-18 0 -31.5 14.5t-13.5 32.5z" />
<glyph unicode="&#xd4;" horiz-adv-x="1120" d="M147 418v649q0 117 32 199t87.5 133t130 74.5t162.5 23.5q86 0 162 -23.5t132 -74.5t88 -133t32 -199v-649q0 -117 -32 -199t-88 -133t-132 -74.5t-162 -23.5q-88 0 -162.5 23.5t-130 74.5t-87.5 133t-32 199zM250 418q0 -172 81 -252t228 -80t229 80t82 252v649 q0 172 -81.5 252t-229.5 80q-147 0 -228 -80t-81 -252v-649zM289 1794q0 23 22 35l213 115q16 10 35 10q18 0 35 -10l213 -113q23 -12 22 -41q0 -16 -11 -28.5t-27 -12.5q-4 0 -9.5 2t-9.5 4l-213 113l-213 -115l-8 -4t-8 -2q-16 0 -28.5 13.5t-12.5 33.5z" />
<glyph unicode="&#xd5;" horiz-adv-x="1120" d="M147 418v649q0 117 32 199t87.5 133t130 74.5t162.5 23.5q86 0 162 -23.5t132 -74.5t88 -133t32 -199v-649q0 -117 -32 -199t-88 -133t-132 -74.5t-162 -23.5q-88 0 -162.5 23.5t-130 74.5t-87.5 133t-32 199zM250 418q0 -172 81 -252t228 -80t229 80t82 252v649 q0 172 -81.5 252t-229.5 80q-147 0 -228 -80t-81 -252v-649zM250 1833q0 25 18.5 44t46 34.5t59.5 24t58 8.5q39 0 69.5 -11.5t60.5 -26t61.5 -25.5t72.5 -11q35 0 55.5 10t35 21.5t24.5 21.5t23 10q16 0 25 -12t9 -27q0 -29 -18.5 -49t-45 -33.5t-56 -20.5t-52.5 -7 q-39 0 -69.5 11t-61 25.5t-62.5 26t-75 11.5q-33 0 -55.5 -10.5t-39 -24t-27.5 -23.5t-23 -10q-16 0 -24.5 13.5t-8.5 29.5z" />
<glyph unicode="&#xd6;" horiz-adv-x="1120" d="M147 418v649q0 117 32 199t87.5 133t130 74.5t162.5 23.5q86 0 162 -23.5t132 -74.5t88 -133t32 -199v-649q0 -117 -32 -199t-88 -133t-132 -74.5t-162 -23.5q-88 0 -162.5 23.5t-130 74.5t-87.5 133t-32 199zM250 418q0 -172 81 -252t228 -80t229 80t82 252v649 q0 172 -81.5 252t-229.5 80q-147 0 -228 -80t-81 -252v-649zM373 1817q0 29 19 47t48 18t47.5 -18.5t18.5 -46.5q0 -29 -18.5 -48.5t-47.5 -19.5t-48 19.5t-19 48.5zM612 1817q0 29 18.5 47t49.5 18q29 0 47 -18.5t18 -46.5q0 -29 -18 -48.5t-47 -19.5q-31 0 -49.5 19.5 t-18.5 48.5z" />
<glyph unicode="&#xd7;" horiz-adv-x="808" d="M127 336q0 12 12 29l203 198l-203 199q-10 10 -10 31q0 18 14.5 32.5t32.5 14.5q16 0 31 -11l196 -200l199 200q14 10 31 11q18 0 32.5 -14.5t14.5 -32.5q0 -20 -10 -31l-203 -199l203 -198q12 -17 12 -29q0 -16 -14.5 -32.5t-34.5 -16.5q-14 0 -29 12l-201 199 l-198 -199q-16 -12 -29 -12q-18 0 -33.5 15t-15.5 34z" />
<glyph unicode="&#xd8;" horiz-adv-x="1120" d="M123 -8q0 14 4 22l76 150q-27 47 -41.5 110.5t-14.5 143.5v649q0 117 32 199t87.5 133t130 74.5t162.5 23.5q84 0 155.5 -21.5t127.5 -68.5l76 145q9 21 34 21q16 0 31.5 -12.5t15.5 -34.5q0 -12 -8 -23l-86 -168q33 -49 50.5 -115.5t17.5 -152.5v-649q0 -117 -32 -199 t-88 -133t-132 -74.5t-162 -23.5q-90 0 -166 23.5t-131 76.5l-55 -108q-14 -27 -43 -27q-16 0 -28.5 11t-12.5 28zM250 418q0 -72 16 -133l527 1026q-80 88 -234 88q-147 0 -228 -80t-81 -252v-649zM313 186q80 -100 246 -100q147 0 229 80t82 252v649q0 88 -24 154z" />
<glyph unicode="&#xd9;" horiz-adv-x="1140" d="M156 418v1036q0 23 16 33t35 10q20 0 35.5 -10t15.5 -33v-1036q0 -172 82 -252t229 -80t230.5 80t83.5 252v1036q0 23 15 33t36 10q18 0 34.5 -10t16.5 -33v-1036q0 -117 -31.5 -199t-88 -133t-132.5 -74.5t-164 -23.5t-163.5 23.5t-131 74.5t-87 133t-31.5 199z M418 1907q0 16 11 31.5t30 15.5q6 0 14 -4l219 -125q18 -8 19 -31q0 -18 -13.5 -32.5t-31.5 -14.5q-8 0 -21 6l-205 113q-23 14 -22 41z" />
<glyph unicode="&#xda;" horiz-adv-x="1140" d="M156 418v1036q0 23 16 33t35 10q20 0 35.5 -10t15.5 -33v-1036q0 -172 82 -252t229 -80t230.5 80t83.5 252v1036q0 23 15 33t36 10q18 0 34.5 -10t16.5 -33v-1036q0 -117 -31.5 -199t-88 -133t-132.5 -74.5t-164 -23.5t-163.5 23.5t-131 74.5t-87 133t-31.5 199z M430 1794q0 23 19 31l219 125q8 4 16 4q18 0 28.5 -15.5t10.5 -31.5q0 -27 -23 -41l-204 -113q-10 -6 -21 -6q-18 0 -31.5 14.5t-13.5 32.5z" />
<glyph unicode="&#xdb;" horiz-adv-x="1140" d="M156 418v1036q0 23 16 33t35 10q20 0 35.5 -10t15.5 -33v-1036q0 -172 82 -252t229 -80t230.5 80t83.5 252v1036q0 23 15 33t36 10q18 0 34.5 -10t16.5 -33v-1036q0 -117 -31.5 -199t-88 -133t-132.5 -74.5t-164 -23.5t-163.5 23.5t-131 74.5t-87 133t-31.5 199z M297 1794q0 23 22 35l213 115q16 10 35 10q18 0 35 -10l213 -113q23 -12 23 -41q0 -16 -11.5 -28.5t-27.5 -12.5q-4 0 -9.5 2t-9.5 4l-213 113l-213 -115l-8 -4t-8 -2q-16 0 -28.5 13.5t-12.5 33.5z" />
<glyph unicode="&#xdc;" horiz-adv-x="1140" d="M156 418v1036q0 23 16 33t35 10q20 0 35.5 -10t15.5 -33v-1036q0 -172 82 -252t229 -80t230.5 80t83.5 252v1036q0 23 15 33t36 10q18 0 34.5 -10t16.5 -33v-1036q0 -117 -31.5 -199t-88 -133t-132.5 -74.5t-164 -23.5t-163.5 23.5t-131 74.5t-87 133t-31.5 199z M383 1817q0 29 19.5 47t48.5 18t47 -18.5t18 -46.5q0 -29 -18.5 -48.5t-46.5 -19.5q-29 0 -48.5 19.5t-19.5 48.5zM623 1817q0 29 18 47t49 18q29 0 47.5 -18.5t18.5 -46.5q0 -29 -18.5 -48.5t-47.5 -19.5q-31 0 -49 19.5t-18 48.5z" />
<glyph unicode="&#xdd;" horiz-adv-x="1064" d="M43 1452q0 23 15.5 34t33.5 11q25 0 47 -37l393 -788l396 788q18 37 47 37q16 0 30.5 -11t14.5 -34q0 -6 -1 -16.5t-7 -22.5l-426 -833q-2 -4 -2 -15v-520q0 -23 -16.5 -34t-35.5 -11q-20 0 -35.5 11.5t-15.5 33.5v520q0 6 -4 15l-424 833q-10 27 -10 39zM389 1794 q0 23 19 31l219 125q8 4 16 4q18 0 28.5 -15.5t10.5 -31.5q0 -27 -23 -41l-204 -113q-10 -6 -21 -6q-18 0 -31.5 14.5t-13.5 32.5z" />
<glyph unicode="&#xde;" d="M162 45v1415q0 20 14.5 30.5t34.5 10.5q51 0 51 -43v-346q35 61 106.5 108.5t182.5 47.5q68 0 131 -20.5t112.5 -60.5t79 -98.5t29.5 -134.5v-364q0 -76 -29.5 -134.5t-79 -98.5t-110.5 -61.5t-123 -21.5q-47 0 -95 11.5t-88 33t-71 51t-45 64.5v-389q0 -16 -14.5 -30.5 t-34.5 -14.5q-23 0 -37 14.5t-14 30.5zM262 588q0 -39 21.5 -78t58.5 -70.5t88 -51t113 -19.5q49 0 95 13t83 41t59.5 70t22.5 97v364q0 55 -22.5 95.5t-58.5 68t-83 40.5t-96 13q-55 0 -106.5 -15t-89.5 -44t-61.5 -68.5t-23.5 -89.5v-366z" />
<glyph unicode="&#xdf;" horiz-adv-x="1103" d="M14 922q0 18 11.5 31.5t29.5 13.5h158v233q0 76 18.5 143.5t57.5 118.5t100.5 81t149.5 30q72 0 133 -21.5t106 -67.5t70.5 -116t25.5 -164q0 -55 -9 -111.5t-27.5 -104.5t-46 -85t-64.5 -53q51 -10 102.5 -45t93.5 -89t68.5 -124t26.5 -150v-36q0 -115 -31 -199 t-80 -139.5t-112 -82t-131 -26.5q-23 0 -60 3t-72.5 12.5t-62.5 24.5t-27 42q0 16 10.5 31.5t26.5 15.5q10 0 23.5 -6t33 -14.5t46 -14.5t63.5 -6q127 0 203 89t76 265v39q0 55 -17.5 114.5t-55.5 110t-101.5 85t-155.5 43.5q-31 4 -48.5 10t-17.5 35t19.5 37t48.5 10 q59 2 96 33.5t56.5 74.5t25.5 92.5t6 88.5q0 141 -58 222t-179 81q-66 0 -110 -23.5t-70.5 -61.5t-38 -88.5t-11.5 -103.5v-1157q0 -20 -15 -31.5t-38 -11.5q-20 0 -33.5 11.5t-13.5 31.5v836h-158q-18 0 -29.5 12t-11.5 31z" />
<glyph unicode="&#xe0;" horiz-adv-x="882" d="M68 258q0 82 34.5 135t97 84t150.5 43t195 12h110v54q0 53 -14 107.5t-45 97.5t-80 69.5t-119 26.5q-49 0 -85 -9.5t-61.5 -19.5t-41.5 -19.5t-27 -9.5q-23 0 -34 19.5t-11 36.5q0 16 23.5 33.5t61.5 31t85 21.5t94 8q98 0 166 -33t110 -88t60.5 -125.5t18.5 -146.5v-541 q0 -18 -13.5 -31.5t-35.5 -13.5q-20 0 -35 13.5t-15 31.5v98q-53 -59 -128.5 -107t-178.5 -48q-59 0 -110.5 16t-90 50t-60 84t-21.5 120zM168 262q0 -96 56.5 -140t140.5 -44q53 0 105 21.5t93 55t66.5 71.5t25.5 73v152h-100q-76 0 -145.5 -5.5t-124 -25t-86 -57 t-31.5 -101.5zM264 1380q0 16 11.5 31.5t29.5 15.5q6 0 14 -4l220 -125q18 -8 18 -30q0 -18 -13.5 -32.5t-31.5 -14.5q-8 0 -20 6l-205 112q-23 14 -23 41z" />
<glyph unicode="&#xe1;" horiz-adv-x="882" d="M68 258q0 82 34.5 135t97 84t150.5 43t195 12h110v54q0 53 -14 107.5t-45 97.5t-80 69.5t-119 26.5q-49 0 -85 -9.5t-61.5 -19.5t-41.5 -19.5t-27 -9.5q-23 0 -34 19.5t-11 36.5q0 16 23.5 33.5t61.5 31t85 21.5t94 8q98 0 166 -33t110 -88t60.5 -125.5t18.5 -146.5v-541 q0 -18 -13.5 -31.5t-35.5 -13.5q-20 0 -35 13.5t-15 31.5v98q-53 -59 -128.5 -107t-178.5 -48q-59 0 -110.5 16t-90 50t-60 84t-21.5 120zM168 262q0 -96 56.5 -140t140.5 -44q53 0 105 21.5t93 55t66.5 71.5t25.5 73v152h-100q-76 0 -145.5 -5.5t-124 -25t-86 -57 t-31.5 -101.5zM270 1268q0 23 19 30l219 125q8 4 16 4q18 0 28.5 -15t10.5 -32q0 -27 -22 -41l-205 -112q-10 -6 -21 -6q-18 0 -31.5 14t-13.5 33z" />
<glyph unicode="&#xe2;" horiz-adv-x="882" d="M68 258q0 82 34.5 135t97 84t150.5 43t195 12h110v54q0 53 -14 107.5t-45 97.5t-80 69.5t-119 26.5q-49 0 -85 -9.5t-61.5 -19.5t-41.5 -19.5t-27 -9.5q-23 0 -34 19.5t-11 36.5q0 16 23.5 33.5t61.5 31t85 21.5t94 8q98 0 166 -33t110 -88t60.5 -125.5t18.5 -146.5v-541 q0 -18 -13.5 -31.5t-35.5 -13.5q-20 0 -35 13.5t-15 31.5v98q-53 -59 -128.5 -107t-178.5 -48q-59 0 -110.5 16t-90 50t-60 84t-21.5 120zM147 1268q0 23 23 35l213 114q16 10 35 10q18 0 35 -10l213 -112q23 -12 22 -41q0 -16 -11 -28.5t-28 -12.5q-4 0 -9 2t-9 4l-213 112 l-213 -114l-8 -4t-9 -2q-16 0 -28.5 13t-12.5 34zM168 262q0 -96 56.5 -140t140.5 -44q53 0 105 21.5t93 55t66.5 71.5t25.5 73v152h-100q-76 0 -145.5 -5.5t-124 -25t-86 -57t-31.5 -101.5z" />
<glyph unicode="&#xe3;" horiz-adv-x="882" d="M68 258q0 82 34.5 135t97 84t150.5 43t195 12h110v54q0 53 -14 107.5t-45 97.5t-80 69.5t-119 26.5q-49 0 -85 -9.5t-61.5 -19.5t-41.5 -19.5t-27 -9.5q-23 0 -34 19.5t-11 36.5q0 16 23.5 33.5t61.5 31t85 21.5t94 8q98 0 166 -33t110 -88t60.5 -125.5t18.5 -146.5v-541 q0 -18 -13.5 -31.5t-35.5 -13.5q-20 0 -35 13.5t-15 31.5v98q-53 -59 -128.5 -107t-178.5 -48q-59 0 -110.5 16t-90 50t-60 84t-21.5 120zM102 1307q0 25 18.5 44t46.5 34.5t59.5 23.5t58.5 8q39 0 69.5 -11t60 -25.5t61.5 -26t73 -11.5q35 0 55.5 10.5t34.5 21.5t24.5 21.5 t22.5 10.5q16 0 25.5 -12.5t9.5 -26.5q0 -29 -18.5 -49.5t-45 -33.5t-56.5 -20.5t-52 -7.5q-39 0 -69.5 11.5t-61.5 26t-62.5 25.5t-74.5 11q-33 0 -55.5 -10t-39 -23.5t-28 -23.5t-23.5 -10q-16 0 -24.5 13t-8.5 30zM168 262q0 -96 56.5 -140t140.5 -44q53 0 105 21.5 t93 55t66.5 71.5t25.5 73v152h-100q-76 0 -145.5 -5.5t-124 -25t-86 -57t-31.5 -101.5z" />
<glyph unicode="&#xe4;" horiz-adv-x="882" d="M68 258q0 82 34.5 135t97 84t150.5 43t195 12h110v54q0 53 -14 107.5t-45 97.5t-80 69.5t-119 26.5q-49 0 -85 -9.5t-61.5 -19.5t-41.5 -19.5t-27 -9.5q-23 0 -34 19.5t-11 36.5q0 16 23.5 33.5t61.5 31t85 21.5t94 8q98 0 166 -33t110 -88t60.5 -125.5t18.5 -146.5v-541 q0 -18 -13.5 -31.5t-35.5 -13.5q-20 0 -35 13.5t-15 31.5v98q-53 -59 -128.5 -107t-178.5 -48q-59 0 -110.5 16t-90 50t-60 84t-21.5 120zM168 262q0 -96 56.5 -140t140.5 -44q53 0 105 21.5t93 55t66.5 71.5t25.5 73v152h-100q-76 0 -145.5 -5.5t-124 -25t-86 -57 t-31.5 -101.5zM225 1290q0 29 19.5 47.5t48.5 18.5t47 -18.5t18 -47.5t-18 -48t-47 -19t-48.5 19.5t-19.5 47.5zM465 1290q0 29 18 47.5t49 18.5q29 0 47.5 -18.5t18.5 -47.5t-18.5 -48t-47.5 -19q-31 0 -49 19.5t-18 47.5z" />
<glyph unicode="&#xe5;" horiz-adv-x="882" d="M68 258q0 82 34.5 135t97 84t150.5 43t195 12h110v54q0 53 -14 107.5t-45 97.5t-80 69.5t-119 26.5q-49 0 -85 -9.5t-61.5 -19.5t-41.5 -19.5t-27 -9.5q-23 0 -34 19.5t-11 36.5q0 16 23.5 33.5t61.5 31t85 21.5t94 8q98 0 166 -33t110 -88t60.5 -125.5t18.5 -146.5v-541 q0 -18 -13.5 -31.5t-35.5 -13.5q-20 0 -35 13.5t-15 31.5v98q-53 -59 -128.5 -107t-178.5 -48q-59 0 -110.5 16t-90 50t-60 84t-21.5 120zM168 262q0 -96 56.5 -140t140.5 -44q53 0 105 21.5t93 55t66.5 71.5t25.5 73v152h-100q-76 0 -145.5 -5.5t-124 -25t-86 -57 t-31.5 -101.5zM227 1384q0 37 14.5 71t40 60.5t59.5 42t73 15.5q37 0 70.5 -15.5t59 -41t41 -60.5t15.5 -72q0 -39 -15.5 -73.5t-41 -61t-59 -42t-70.5 -15.5q-39 0 -73 15.5t-59.5 42t-40 61.5t-14.5 73zM285 1384q0 -51 37.5 -94t91.5 -43q53 0 90 42t37 95q0 47 -37 87 t-90 40q-27 0 -50.5 -11t-41 -29.5t-27.5 -41t-10 -45.5z" />
<glyph unicode="&#xe6;" horiz-adv-x="1480" d="M68 256q0 82 33.5 136t96 85t149.5 43t194 12h110v56q0 55 -14 108.5t-45 96.5t-81 69.5t-122 26.5q-47 0 -82 -9.5t-60.5 -19.5t-43 -19.5t-27.5 -9.5q-18 0 -30.5 19.5t-12.5 36.5q0 16 23.5 33.5t61.5 31t85 21.5t96 8q125 0 201 -56.5t111 -142.5q47 86 131 141.5 t188 55.5q61 0 127 -21.5t121 -68.5t90 -123t35 -182q0 -43 -7 -70t-26.5 -40t-53.5 -18t-85 -5h-471v-86q0 -66 24.5 -119t67.5 -90t101.5 -56.5t127.5 -19.5q61 0 101.5 12t68 27.5t45 29t33.5 13.5t30.5 -14.5t14.5 -34.5q0 -23 -28.5 -45.5t-74.5 -40t-101.5 -28.5 t-110.5 -11q-115 0 -212 53t-147 156q-66 -115 -162 -162t-186 -47q-57 0 -109.5 16t-91 49t-61 84t-22.5 119zM168 258q0 -92 56.5 -136t137.5 -44q59 0 111.5 22.5t92.5 55t62.5 71.5t22.5 72v152h-100q-78 0 -146.5 -5.5t-122 -26t-84 -58t-30.5 -103.5zM760 535h432 q74 0 93.5 14t19.5 55q0 55 -19.5 106.5t-55.5 91.5t-86 63.5t-112 23.5q-59 0 -108.5 -21.5t-86 -58.5t-57 -85t-20.5 -103v-86z" />
<glyph unicode="&#xe7;" horiz-adv-x="831" d="M100 367v233q0 80 22.5 149.5t71 120t121 80t170.5 29.5q63 0 114.5 -13.5t87.5 -32t55.5 -40t19.5 -39.5t-13.5 -33.5t-33.5 -15.5q-12 0 -27.5 12t-40 27.5t-63.5 28t-97 12.5q-141 0 -213.5 -76t-72.5 -209v-233q0 -133 72.5 -209t215.5 -76q61 0 101.5 12t66 27.5 t42 29t30.5 13.5q18 0 31.5 -16.5t13.5 -32.5q0 -18 -17.5 -39t-51 -39.5t-82 -31.5t-107.5 -15l-29 -119q104 -4 149.5 -48t45.5 -97q0 -57 -44 -104.5t-130 -47.5q-18 0 -45 3t-51.5 9t-42 15.5t-17.5 21.5q0 10 8.5 26.5t20.5 16.5q10 0 36.5 -13t78.5 -13 q61 0 85.5 24.5t24.5 56.5q0 45 -37 65.5t-100 25.5l-68 4l43 174q-88 6 -152.5 35.5t-107.5 80t-63.5 117t-20.5 144.5z" />
<glyph unicode="&#xe8;" horiz-adv-x="923" d="M98 367v243q0 76 30 142.5t81 117t119.5 80t146.5 29.5q74 0 141.5 -27.5t118.5 -77t82 -118t31 -148.5q0 -57 -14.5 -89t-39 -47t-56 -18t-64.5 -3h-475v-86q0 -66 24.5 -119t68.5 -90t104.5 -56.5t131.5 -19.5q63 0 103.5 12t66 27.5t42 29t32.5 13.5q18 0 32.5 -16.5 t14.5 -32.5t-20.5 -38t-58.5 -41.5t-93 -32.5t-123 -13q-94 0 -172 27.5t-134 76.5t-88 119t-32 156zM199 535h436q70 0 92.5 13t22.5 60q0 51 -19.5 102.5t-56.5 90.5t-87 63.5t-112 24.5q-59 0 -109.5 -21.5t-87 -58.5t-58 -86t-21.5 -105v-83zM324 1380q0 16 11 31.5 t30 15.5q6 0 14 -4l219 -125q18 -8 18 -30q0 -18 -13 -32.5t-32 -14.5q-8 0 -20 6l-205 112q-23 14 -22 41z" />
<glyph unicode="&#xe9;" horiz-adv-x="923" d="M98 367v243q0 76 30 142.5t81 117t119.5 80t146.5 29.5q74 0 141.5 -27.5t118.5 -77t82 -118t31 -148.5q0 -57 -14.5 -89t-39 -47t-56 -18t-64.5 -3h-475v-86q0 -66 24.5 -119t68.5 -90t104.5 -56.5t131.5 -19.5q63 0 103.5 12t66 27.5t42 29t32.5 13.5q18 0 32.5 -16.5 t14.5 -32.5t-20.5 -38t-58.5 -41.5t-93 -32.5t-123 -13q-94 0 -172 27.5t-134 76.5t-88 119t-32 156zM199 535h436q70 0 92.5 13t22.5 60q0 51 -19.5 102.5t-56.5 90.5t-87 63.5t-112 24.5q-59 0 -109.5 -21.5t-87 -58.5t-58 -86t-21.5 -105v-83zM328 1268q0 23 18 30 l219 125q8 4 17 4q18 0 28.5 -15t10.5 -32q0 -27 -23 -41l-205 -112q-10 -6 -20 -6q-18 0 -31.5 14t-13.5 33z" />
<glyph unicode="&#xea;" horiz-adv-x="923" d="M98 367v243q0 76 30 142.5t81 117t119.5 80t146.5 29.5q74 0 141.5 -27.5t118.5 -77t82 -118t31 -148.5q0 -57 -14.5 -89t-39 -47t-56 -18t-64.5 -3h-475v-86q0 -66 24.5 -119t68.5 -90t104.5 -56.5t131.5 -19.5q63 0 103.5 12t66 27.5t42 29t32.5 13.5q18 0 32.5 -16.5 t14.5 -32.5t-20.5 -38t-58.5 -41.5t-93 -32.5t-123 -13q-94 0 -172 27.5t-134 76.5t-88 119t-32 156zM199 535h436q70 0 92.5 13t22.5 60q0 51 -19.5 102.5t-56.5 90.5t-87 63.5t-112 24.5q-59 0 -109.5 -21.5t-87 -58.5t-58 -86t-21.5 -105v-83zM203 1268q0 23 22 35 l213 114q16 10 35 10q18 0 35 -10l213 -112q23 -12 22 -41q0 -16 -11 -28.5t-27 -12.5q-4 0 -9.5 2t-9.5 4l-213 112l-213 -114l-8 -4t-8 -2q-16 0 -28.5 13t-12.5 34z" />
<glyph unicode="&#xeb;" horiz-adv-x="923" d="M98 367v243q0 76 30 142.5t81 117t119.5 80t146.5 29.5q74 0 141.5 -27.5t118.5 -77t82 -118t31 -148.5q0 -57 -14.5 -89t-39 -47t-56 -18t-64.5 -3h-475v-86q0 -66 24.5 -119t68.5 -90t104.5 -56.5t131.5 -19.5q63 0 103.5 12t66 27.5t42 29t32.5 13.5q18 0 32.5 -16.5 t14.5 -32.5t-20.5 -38t-58.5 -41.5t-93 -32.5t-123 -13q-94 0 -172 27.5t-134 76.5t-88 119t-32 156zM199 535h436q70 0 92.5 13t22.5 60q0 51 -19.5 102.5t-56.5 90.5t-87 63.5t-112 24.5q-59 0 -109.5 -21.5t-87 -58.5t-58 -86t-21.5 -105v-83zM287 1290q0 29 19 47.5 t48 18.5t47.5 -18.5t18.5 -47.5t-18.5 -48t-47.5 -19t-48 19.5t-19 47.5zM526 1290q0 29 18.5 47.5t49.5 18.5q29 0 47 -18.5t18 -47.5t-18 -48t-47 -19q-31 0 -49.5 19.5t-18.5 47.5z" />
<glyph unicode="&#xec;" horiz-adv-x="370" d="M31 1380q0 16 11 31.5t30 15.5q6 0 14 -4l219 -125q18 -8 19 -30q0 -18 -13.5 -32.5t-31.5 -14.5q-8 0 -21 6l-205 112q-23 14 -22 41zM135 45v881q0 18 13 29.5t36 11.5t37.5 -11.5t14.5 -29.5v-881q0 -16 -14.5 -30.5t-37.5 -14.5t-36 14.5t-13 30.5z" />
<glyph unicode="&#xed;" horiz-adv-x="370" d="M41 1268q0 23 18 30l220 125q8 4 16 4q18 0 28.5 -15t10.5 -32q0 -27 -23 -41l-205 -112q-10 -6 -20 -6q-18 0 -31.5 14t-13.5 33zM135 45v881q0 18 13 29.5t36 11.5t37.5 -11.5t14.5 -29.5v-881q0 -16 -14.5 -30.5t-37.5 -14.5t-36 14.5t-13 30.5z" />
<glyph unicode="&#xee;" horiz-adv-x="370" d="M-86 1268q0 23 23 35l213 114q16 10 34 10t35 -10l213 -112q23 -12 23 -41q0 -16 -11.5 -28.5t-27.5 -12.5q-4 0 -9.5 2t-9.5 4l-213 112l-213 -114l-8 -4t-8 -2q-16 0 -28.5 13t-12.5 34zM135 45v881q0 18 13 29.5t36 11.5t37.5 -11.5t14.5 -29.5v-881 q0 -16 -14.5 -30.5t-37.5 -14.5t-36 14.5t-13 30.5z" />
<glyph unicode="&#xef;" horiz-adv-x="370" d="M0 1290q0 29 19.5 47.5t48.5 18.5t47 -18.5t18 -47.5t-18.5 -48t-46.5 -19q-29 0 -48.5 19.5t-19.5 47.5zM135 45v881q0 18 13 29.5t36 11.5t37.5 -11.5t14.5 -29.5v-881q0 -16 -14.5 -30.5t-37.5 -14.5t-36 14.5t-13 30.5zM240 1290q0 29 18 47.5t49 18.5 q29 0 47.5 -18.5t18.5 -47.5t-18.5 -48t-47.5 -19q-31 0 -49 19.5t-18 47.5z" />
<glyph unicode="&#xf0;" horiz-adv-x="972" d="M98 367v237q0 76 29 143.5t78 119t114.5 82t141.5 30.5q43 0 89 -11.5t86 -34t69.5 -54t44.5 -72.5q-14 158 -57.5 275.5t-102.5 199.5l-187 -106q-8 -8 -20 -9q-16 0 -29.5 16.5t-13.5 33.5q0 10 5 19t15 13l175 101q-59 61 -125 90.5t-125 29.5q-14 4 -21.5 15.5 t-7.5 27.5q0 18 13.5 37t47.5 19q72 0 153 -41t155 -125l155 90q12 4 17 4q16 0 30.5 -14.5t14.5 -30.5q0 -23 -21 -35l-145 -84q76 -106 125 -254.5t49 -337.5v-374q0 -74 -31 -142.5t-83 -121t-119.5 -84t-143.5 -31.5t-144.5 30.5t-119.5 83t-81 121t-30 144.5zM199 367 q0 -55 21.5 -106.5t58 -91.5t87 -63.5t107.5 -23.5t107.5 23.5t88.5 63.5t59.5 91t21.5 107v245q0 53 -22.5 102.5t-60.5 87.5t-88.5 60.5t-107.5 22.5t-107.5 -23.5t-87 -63.5t-57 -90.5t-20.5 -103.5v-237z" />
<glyph unicode="&#xf1;" d="M135 45v881q0 18 13.5 29.5t35.5 11.5q20 0 34.5 -11.5t14.5 -29.5v-103q33 59 101.5 107.5t173.5 48.5q74 0 140.5 -29.5t116.5 -80t79.5 -119t29.5 -146.5v-559q0 -23 -16 -34t-35 -11q-18 0 -33.5 11.5t-15.5 33.5v559q0 53 -21.5 103.5t-59.5 90.5t-88 63.5 t-105 23.5q-49 0 -96.5 -19.5t-85 -55.5t-60 -88t-22.5 -118v-559q0 -16 -14.5 -30.5t-37.5 -14.5t-36 14.5t-13 30.5zM186 1307q0 25 18.5 44t46.5 34.5t59.5 23.5t58.5 8q39 0 69.5 -11t60 -25.5t61.5 -26t73 -11.5q35 0 55.5 10.5t34.5 21.5t24.5 21.5t22.5 10.5 q16 0 25.5 -12.5t9.5 -26.5q0 -29 -18.5 -49.5t-45 -33.5t-56.5 -20.5t-52 -7.5q-39 0 -70 11.5t-61.5 26t-62 25.5t-74.5 11q-33 0 -55.5 -10t-39 -23.5t-28 -23.5t-23.5 -10q-16 0 -24.5 13t-8.5 30z" />
<glyph unicode="&#xf2;" horiz-adv-x="944" d="M96 367v237q0 76 30 143.5t81 119t118.5 82t145.5 30.5q76 0 143.5 -29.5t119.5 -80t83 -119t31 -146.5v-237q0 -74 -31 -142.5t-83 -121t-119.5 -84t-143.5 -31.5t-143.5 30.5t-118.5 83t-82 121t-31 144.5zM197 367q0 -55 21.5 -106.5t58 -91.5t87 -63.5t107.5 -23.5 t107.5 23.5t88.5 63.5t59.5 91t21.5 107v237q0 53 -21.5 103.5t-59.5 90.5t-88.5 63.5t-107.5 23.5t-107.5 -23.5t-87 -63.5t-58 -90.5t-21.5 -103.5v-237zM322 1380q0 16 11 31.5t29 15.5q6 0 15 -4l219 -125q18 -8 18 -30q0 -18 -13 -32.5t-32 -14.5q-8 0 -20 6l-205 112 q-23 14 -22 41z" />
<glyph unicode="&#xf3;" horiz-adv-x="944" d="M96 367v237q0 76 30 143.5t81 119t118.5 82t145.5 30.5q76 0 143.5 -29.5t119.5 -80t83 -119t31 -146.5v-237q0 -74 -31 -142.5t-83 -121t-119.5 -84t-143.5 -31.5t-143.5 30.5t-118.5 83t-82 121t-31 144.5zM197 367q0 -55 21.5 -106.5t58 -91.5t87 -63.5t107.5 -23.5 t107.5 23.5t88.5 63.5t59.5 91t21.5 107v237q0 53 -21.5 103.5t-59.5 90.5t-88.5 63.5t-107.5 23.5t-107.5 -23.5t-87 -63.5t-58 -90.5t-21.5 -103.5v-237zM326 1268q0 23 18 30l219 125q8 4 17 4q18 0 28 -15t10 -32q0 -27 -22 -41l-205 -112q-10 -6 -20 -6q-18 0 -31.5 14 t-13.5 33z" />
<glyph unicode="&#xf4;" horiz-adv-x="944" d="M96 367v237q0 76 30 143.5t81 119t118.5 82t145.5 30.5q76 0 143.5 -29.5t119.5 -80t83 -119t31 -146.5v-237q0 -74 -31 -142.5t-83 -121t-119.5 -84t-143.5 -31.5t-143.5 30.5t-118.5 83t-82 121t-31 144.5zM197 367q0 -55 21.5 -106.5t58 -91.5t87 -63.5t107.5 -23.5 t107.5 23.5t88.5 63.5t59.5 91t21.5 107v237q0 53 -21.5 103.5t-59.5 90.5t-88.5 63.5t-107.5 23.5t-107.5 -23.5t-87 -63.5t-58 -90.5t-21.5 -103.5v-237zM201 1268q0 23 22 35l213 114q16 10 35 10q18 0 35 -10l213 -112q23 -12 22 -41q0 -16 -11 -28.5t-28 -12.5 q-4 0 -9 2t-9 4l-213 112l-213 -114l-8 -4t-8 -2q-16 0 -28.5 13t-12.5 34z" />
<glyph unicode="&#xf5;" horiz-adv-x="944" d="M96 367v237q0 76 30 143.5t81 119t118.5 82t145.5 30.5q76 0 143.5 -29.5t119.5 -80t83 -119t31 -146.5v-237q0 -74 -31 -142.5t-83 -121t-119.5 -84t-143.5 -31.5t-143.5 30.5t-118.5 83t-82 121t-31 144.5zM164 1307q0 25 18.5 44t46 34.5t59 23.5t58.5 8 q39 0 69.5 -11t60.5 -25.5t61.5 -26t72.5 -11.5q35 0 55.5 10.5t35 21.5t24.5 21.5t23 10.5q16 0 25 -12.5t9 -26.5q0 -29 -18.5 -49.5t-45 -33.5t-56 -20.5t-52.5 -7.5q-39 0 -69.5 11.5t-61 26t-62.5 25.5t-75 11q-33 0 -55.5 -10t-39 -23.5t-27.5 -23.5t-23 -10 q-16 0 -24.5 13t-8.5 30zM197 367q0 -55 21.5 -106.5t58 -91.5t87 -63.5t107.5 -23.5t107.5 23.5t88.5 63.5t59.5 91t21.5 107v237q0 53 -21.5 103.5t-59.5 90.5t-88.5 63.5t-107.5 23.5t-107.5 -23.5t-87 -63.5t-58 -90.5t-21.5 -103.5v-237z" />
<glyph unicode="&#xf6;" horiz-adv-x="944" d="M96 367v237q0 76 30 143.5t81 119t118.5 82t145.5 30.5q76 0 143.5 -29.5t119.5 -80t83 -119t31 -146.5v-237q0 -74 -31 -142.5t-83 -121t-119.5 -84t-143.5 -31.5t-143.5 30.5t-118.5 83t-82 121t-31 144.5zM197 367q0 -55 21.5 -106.5t58 -91.5t87 -63.5t107.5 -23.5 t107.5 23.5t88.5 63.5t59.5 91t21.5 107v237q0 53 -21.5 103.5t-59.5 90.5t-88.5 63.5t-107.5 23.5t-107.5 -23.5t-87 -63.5t-58 -90.5t-21.5 -103.5v-237zM285 1290q0 29 19 47.5t48 18.5t47.5 -18.5t18.5 -47.5t-18.5 -48t-47.5 -19t-48 19.5t-19 47.5zM524 1290 q0 29 18.5 47.5t49.5 18.5q29 0 47 -18.5t18 -47.5t-18 -48t-47 -19q-31 0 -49.5 19.5t-18.5 47.5z" />
<glyph unicode="&#xf7;" horiz-adv-x="937" d="M98 492q0 20 12.5 33.5t30.5 13.5h654q16 0 30.5 -13.5t14.5 -33.5t-14.5 -33t-30.5 -13h-654q-18 0 -30.5 13t-12.5 33zM367 160q0 39 27.5 66.5t68.5 27.5q37 0 64.5 -27.5t27.5 -66.5q0 -37 -27.5 -64.5t-64.5 -27.5q-41 0 -68.5 27.5t-27.5 64.5zM367 823 q0 39 27.5 67t68.5 28q37 0 64.5 -28t27.5 -67q0 -37 -27.5 -64.5t-64.5 -27.5q-41 0 -68.5 27.5t-27.5 64.5z" />
<glyph unicode="&#xf8;" horiz-adv-x="944" d="M96 367v237q0 76 30 143.5t81 119t118.5 82t145.5 30.5q51 0 99 -14.5t89 -38.5l56 100q8 16 28 16q14 0 27.5 -12t13.5 -29q0 -12 -8 -26l-53 -96q57 -51 91 -122t34 -153v-237q0 -74 -31 -142.5t-83 -121t-119.5 -84t-143.5 -31.5q-55 0 -105.5 16t-95.5 45l-49 -92 q-12 -23 -35 -23q-14 0 -25 9.5t-11 25.5q0 10 6 21l57 106q-53 53 -85 123t-32 148zM197 367q0 -49 17 -95.5t48 -85.5l352 656q-66 43 -143 43q-57 0 -107.5 -23.5t-87 -63.5t-58 -90.5t-21.5 -103.5v-237zM317 133q68 -51 154 -51q57 0 107.5 23.5t88.5 63.5t59.5 91 t21.5 107v237q0 49 -19.5 97.5t-54.5 86.5z" />
<glyph unicode="&#xf9;" d="M125 362v562q0 16 14.5 29.5t36.5 13.5q18 0 33.5 -13.5t15.5 -29.5v-562q0 -53 21.5 -104t58.5 -90t87 -62.5t108 -23.5q57 0 107 23.5t87 62.5t58.5 89t21.5 105v564q0 16 15.5 28.5t35.5 12.5q23 0 36 -12.5t13 -28.5v-564q0 -76 -29.5 -143t-80.5 -118.5t-119.5 -82 t-144.5 -30.5q-78 0 -146.5 30.5t-119 82t-80 120t-29.5 141.5zM348 1380q0 16 11.5 31.5t29.5 15.5q6 0 14 -4l220 -125q18 -8 18 -30q0 -18 -13.5 -32.5t-31.5 -14.5q-8 0 -21 6l-204 112q-23 14 -23 41z" />
<glyph unicode="&#xfa;" d="M125 362v562q0 16 14.5 29.5t36.5 13.5q18 0 33.5 -13.5t15.5 -29.5v-562q0 -53 21.5 -104t58.5 -90t87 -62.5t108 -23.5q57 0 107 23.5t87 62.5t58.5 89t21.5 105v564q0 16 15.5 28.5t35.5 12.5q23 0 36 -12.5t13 -28.5v-564q0 -76 -29.5 -143t-80.5 -118.5t-119.5 -82 t-144.5 -30.5q-78 0 -146.5 30.5t-119 82t-80 120t-29.5 141.5zM356 1268q0 23 19 30l219 125q8 4 16 4q18 0 28.5 -15t10.5 -32q0 -27 -22 -41l-205 -112q-10 -6 -21 -6q-18 0 -31.5 14t-13.5 33z" />
<glyph unicode="&#xfb;" d="M125 362v562q0 16 14.5 29.5t36.5 13.5q18 0 33.5 -13.5t15.5 -29.5v-562q0 -53 21.5 -104t58.5 -90t87 -62.5t108 -23.5q57 0 107 23.5t87 62.5t58.5 89t21.5 105v564q0 16 15.5 28.5t35.5 12.5q23 0 36 -12.5t13 -28.5v-564q0 -76 -29.5 -143t-80.5 -118.5t-119.5 -82 t-144.5 -30.5q-78 0 -146.5 30.5t-119 82t-80 120t-29.5 141.5zM229 1268q0 23 23 35l213 114q16 10 35 10q18 0 35 -10l213 -112q23 -12 22 -41q0 -16 -11 -28.5t-28 -12.5q-4 0 -9 2t-9 4l-213 112l-213 -114q-4 -2 -8.5 -4t-8.5 -2q-16 0 -28.5 13t-12.5 34z" />
<glyph unicode="&#xfc;" d="M125 362v562q0 16 14.5 29.5t36.5 13.5q18 0 33.5 -13.5t15.5 -29.5v-562q0 -53 21.5 -104t58.5 -90t87 -62.5t108 -23.5q57 0 107 23.5t87 62.5t58.5 89t21.5 105v564q0 16 15.5 28.5t35.5 12.5q23 0 36 -12.5t13 -28.5v-564q0 -76 -29.5 -143t-80.5 -118.5t-119.5 -82 t-144.5 -30.5q-78 0 -146.5 30.5t-119 82t-80 120t-29.5 141.5zM313 1290q0 29 19.5 47.5t48.5 18.5t47 -18.5t18 -47.5t-18 -48t-47 -19t-48.5 19.5t-19.5 47.5zM553 1290q0 29 18.5 47.5t49.5 18.5q29 0 47 -18.5t18 -47.5t-18.5 -48t-46.5 -19q-31 0 -49.5 19.5 t-18.5 47.5z" />
<glyph unicode="&#xfd;" horiz-adv-x="835" d="M35 932q0 20 18.5 34.5t40.5 14.5q12 0 23.5 -7t15.5 -20l289 -788l280 788q12 27 39 27q18 0 38 -13.5t20 -35.5q0 -10 -2 -17l-324 -882q-29 -80 -64.5 -170t-81.5 -167t-106.5 -127t-136.5 -50q-18 0 -32.5 11t-14.5 36q0 18 8 32.5t29 14.5q51 0 95 37t81 97 t67.5 135t53.5 151l-332 882q-4 12 -4 17zM283 1268q0 23 18 30l219 125q8 4 17 4q18 0 28 -15t10 -32q0 -27 -22 -41l-205 -112q-10 -6 -20 -6q-18 0 -31.5 14t-13.5 33z" />
<glyph unicode="&#xfe;" horiz-adv-x="972" d="M135 -436v1962q0 18 13 30.5t36 12.5t37.5 -12.5t14.5 -30.5v-703q35 59 102.5 107.5t169.5 48.5q76 0 142.5 -29.5t116.5 -80t80 -119t30 -146.5v-237q0 -74 -30 -142.5t-80 -121t-115.5 -84t-139.5 -31.5q-94 0 -168 46t-108 109v-579q0 -16 -14.5 -30.5t-37.5 -14.5 t-36 14t-13 31zM236 297q0 -25 20 -61.5t56 -70.5t85 -58.5t107 -24.5q55 0 104 23.5t86 63.5t59.5 91t22.5 107v237q0 53 -21.5 103.5t-59.5 90.5t-88 63.5t-107 23.5q-49 0 -96.5 -19.5t-85 -55.5t-60 -88t-22.5 -118v-307z" />
<glyph unicode="&#xff;" horiz-adv-x="835" d="M35 932q0 20 18.5 34.5t40.5 14.5q12 0 23.5 -7t15.5 -20l289 -788l280 788q12 27 39 27q18 0 38 -13.5t20 -35.5q0 -10 -2 -17l-324 -882q-29 -80 -64.5 -170t-81.5 -167t-106.5 -127t-136.5 -50q-18 0 -32.5 11t-14.5 36q0 18 8 32.5t29 14.5q51 0 95 37t81 97 t67.5 135t53.5 151l-332 882q-4 12 -4 17zM233 1290q0 29 19.5 47.5t48.5 18.5t47.5 -18.5t18.5 -47.5t-18.5 -48t-47.5 -19t-48.5 19.5t-19.5 47.5zM473 1290q0 29 18.5 47.5t49.5 18.5q29 0 47 -18.5t18 -47.5t-18.5 -48t-46.5 -19q-31 0 -49.5 19.5t-18.5 47.5z" />
<glyph unicode="&#x152;" horiz-adv-x="1724" d="M147 418v649q0 117 31 199t85 133t128 74.5t160 23.5q102 0 187 -35t139 -112v102q0 23 15 34t34 11h710q23 0 32 -15.5t9 -31.5q0 -20 -10 -35.5t-31 -15.5h-665v-602h315q20 0 30.5 -14.5t10.5 -34.5q0 -16 -9 -31t-32 -15h-315v-604h665q20 0 30.5 -15t10.5 -36 q0 -16 -9 -31.5t-32 -15.5h-710q-18 0 -33.5 11.5t-15.5 33.5v90q-53 -78 -138.5 -112.5t-187.5 -34.5q-86 0 -160 23.5t-128 74.5t-85 133t-31 199zM250 418q0 -172 81 -252t228 -80t229 80t82 252v649q0 172 -81.5 252t-229.5 80q-147 0 -228 -80t-81 -252v-649z" />
<glyph unicode="&#x153;" horiz-adv-x="1572" d="M96 367v237q0 76 30 143.5t81 119t118.5 82t145.5 30.5q104 0 192.5 -55.5t135.5 -147.5q45 90 132 146.5t193 56.5q74 0 141.5 -27.5t118 -77t81 -117t30.5 -145.5q0 -59 -14.5 -92t-38 -48t-54 -18t-65.5 -3h-475v-86q0 -133 92 -209t244 -76q61 0 98 12t61.5 27.5 t41 29t34.5 13.5t32.5 -14.5t14.5 -36.5q0 -16 -21.5 -38t-60 -40.5t-93 -31.5t-120.5 -13q-131 0 -229 54t-145 151q-47 -90 -134.5 -147.5t-191.5 -57.5q-76 0 -143.5 30.5t-118.5 83t-82 121t-31 144.5zM197 367q0 -55 21.5 -106.5t58 -91.5t87 -63.5t107.5 -23.5 t107.5 23.5t88.5 63.5t59.5 91t21.5 107v237q0 53 -21.5 103.5t-59.5 90.5t-88.5 63.5t-107.5 23.5t-107.5 -23.5t-87 -63.5t-58 -90.5t-21.5 -103.5v-237zM848 535h436q70 0 91.5 13t21.5 60q0 51 -19.5 102.5t-55.5 90.5t-87 63.5t-113 24.5q-57 0 -107 -21.5t-87 -57.5 t-58.5 -83t-21.5 -100v-92z" />
<glyph unicode="&#x178;" horiz-adv-x="1064" d="M43 1452q0 23 15.5 34t33.5 11q25 0 47 -37l393 -788l396 788q18 37 47 37q16 0 30.5 -11t14.5 -34q0 -6 -1 -16.5t-7 -22.5l-426 -833q-2 -4 -2 -15v-520q0 -23 -16.5 -34t-35.5 -11q-20 0 -35.5 11.5t-15.5 33.5v520q0 6 -4 15l-424 833q-10 27 -10 39zM346 1817 q0 29 19.5 47t48.5 18t47 -18.5t18 -46.5q0 -29 -18.5 -48.5t-46.5 -19.5q-29 0 -48.5 19.5t-19.5 48.5zM586 1817q0 29 18 47t49 18q29 0 47.5 -18.5t18.5 -46.5q0 -29 -18.5 -48.5t-47.5 -19.5q-31 0 -49 19.5t-18 48.5z" />
<glyph unicode="&#x2c6;" horiz-adv-x="540" d="M0 1268q0 23 23 35l213 114q16 10 34 10t35 -10l213 -112q23 -12 23 -41q0 -16 -11.5 -28.5t-27.5 -12.5q-4 0 -9.5 2t-9.5 4l-213 112l-213 -114l-8 -4t-8 -2q-16 0 -28.5 13t-12.5 34z" />
<glyph unicode="&#x2dc;" horiz-adv-x="618" d="M0 1307q0 25 18.5 44t46 34.5t59.5 23.5t58 8q39 0 70 -11t60.5 -25.5t61.5 -26t72 -11.5q35 0 55.5 10.5t35 21.5t24.5 21.5t23 10.5q16 0 25 -12.5t9 -26.5q0 -29 -18 -49.5t-45 -33.5t-56.5 -20.5t-52.5 -7.5q-39 0 -69.5 11.5t-61 26t-62.5 25.5t-75 11 q-33 0 -55.5 -10t-38.5 -23.5t-27.5 -23.5t-23.5 -10q-16 0 -24.5 13t-8.5 30z" />
<glyph unicode="&#x2000;" horiz-adv-x="1049" />
<glyph unicode="&#x2001;" horiz-adv-x="2099" />
<glyph unicode="&#x2002;" horiz-adv-x="1049" />
<glyph unicode="&#x2003;" horiz-adv-x="2099" />
<glyph unicode="&#x2004;" horiz-adv-x="699" />
<glyph unicode="&#x2005;" horiz-adv-x="524" />
<glyph unicode="&#x2006;" horiz-adv-x="349" />
<glyph unicode="&#x2007;" horiz-adv-x="349" />
<glyph unicode="&#x2008;" horiz-adv-x="262" />
<glyph unicode="&#x2009;" horiz-adv-x="419" />
<glyph unicode="&#x200a;" horiz-adv-x="116" />
<glyph unicode="&#x2010;" horiz-adv-x="819" d="M100 492q0 20 12.5 33.5t30.5 13.5h533q16 0 29.5 -13.5t13.5 -33.5t-13.5 -33t-29.5 -13h-533q-18 0 -30.5 13t-12.5 33z" />
<glyph unicode="&#x2011;" horiz-adv-x="819" d="M100 492q0 20 12.5 33.5t30.5 13.5h533q16 0 29.5 -13.5t13.5 -33.5t-13.5 -33t-29.5 -13h-533q-18 0 -30.5 13t-12.5 33z" />
<glyph unicode="&#x2012;" horiz-adv-x="819" d="M100 492q0 20 12.5 33.5t30.5 13.5h533q16 0 29.5 -13.5t13.5 -33.5t-13.5 -33t-29.5 -13h-533q-18 0 -30.5 13t-12.5 33z" />
<glyph unicode="&#x2013;" horiz-adv-x="942" d="M100 492q0 20 12.5 33.5t30.5 13.5h656q16 0 29.5 -13.5t13.5 -33.5t-13.5 -33t-29.5 -13h-656q-18 0 -30.5 13t-12.5 33z" />
<glyph unicode="&#x2014;" horiz-adv-x="1515" d="M100 492q0 20 12.5 33.5t30.5 13.5h1229q16 0 30.5 -13.5t14.5 -33.5t-14 -33t-31 -13h-1229q-18 0 -30.5 13t-12.5 33z" />
<glyph unicode="&#x2018;" horiz-adv-x="317" d="M74 1282q0 23 21.5 84t54.5 129q10 23 32 23q14 0 27.5 -10.5t13.5 -26.5q0 -6 -4 -15l-39 -104q27 -8 43.5 -30.5t16.5 -49.5q0 -35 -23.5 -59.5t-60.5 -24.5q-33 0 -57.5 24.5t-24.5 59.5z" />
<glyph unicode="&#x2019;" horiz-adv-x="315" d="M80 1434q0 35 24.5 59.5t59.5 24.5t58.5 -25t23.5 -59q0 -23 -20.5 -84.5t-53.5 -128.5q-12 -23 -33 -23q-16 0 -28.5 10.5t-12.5 26.5q0 10 2 14l39 105q-27 10 -43 31.5t-16 48.5z" />
<glyph unicode="&#x201a;" horiz-adv-x="337" d="M86 72q0 35 23.5 59.5t60.5 24.5q33 0 57.5 -25t24.5 -59q0 -25 -21.5 -85.5t-54.5 -127.5q-10 -23 -33 -23q-14 0 -27.5 9.5t-13.5 25.5q0 10 4 16l37 105q-25 8 -41 29.5t-16 50.5z" />
<glyph unicode="&#x201c;" horiz-adv-x="608" d="M76 1282q0 23 20.5 84t53.5 129q12 23 32 23q16 0 28.5 -10.5t12.5 -26.5q0 -10 -2 -15l-39 -104q27 -8 42.5 -30.5t15.5 -49.5q0 -35 -23.5 -59.5t-58.5 -24.5t-58.5 24.5t-23.5 59.5zM365 1282q0 23 21.5 84t53.5 129q10 23 33 23q14 0 27.5 -10.5t13.5 -26.5 q0 -10 -4 -15l-37 -104q25 -8 41 -30.5t16 -49.5q0 -35 -23.5 -59.5t-60.5 -24.5q-33 0 -57 24.5t-24 59.5z" />
<glyph unicode="&#x201d;" horiz-adv-x="606" d="M80 1434q0 35 23.5 59.5t60.5 24.5q35 0 58.5 -25t23.5 -59q0 -23 -21.5 -84.5t-54.5 -128.5q-10 -23 -31 -23q-16 0 -28.5 10.5t-12.5 26.5q0 10 2 14l39 105q-27 10 -43 31.5t-16 48.5zM371 1434q0 35 23.5 59.5t60.5 24.5q33 0 57.5 -25t24.5 -59q0 -23 -21.5 -84.5 t-54.5 -128.5q-10 -23 -33 -23q-14 0 -27.5 10.5t-13.5 26.5q0 10 4 14l37 105q-25 10 -41 31.5t-16 48.5z" />
<glyph unicode="&#x201e;" horiz-adv-x="628" d="M86 72q0 35 23.5 59.5t60.5 24.5q33 0 57.5 -25t24.5 -59q0 -25 -21.5 -85.5t-54.5 -127.5q-10 -23 -33 -23q-14 0 -27.5 9.5t-13.5 25.5q0 10 4 16l37 105q-25 8 -41 29.5t-16 50.5zM377 72q0 35 23.5 59.5t58.5 24.5t58.5 -25t23.5 -59q0 -25 -20.5 -85.5t-53.5 -127.5 q-10 -23 -33 -23q-16 0 -28.5 9.5t-12.5 25.5q0 10 2 16l39 105q-27 8 -42 29.5t-15 50.5z" />
<glyph unicode="&#x2022;" horiz-adv-x="630" d="M109 614q0 39 16 76t45 64.5t66.5 44t80.5 16.5q41 0 79 -16.5t65.5 -44t44 -64.5t16.5 -76q0 -41 -16.5 -77.5t-44 -64.5t-65.5 -44t-79 -16q-43 0 -80.5 16t-66.5 44t-45 64.5t-16 77.5z" />
<glyph unicode="&#x2026;" horiz-adv-x="1071" d="M86 72q0 35 23.5 59.5t60.5 24.5q33 0 57.5 -25t24.5 -59q0 -35 -24.5 -59.5t-57.5 -24.5q-37 0 -60.5 24.5t-23.5 59.5zM453 72q0 35 23.5 59.5t60.5 24.5q33 0 57 -25t24 -59q0 -35 -24.5 -59.5t-56.5 -24.5q-37 0 -60.5 24.5t-23.5 59.5zM819 72q0 35 23.5 59.5 t60.5 24.5q33 0 57.5 -25t24.5 -59q0 -35 -24.5 -59.5t-57.5 -24.5q-37 0 -60.5 24.5t-23.5 59.5z" />
<glyph unicode="&#x202f;" horiz-adv-x="419" />
<glyph unicode="&#x2039;" horiz-adv-x="456" d="M76 567q0 18 16 45l189 353q14 20 41 20q23 0 38 -16.5t15 -32.5q0 -12 -6 -21l-189 -348l189 -346q6 -10 6 -20q0 -18 -17.5 -33.5t-40.5 -15.5q-25 0 -36 20l-189 350q-8 12 -12 22.5t-4 22.5z" />
<glyph unicode="&#x203a;" horiz-adv-x="456" d="M82 201q0 10 6 20l188 346l-188 348q-6 8 -6 21q0 16 15.5 32.5t37.5 16.5q31 0 41 -20l191 -353q14 -29 14 -45q0 -12 -4 -22t-10 -23l-191 -350q-12 -20 -37 -20q-23 0 -40 15t-17 34z" />
<glyph unicode="&#x205f;" horiz-adv-x="524" />
<glyph unicode="&#x20ac;" horiz-adv-x="1173" d="M72 571q0 20 11 33.5t30 13.5h137v209h-137q-18 0 -29.5 12.5t-11.5 30.5q0 20 11 34t30 14h137v149q0 117 31.5 199t87 133t130 74.5t160.5 23.5q96 0 173 -26.5t130.5 -72.5t82 -109.5t28.5 -137.5q0 -53 -51 -53q-23 0 -37 10t-14 33q0 63 -23.5 111t-64.5 81 t-97.5 49.5t-123.5 16.5q-147 0 -228.5 -80t-81.5 -252v-149h383q16 0 30.5 -13.5t14.5 -34.5q0 -18 -14 -30.5t-31 -12.5h-383v-209h383q16 0 30.5 -13t14.5 -32q0 -20 -14 -32.5t-31 -12.5h-383v-116q0 -160 79 -243t231 -83q68 0 124 16.5t97 49t64.5 81t23.5 113.5 q2 23 15 33t36 10q51 0 51 -53q0 -74 -28.5 -138.5t-82 -110.5t-130 -72.5t-173.5 -26.5q-88 0 -162.5 24.5t-130 75.5t-86 131t-30.5 193v116h-137q-18 0 -29.5 12.5t-11.5 30.5z" />
<glyph unicode="&#x2122;" horiz-adv-x="1255" d="M86 1534q0 14 6 26.5t23 12.5h393q14 0 21.5 -12.5t7.5 -26.5q0 -16 -7.5 -29.5t-21.5 -13.5h-154v-492q0 -16 -13 -24t-30 -8q-16 0 -29.5 8t-13.5 24v492h-153q-14 0 -21.5 13.5t-7.5 29.5zM594 999v531q0 23 13.5 33t29.5 10q23 0 38 -15.5t27 -41.5l148 -347l151 347 q25 57 66 57q16 0 28.5 -10.5t12.5 -32.5v-531q0 -16 -12.5 -24t-28.5 -8t-29.5 8t-13.5 24v392l-141 -328q-10 -25 -33 -25q-20 0 -29 25l-141 332v-396q0 -16 -13.5 -24t-29.5 -8t-29.5 8t-13.5 24z" />
<glyph unicode="&#x25fc;" horiz-adv-x="983" d="M0 0v983h983v-983h-983z" />
</font>
</defs>
</svg>
